#TITLE:La SeƱorita;
#SUBTITLE:;
#ARTIST:CAPTAIN.T;
#TITLETRANSLIT:;
#SUBTITLETRANSLIT:;
#ARTISTTRANSLIT:;
#GENRE:;
#CREDIT:;
#BANNER:La Senorita.png;
#BACKGROUND:La Senorita-bg.png;
#LYRICSPATH:La Senorita.lrc;
#CDTITLE:./CDTITLES/DANCE DANCE REVOLUTION 3RDMIX.PNG;
#MUSIC:La Senorita.mp3;
#OFFSET:-0.057;
#SAMPLESTART:33.810;
#SAMPLELENGTH:15.000;
#SELECTABLE:YES;
#DISPLAYBPM:182.000;
#BPMS:0.000=182.018
,36.000=182.006
,37.000=182.018
,39.000=182.006
,40.000=182.018
,42.000=182.006
,43.000=182.018
,45.000=182.006
,46.000=182.018
,48.000=182.006
,49.000=182.018
,51.000=182.006
,52.000=182.018
,54.000=182.006
,55.000=182.018
,57.000=182.006
,58.000=182.018
,60.000=182.006
,61.000=182.018
,63.000=182.006
,64.000=182.018
,66.000=182.006
,67.000=182.018
,69.000=182.006
,70.000=182.018
,72.000=182.006
,74.000=182.018
,75.000=182.006
,77.000=182.018
,78.000=182.006
,80.000=182.018
,81.000=182.006
,83.000=182.018
,84.000=182.006
,86.000=182.018
,87.000=182.006
,89.000=182.018
,90.000=182.006
,92.000=182.018
,93.000=182.006
,95.000=182.018
,96.000=182.006
,98.000=182.018
,99.000=182.006
,101.000=182.018
,102.000=182.006
,104.000=182.018
,105.000=182.006
,106.000=182.018
,107.000=182.006
,109.000=182.018
,110.000=182.006
,112.000=182.018
,113.000=182.006
,115.000=182.018
,116.000=182.006
,118.000=182.018
,119.000=182.006
,121.000=182.018
,122.000=182.006
,124.000=182.018
,125.000=182.006
,127.000=182.018
,128.000=182.006
,130.000=182.018
,131.000=182.006
,133.000=182.018
,134.000=182.006
,136.000=182.018
,137.000=182.006
,139.000=182.018
,140.000=182.006
,142.000=182.018
,143.000=182.006
,145.000=182.018
,146.000=182.006
,148.000=182.018
,149.000=182.006
,151.000=182.018
,152.000=182.006
,154.000=182.018
,155.000=182.006
,157.000=182.018
,158.000=182.006
,160.000=182.018
,161.000=182.006
,163.000=182.018
,164.000=182.006
,166.000=182.018
,167.000=182.006
,169.000=182.018
,170.000=182.006
,172.000=182.018
,173.000=182.006
,175.000=182.018
,176.000=182.006
,178.000=182.018
,179.000=182.006
,181.000=182.018
,182.000=182.006
,184.000=182.018
,185.000=182.006
,187.000=182.018
,188.000=182.006
,190.000=182.018
,191.000=182.006
,193.000=182.018
,194.000=182.006
,196.000=182.018
,197.000=182.006
,199.000=182.018
,200.000=182.006
,202.000=182.018
,203.000=182.006
,205.000=182.018
,206.000=182.006
,208.000=182.018
,209.000=182.006
,210.000=182.018
,211.000=182.006
,213.000=182.018
,214.000=182.006
,216.000=182.018
,217.000=182.006
,219.000=182.018
,220.000=182.006
,222.000=182.018
,223.000=182.006
,225.000=182.018
,226.000=182.006
,228.000=182.018
,229.000=182.006
,231.000=182.018
,232.000=182.006
,234.000=182.018
,235.000=182.006
,237.000=182.018
,238.000=182.006
,240.000=182.018
,241.000=182.006
,243.000=182.018
,244.000=182.006
,246.000=182.018
,247.000=182.006
,249.000=182.018
,250.000=182.006
,252.000=182.018
,253.000=182.006
,255.000=182.018
,256.000=182.006
,258.000=182.018
,259.000=182.006
,261.000=182.018
,262.000=182.006
,264.000=182.018
,265.000=182.006
,267.000=182.018
,268.000=182.006
,270.000=182.018
,271.000=182.006
,273.000=182.018
,274.000=182.006
,276.000=182.018
,277.000=182.006
,279.000=182.018
,280.000=182.006
,282.000=182.018
,283.000=182.006
,285.000=182.018
,286.000=182.006
,288.000=182.018
,289.000=182.006
,291.000=182.018
,292.000=182.006
,294.000=182.018
,295.000=182.006
,297.000=182.018
,298.000=182.006
,300.000=182.018
;
#STOPS:;
#BGCHANGES:;
#KEYSOUNDS:;
#ATTACKS:;

//---------------dance-single - ----------------
#NOTES:
     dance-single:
     :
     Beginner:
     3:
     0.280,0.414,0.452,0.171,0.000,133.000,45.000,17.000,0.000,0.000,0.000,0.280,0.414,0.452,0.171,0.000,133.000,45.000,17.000,0.000,0.000,0.000:
0000
0000
0000
0000
,
0000
0000
0000
0000
,
0000
0000
0000
0000
,
0000
0000
0000
0000
,
0000
0000
0000
0000
,
0000
1001
0000
0000
,
0000
0000
0010
0010
,
0000
0000
0000
0000
,
1000
1000
1000
0000
,
0000
0001
0000
1000
,
0000
0001
0000
0100
,
0000
0010
0000
1000
,
0000
0010
0000
0000
,
1001
0000
1001
0000
,
0000
0000
0100
0000
,
0010
0010
0000
0000
,
0001
0000
1000
0000
,
0000
0001
0000
1000
,
0000
0010
0000
1000
,
0000
0001
0000
0100
,
0000
0010
0000
1000
,
0000
0001
0000
0100
,
0000
0010
0000
1000
,
0000
0001
0000
1000
,
1002
0000
0000
0000
0000
0000
0000
0000
0000
0000
0000
0000
0000
0003
0000
0000
0000
0000
0000
0000
0000
0000
0000
0000
0000
0000
0000
0000
0000
0000
0000
0000
0000
0000
0000
0000
0000
0000
0000
0000
0000
0000
0000
0000
0000
0000
0000
0000
1001
0000
0000
0000
0000
0000
0000
0000
0000
0000
0000
0000
0000
0000
0000
0000
0000
0000
0000
0000
0000
0000
0000
0000
0000
0000
0000
0000
0000
0000
0000
0000
0000
0000
0000
0000
0000
0000
0000
0000
0000
0000
0000
0000
0000
0000
0000
0000
1001
0000
0000
0000
0000
0000
0000
0000
0000
0000
0000
0000
0000
0000
0000
0000
0000
0000
0000
0000
0000
0000
0000
0000
0000
0000
0000
0000
0000
0000
0000
0000
0000
0000
0000
0000
0000
0000
0000
0000
0000
0000
0000
0000
0000
0000
0000
0000
1001
0000
0000
0000
0000
0000
0000
0000
0000
0000
0000
0000
0000
0000
0000
0000
0000
0000
0000
0000
0000
0000
0000
0000
0000
0000
0000
0000
0000
0000
0000
0000
0000
0000
0000
0000
0000
0000
0000
0000
0000
0000
0000
0000
0000
0000
0000
0000
,
1001
0000
0000
0000
,
0000
0010
0010
0000
,
2000
0000
0000
3000
0000
0000
0000
0000
1000
0000
0000
0000
0000
0000
0000
0000
1000
0000
0000
0000
0000
0000
0000
0000
0000
0000
0000
0000
0000
0000
0000
0000
,
0000
0001
0001
0001
,
0001
0001
0000
0000
,
0000
0010
0010
0000
,
1000
1000
1000
0000
,
0000
0001
0001
0001
,
1000
2000
0000
0000
,
0000
3000
0000
0000
0000
0000
0000
0000
0000
0000
0000
0000
0000
0000
0000
0000
0000
0000
0000
0000
0000
0000
0000
0000
0000
0000
0000
0000
0000
0000
0000
0000
0000
0000
0000
0000
0000
0000
0000
0000
0000
0000
0000
0000
0000
0000
0000
0000
0000
0000
0000
0000
0000
0000
0000
0000
0000
0000
0000
0000
0000
0000
0000
0000
0000
0000
0000
0000
0000
0000
0000
0000
0000
0000
0000
0000
0000
0000
0000
0000
0000
0000
0000
0000
0000
0000
0000
0000
0000
0000
0000
0000
0000
0000
0000
0000
0000
0000
0000
0000
0000
0000
0000
0000
0000
0000
0000
0000
0000
0000
0000
0000
0000
0000
0000
0000
0000
0000
0000
0000
0000
0000
0000
0000
0000
0000
0000
0000
0000
0000
0000
0000
0000
0000
0000
0000
0000
0000
0000
0000
0000
0000
0000
0000
0000
0000
0000
0000
0000
0000
0000
0000
0000
0000
0000
0000
0000
0000
0000
0000
0000
0000
0000
0000
0000
0000
0000
0000
0000
0000
0000
0000
0000
0000
0000
0000
0000
0000
0000
0000
0000
0000
0000
0000
0000
0000
0000
0000
0000
0000
0000
0000
,
0001
0000
1000
0000
,
0000
0000
0000
0000
,
0010
0010
0010
0000
,
0000
1001
1001
0000
,
0010
0000
0010
0000
,
0000
1000
0000
0000
,
1000
0000
0010
0000
,
0000
0000
0000
0000
0000
0000
0000
0000
0200
0000
0000
0000
0000
0000
0000
0000
0000
0000
0000
0000
0000
0000
0000
0000
0000
0000
0000
0000
0000
0300
0000
0000
,
0000
1001
1001
1001
,
0000
0000
0000
0010
,
0000
0100
0000
0001
,
0000
1000
0000
0001
,
0000
1000
0000
0000
,
1001
0000
0000
0000
0000
0000
0000
0000
0000
0000
0000
0000
0000
0000
0000
0000
0000
0000
0000
0000
0000
0000
0000
0000
0000
0000
0000
0000
0000
0000
0000
0000
0000
0000
0000
0000
0000
0000
0000
0000
0000
0000
0000
0000
0000
0000
0000
0000
0220
0000
0000
0000
0000
0000
0000
0000
0000
0000
0300
0030
0000
0000
0000
0000
0000
0000
0000
0000
0000
0000
0000
0000
0000
0000
0000
0000
0000
0000
0000
0000
0000
0000
0000
0000
0000
0000
0000
0000
0000
0000
0000
0000
0000
0000
0000
0000
,
0001
0000
1000
0000
,
0010
0000
0010
0000
,
1001
0000
0010
0000
,
1001
0000
0000
0000
0000
0000
0000
0000
0000
0000
0000
0000
0000
0000
0000
0000
0000
0000
0000
0000
0000
0000
0000
0000
0000
0000
0000
0000
0000
0000
0000
0000
0000
0000
0000
0000
0000
0000
0000
0000
0000
0000
0000
0000
0000
0000
0000
0000
0000
0000
0000
0000
0000
0000
0000
0000
0000
0000
0000
0000
0000
0000
0000
0000
0000
0000
0000
0000
0000
0000
0000
0000
0000
0000
0000
0000
0000
0000
0000
0000
0000
0000
0000
0000
0000
0000
0000
0000
0000
0000
0000
0000
0000
0000
0000
0000
0120
0000
0000
0000
0000
0000
0000
0000
0000
0000
0000
0000
0000
0000
0000
0000
0000
0000
0000
0030
0000
0000
0000
0000
0000
0000
0000
0000
0000
0000
0000
0000
0000
0000
0000
0000
0000
0000
0000
0000
0000
0000
0000
0000
0000
0000
0000
0000
0000
0000
0000
0000
0000
0000
0000
0000
0000
0000
0000
0000
0000
0000
0000
0000
0000
0000
0000
0000
0000
0000
0000
0000
0000
0000
0000
0000
0000
0000
0000
0000
0000
0000
0000
0000
0000
0000
0000
0000
0000
0000
0000
0000
0000
0000
0000
0000
,
2001
0000
0000
0000
0000
0000
0000
0000
0000
0000
0000
0000
0000
0000
3000
0000
0000
0000
0000
0000
0000
0000
0000
0000
0000
0000
0000
0000
0000
0000
0000
0000
0000
0000
0000
0000
0000
0000
0000
0000
0000
0000
0000
0000
0000
0000
0000
0000
0000
0000
0000
0000
0000
0000
0000
0000
0000
0000
0000
0000
0000
0000
0000
0000
0000
0000
0000
0000
0000
0000
0000
0000
0000
0000
0000
0000
0000
0000
0000
0000
0000
0000
0000
0000
0000
0000
0000
0000
0000
0000
0000
0000
0000
0000
0000
0000
0120
0000
0000
0000
0000
0000
0000
0000
0000
0000
0000
0000
0000
0000
0000
0030
0000
0000
0000
0000
0000
0000
0000
0000
0000
0000
0000
0000
0000
0000
0000
0000
0000
0000
0000
0000
0000
0000
0000
0000
0000
0000
0000
0000
0000
0000
0000
0000
0000
0000
0000
0000
0000
0000
0000
0000
0000
0000
0000
0000
0000
0000
0000
0000
0000
0000
0000
0000
0000
0000
0000
0000
0000
0000
0000
0000
0000
0000
0000
0000
0000
0000
0000
0000
0000
0000
0000
0000
0000
0000
0000
0000
0000
0000
0000
0000
,
1001
0000
0110
0000
,
1001
0000
0110
0000
,
0001
0001
0000
0000
,
1000
1000
0000
0000
,
0020
0000
0000
0000
0000
0000
0000
0000
0000
0000
0000
0000
0000
0030
0000
0000
0000
0000
0000
0000
0000
0000
0000
0000
0000
0000
0000
0000
0000
0000
0000
0000
0000
0000
0000
0000
0000
0000
0000
0000
0000
0000
0000
0000
0000
0000
0000
0000
0000
0000
0000
0000
0000
0000
0000
0000
0000
0000
0000
0000
0000
0000
0000
0000
0000
0000
0000
0000
0000
0000
0000
0000
0000
0000
0000
0000
0000
0000
0000
0000
0000
0000
0000
0000
0000
0000
0000
0000
0000
0000
0000
0000
0000
0000
0000
0000
0100
0000
0000
0000
0000
0000
0000
0000
0000
0000
0000
0000
0000
0000
0000
0000
0000
0000
0000
0000
0000
0000
0000
0000
0000
0000
0000
0000
0000
0000
0000
0000
0000
0000
0000
0000
0000
0000
0000
0000
0000
0000
0000
0000
0000
0000
0000
0000
0000
0000
0000
0000
0000
0000
0000
0000
0000
0000
0000
0000
0000
0000
0000
0000
0000
0000
0000
0000
0000
0000
0000
0000
0000
0000
0000
0000
0000
0000
0000
0000
0000
0000
0000
0000
0000
0000
0000
0000
0000
0000
0000
0000
0000
0000
0000
0000
,
1001
1001
1001
1001
,
1001
0000
0000
0000
,
0000
0010
0010
0000
,
1000
1000
1000
0000
,
0000
1001
1001
1001
,
1001
1001
0000
0000
,
0000
0010
0000
0000
,
0100
0000
0000
0000
0000
0000
0000
0000
0000
0000
0000
0000
0000
0000
0000
0000
0000
0000
0000
0000
0000
0000
0000
0000
0000
0000
0000
0000
0000
0000
0000
0000
0000
0000
0000
0000
0000
0000
0000
0000
0000
0000
0000
0000
0000
0000
0000
0000
0100
0000
0000
0000
0000
0000
0000
0000
0000
0000
0000
0000
0000
0000
0000
0000
0000
0000
0000
0000
0000
0000
0000
0000
0000
0000
0000
0000
0000
0000
0000
0000
0000
0000
0000
0000
0000
0000
0000
0000
0000
0000
0000
0000
0000
0000
0000
0000
0200
0000
0000
0000
0000
0000
0000
0000
0000
0000
0000
0000
0000
0300
0000
0000
0000
0000
0000
0000
0000
0000
0000
0000
0000
0000
0000
0000
0000
0000
0000
0000
0000
0000
0000
0000
0000
0000
0000
0000
0000
0000
0000
0000
0000
0000
0000
0000
0000
0000
0000
0000
0000
0000
0000
0000
0000
0000
0000
0000
0000
0000
0000
0000
0000
0000
0000
0000
0000
0000
0000
0000
0000
0000
0000
0000
0000
0000
0000
0000
0000
0000
0000
0000
0000
0000
0000
0000
0000
0000
0000
0000
0000
0000
0000
0000
,
0000
0000
0000
0000
0000
0000
0000
0000
0000
0000
0000
0000
0000
0000
0000
0000
0000
0000
0000
0000
0000
0000
0000
0000
0000
0000
0000
0000
0000
0000
0000
0000
0000
0000
0000
0000
0000
0000
0000
0000
0000
0000
0000
0000
0000
0000
0000
0000
0110
0000
0000
0000
0000
0000
0000
0000
0000
0000
0000
0000
0000
0000
0000
0000
0000
0000
0000
0000
0000
0000
0000
0000
0000
0000
0000
0000
0000
0000
0000
0000
0000
0000
0000
0000
0000
0000
0000
0000
0000
0000
0000
0000
0000
0000
0000
0000
0110
0000
0000
0000
0000
0000
0000
0000
0000
0000
0000
0000
0000
0000
0000
0000
0000
0000
0000
0000
0000
0000
0000
0000
0000
0000
0000
0000
0000
0000
0000
0000
0000
0000
0000
0000
0000
0000
0000
0000
0000
0000
0000
0000
0000
0000
0000
0000
0120
0000
0000
0000
0000
0000
0000
0000
0000
0000
0000
0000
0000
0030
0000
0000
0000
0000
0000
0000
0000
0000
0000
0000
0000
0000
0000
0000
0000
0000
0000
0000
0000
0000
0000
0000
0000
0000
0000
0000
0000
0000
0000
0000
0000
0000
0000
0000
,
0110
0000
0000
0000
0000
0000
0000
0000
0000
0000
0000
0000
0000
0000
0000
0000
0000
0000
0000
0000
0000
0000
0000
0000
0000
0000
0000
0000
0000
0000
0000
0000
0000
0000
0000
0000
0000
0000
0000
0000
0000
0000
0000
0000
0000
0000
0000
0000
0120
0000
0000
0000
0000
0000
0000
0000
0000
0000
0000
0000
0000
0030
0000
0000
0000
0000
0000
0000
0000
0000
0000
0000
0000
0000
0000
0000
0000
0000
0000
0000
0000
0000
0000
0000
0000
0000
0000
0000
0000
0000
0000
0000
0000
0000
0000
0000
0000
0000
0000
0000
0000
0000
0000
0000
0000
0000
0000
0000
0000
0000
0000
0000
0000
0000
0000
0000
0000
0000
0000
0000
0000
0000
0000
0000
0000
0000
0000
0000
0000
0000
0000
0000
0000
0000
0000
0000
0000
0000
0000
0000
0000
0000
0000
0000
0000
0000
0000
0000
0000
0000
0000
0000
0000
0000
0000
0000
0000
0000
0000
0000
0000
0000
0000
0000
0000
0000
0000
0000
0000
0000
0000
0000
0000
0000
0000
0000
0000
0000
0000
0000
0000
0000
0000
0000
0000
0000
0000
0000
0000
0000
0000
0000
,
0000
1001
1001
1001
,
1001
2002
0000
0000
,
0000
0000
0000
0000
,
0000
0000
0000
0000
,
0000
3000
0000
0000
0000
0000
0000
0003
0000
0000
0000
0000
0000
0000
0000
0000
2002
0000
0000
0000
0000
0000
0000
0000
0000
0000
0000
0000
0000
0000
0000
0000
0000
0000
0000
0000
0000
0000
0000
0000
0000
0000
0000
0000
0000
0000
0000
0000
0000
0000
0000
0000
0000
0000
0000
0000
0000
0000
0000
0000
0000
0000
0000
0000
,
0000
0000
0000
0000
0000
0000
0000
0000
0000
0000
0000
0000
0000
0000
0000
0000
0000
0000
0000
0000
0000
0000
0000
0000
0000
0000
0000
0000
0000
0000
0000
0000
0000
0000
0000
0000
0000
0000
0000
0000
0000
0000
0000
0000
0000
0000
0000
0000
0000
0000
0000
0000
0000
0000
0000
0000
0000
0000
0000
0000
0000
0000
0000
0000
0000
0000
0000
0000
0000
0000
0000
0000
0000
0000
0000
0000
0000
0000
0000
0000
0000
0000
0000
0000
0000
0000
0000
0000
0000
0000
0000
0000
0000
0000
0000
0000
0000
0000
0000
0000
0000
0000
0000
0000
0000
0000
0000
0000
0000
0000
0000
0000
0000
0000
0000
0000
0000
0000
0000
0000
0000
0000
0000
0000
0000
0000
0000
0000
0000
0000
0000
0000
0000
0000
0000
0000
0000
0000
0000
0000
0000
0000
0000
0000
0000
0000
0000
0000
0000
0000
0000
0000
0000
0000
0000
0000
0000
0000
0000
0000
0000
0000
0000
0000
0000
0000
0000
0000
0000
0000
0000
0000
0000
0000
0000
0000
0000
0000
3000
0000
0000
0003
0000
0000
0000
0000
0000
0000
0000
0000
0000
0000
,
0000
0000
0000
0000
;

//---------------dance-single - ----------------
#NOTES:
     dance-single:
     :
     Easy:
     6:
     0.429,0.669,0.683,0.382,0.000,193.000,68.000,38.000,0.000,0.000,0.000,0.429,0.669,0.683,0.382,0.000,193.000,68.000,38.000,0.000,0.000,0.000:
0000
0000
0000
0000
,
0000
0000
0000
0000
,
0000
0000
0000
0000
,
0000
0000
0000
0000
,
0000
0000
0000
0000
,
0000
1001
0000
0000
,
0000
0000
0100
0010
,
0000
0000
0000
0000
,
1001
1001
1001
1001
,
0100
0100
0010
0010
,
1000
1000
0001
0001
,
0100
0100
0010
0010
,
2000
0000
0000
0000
0000
0000
0000
0000
0000
0000
0000
0000
0000
0000
0000
0000
0000
0000
0000
0000
0000
0000
0000
3000
0000
0000
0000
0000
0000
0000
0000
0000
0000
0000
0000
0000
0000
0000
0000
0000
0000
0000
0000
0000
0000
0000
0000
0000
0001
0000
0000
0000
0000
0000
0000
0000
0000
0000
0000
0000
0000
0000
0000
0000
0000
0000
0000
0000
0000
0000
0000
0000
0000
0000
0000
0000
0000
0000
0000
0000
0000
0000
0000
0000
0000
0000
0000
0000
0000
0000
0000
0000
0000
0000
0000
0000
0100
0000
0000
0000
0000
0000
0000
0000
0000
0000
0000
0000
0000
0000
0000
0000
0000
0000
0000
0000
0000
0000
0000
0000
0000
0000
0000
0000
0000
0000
0000
0000
0000
0000
0000
0000
0000
0000
0000
0000
0000
0000
0000
0000
0000
0000
0000
0000
0010
0000
0000
0000
0000
0000
0000
0000
0000
0000
0000
0000
0000
0000
0000
0000
0000
0000
0000
0000
0000
0000
0000
0000
0000
0000
0000
0000
0000
0000
0000
0000
0000
0000
0000
0000
0000
0000
0000
0000
0000
0000
0000
0000
0000
0000
0000
0000
,
1001
0000
1001
0000
,
0010
0010
0100
0001
,
2000
0000
0000
0000
0000
0000
0000
0000
0000
0000
0000
0000
0000
0000
0000
0000
0000
0000
0000
0000
0000
0000
0000
0000
0002
0000
0000
0000
0000
0000
0000
0000
0000
0000
0000
0000
0000
0000
0000
0000
0000
0000
0000
0000
0000
0000
0000
0000
0000
0000
0000
0000
0000
0000
0000
0000
3000
0000
0000
0003
0000
0000
0000
0000
0000
0000
0000
0000
0000
0000
0000
0000
0000
0000
0000
0000
0000
0000
0000
0000
0000
0000
0000
0000
0000
0000
0000
0000
0000
0000
0000
0000
0000
0000
0000
0000
,
0010
0100
0001
0000
,
1000
0000
0000
0001
0000
0000
0100
0000
,
0000
0010
0000
0000
1000
0000
0001
0000
,
0200
0000
0000
0000
0000
0300
0000
0000
0001
0000
0000
0000
0000
0000
1000
0000
,
0010
0000
0000
0100
0000
0000
0000
0000
,
0002
0000
0000
0000
0000
0000
0000
0003
0000
0000
0000
0000
0000
0000
0000
0000
0000
0000
0000
0000
0000
0000
0000
0000
0000
0000
0000
0000
0000
0000
0000
0000
0000
0000
0000
0000
1000
0000
0000
0000
0000
0000
0000
0000
0000
0000
0000
0000
0000
0000
0000
0000
0000
0000
0000
0000
0000
0000
0000
0000
0000
0000
0000
0000
0000
0000
0000
0000
0000
0000
0000
0000
0010
0000
0000
0000
0000
0000
0000
0000
0000
0000
0000
0000
0000
0000
0000
0000
0000
0000
0000
0000
0000
0000
0000
0000
,
0000
0100
0000
0000
0001
0000
1000
0000
,
0010
0000
0100
0001
,
2001
0000
0000
0000
0000
0000
0000
0000
0000
0000
0000
0000
0000
3000
0000
0000
0000
0000
0000
0000
0000
0000
0000
0000
0000
0000
0000
0000
0000
0000
0000
0000
0000
0000
0000
0000
0000
0000
0000
0000
0000
0000
0000
0000
0000
0000
0000
0000
1001
0000
0000
0000
0000
0000
0000
0000
0000
0000
0000
0000
0000
0000
0000
0000
0000
0000
0000
0000
0000
0000
0000
0000
0000
0000
0000
0000
0000
0000
0000
0000
0000
0000
0000
0000
0000
0000
0000
0000
0000
0000
0000
0000
0000
0000
0000
0000
1001
0000
0000
0000
0000
0000
0000
0000
0000
0000
0000
0000
0000
0000
0000
0000
0000
0000
0000
0000
0000
0000
0000
0000
0000
0000
0000
0000
0000
0000
0000
0000
0000
0000
0000
0000
0000
0000
0000
0000
0000
0000
0000
0000
0000
0000
0000
0000
1001
0000
0000
0000
0000
0000
0000
0000
0000
0000
0000
0000
0000
0000
0000
0000
0000
0000
0000
0000
0000
0000
0000
0000
0000
0000
0000
0000
0000
0000
0000
0000
0000
0000
0000
0000
0000
0000
0000
0000
0000
0000
0000
0000
0000
0000
0000
0000
,
1001
0000
0000
0000
,
0000
1000
0100
0000
,
0010
0010
2000
0000
,
0000
0000
0000
0000
0000
0000
0000
0000
0000
0000
0000
0000
0000
0000
0000
0000
0000
0000
0000
0000
0000
0000
3000
0000
0000
0000
0000
0000
0000
0000
0000
0000
0000
0000
0000
0000
0000
0000
0000
0000
0000
0000
0000
0000
0000
0000
0000
0000
0110
0000
0000
0000
0000
0000
0000
0000
0000
0000
0000
0000
0000
0000
0000
0000
0000
0000
0000
0000
0000
0000
0000
0000
0000
0000
0000
0000
0000
0000
0000
0000
0000
0000
0000
0000
0000
0000
0000
0000
0000
0000
0000
0000
0000
0000
0000
0000
0012
0000
0000
0000
0000
0000
0000
0000
0000
0000
0000
0000
0000
0000
0000
0003
0000
0000
0000
0000
0000
0000
0000
0000
0000
0000
0000
0000
0000
0000
0000
0000
0000
0000
0000
0000
0000
0000
0000
0000
0000
0000
0000
0000
0000
0000
0000
0000
0100
0000
0000
0000
0000
0000
0000
0000
0000
0000
0000
0000
0000
0000
0000
0000
0000
0000
0000
0000
0000
0000
0000
0000
0000
0000
0000
0000
0000
0000
0000
0000
0000
0000
0000
0000
0000
0000
0000
0000
0000
0000
0000
0000
0000
0000
0000
0000
,
0020
0000
0000
0000
0000
0000
0000
0000
0000
0000
0000
0000
0000
0000
0030
0000
0000
0000
0000
0000
0000
0000
0000
0000
0000
0000
0000
0000
0000
0000
0000
0000
0000
0000
0000
0000
0000
0000
0000
0000
0000
0000
0000
0000
0000
0000
0000
0000
2000
0000
0000
0000
0000
0000
0000
0000
0000
0000
0000
0000
0000
0000
0000
0000
0000
0000
0000
0000
0000
0000
0000
0000
0000
0000
0000
0000
0000
0000
0000
0000
0000
0000
0000
0000
0000
0000
0000
0000
0000
0000
0000
0000
0000
0000
0000
0000
0000
0000
0000
0000
0000
0000
0000
0000
0000
0000
0000
0000
0000
0000
0000
0000
0000
0000
0000
0000
0000
0000
0000
0000
0000
0000
0000
0000
0000
0000
0000
0000
0000
0000
0000
0000
0000
0000
0000
0000
0000
0000
0000
0000
0000
0000
0000
0000
0000
0000
0000
0000
0000
0000
0000
0000
0000
0000
0000
0000
0000
0000
0000
0000
0000
0000
0000
0000
0000
0000
0000
0000
0000
0000
0000
0000
0000
0000
0000
0000
0000
0000
0000
0000
0000
0000
0000
0000
0000
0000
0000
3000
0000
0000
0000
0000
,
0000
0001
1000
0000
,
1001
1001
1001
0000
,
0000
1100
0110
1001
,
0021
0000
0000
0000
0000
0000
0000
0030
0000
0000
0000
0000
0000
0000
0000
0000
0000
0000
0000
0000
0000
0000
0000
0000
0220
0000
0000
0000
0000
0000
0000
0000
0000
0000
0000
0000
0000
0000
0000
0000
0000
0000
0000
0000
0000
0000
0000
0000
0000
0000
0000
0000
0000
0000
0000
0000
0000
0000
0000
0000
0000
0000
0000
0000
0000
0000
0000
0000
0000
0000
0000
0000
0000
0000
0000
0000
0000
0000
0000
0000
0030
0000
0300
0000
0000
0000
0000
0000
0000
0000
0000
0000
0000
0000
0000
0000
,
0000
0000
0000
0000
0000
0000
0000
0000
0000
0000
0000
0000
2002
0000
0000
0000
0003
3000
0000
0000
0000
0000
0000
0000
0000
0000
0000
0000
0000
0000
0000
0000
0000
0000
0000
0000
0000
0000
0000
0000
0000
0000
0000
0000
0000
0000
0000
0000
,
0010
0000
0100
0001
,
0000
0000
0000
0000
,
1000
0010
0100
0000
,
0001
0001
0001
0000
,
1000
1000
0010
0100
,
0000
0000
0000
0000
0000
0000
0000
0000
0000
0000
0000
0000
0000
0000
0000
0000
0000
0000
0000
0000
0000
0000
0000
0000
0000
0000
0000
0000
0000
0000
0000
0000
0000
0000
0000
0000
0000
0000
0000
0000
0000
0000
0000
0000
0000
0000
0000
0000
2002
0000
0000
0000
0000
0000
0000
0000
0000
0000
0000
0000
0000
0000
0000
0000
0000
0000
0000
0000
0000
0000
0000
0000
0000
0000
0000
0000
0000
0000
0000
0000
0000
0000
0000
0000
0000
0000
0000
0000
0000
0000
0000
0000
0000
0000
0000
0000
0000
0000
0000
0000
0000
0000
0000
0000
0000
0000
0000
0000
0000
0000
0000
0000
0000
0000
0000
0000
0000
0000
0000
0000
0000
0000
0000
0000
3000
0000
0000
0000
0000
0000
0000
0000
0000
0000
0000
0000
0000
0000
0000
0003
0000
0000
0000
0000
0000
0000
0000
0000
0000
0000
0000
0000
0000
0000
0000
0000
0000
0000
0000
0000
0000
0000
0000
0000
0000
0000
0000
0000
0000
0000
0000
0000
0000
0000
0000
0000
0000
0000
0000
0000
0000
0000
0000
0000
0000
0000
0000
0000
0000
0000
0000
0000
,
0010
0100
0001
1000
,
2000
0000
0000
0000
0000
0000
0000
0000
0000
0000
0000
0000
0000
0000
0000
0000
0000
0000
0000
0000
0000
0000
0000
0000
0000
0000
0000
0000
0000
0000
0000
0000
0000
0000
0000
0000
0000
0000
0000
0000
0000
0000
0000
3000
0000
0000
0000
0000
,
0000
1001
1001
1001
,
0010
0100
0001
0100
,
0010
0000
0000
0000
0000
0000
0000
0000
0000
0000
0000
0000
0000
0000
0000
0000
0000
0000
0000
0000
0000
0000
0000
0000
0000
0000
0000
0000
0000
0000
0000
0000
0000
0000
0000
0000
0000
0000
0000
0000
0000
0000
0000
0000
0000
0000
0000
0000
0010
0000
0000
0000
0000
0000
0000
0000
0000
0000
0000
0000
0000
0000
0000
0000
0000
0000
0000
0000
0000
0000
0000
0000
0000
0000
0000
0000
0000
0000
0000
0000
0000
0000
0000
0000
0000
0000
0000
0000
0000
0000
0000
0000
0000
0000
0000
0000
2002
0000
0000
0000
0000
0000
0000
0000
0000
0000
0000
0000
0000
0000
0000
0000
0000
0000
0000
0000
0000
0000
0000
0000
0000
0000
0000
0000
0000
0000
0000
0000
0000
0000
0000
0000
0000
0000
0000
0000
0000
0000
0000
0000
0000
0000
0000
0000
0000
0000
0000
0000
0000
0000
0000
0000
0000
0000
0000
0000
0000
0000
0000
0000
0000
0000
0000
3000
0000
0000
0000
0000
0000
0003
0000
0000
0000
0000
0000
0000
0000
0000
0000
0000
0000
0000
0000
0000
0000
0000
0000
0000
0000
0000
0000
0000
,
0010
0100
0010
0100
,
0001
0001
1000
0000
,
2000
0000
0000
0000
0000
0000
0000
0000
0000
0000
0000
0000
0000
0000
0000
0000
0000
0000
0000
0000
0000
0000
0000
0000
0000
0000
0000
0000
0000
0000
0000
0000
0000
0000
0000
0000
0000
0000
0000
0000
0000
0000
0000
0000
0000
0000
0000
0000
0000
0000
0000
0000
0000
0000
0000
0000
0000
0000
0000
0000
0000
0000
0000
0000
0000
0000
0000
0000
0000
0000
0000
3000
0000
0000
0000
0000
0000
0000
0000
0000
0000
0000
0000
0000
0000
0000
0000
0000
0000
0000
0000
0000
0000
0000
0000
0000
0002
0000
0000
0000
0000
0000
0000
0000
0000
0000
0000
0000
0000
0000
0000
0000
0000
0000
0000
0000
0000
0000
0000
0000
0000
0000
0000
0000
0000
0000
0000
0000
0000
0000
0000
0000
0000
0000
0000
0000
0000
0000
0000
0000
0000
0000
0000
0000
0000
0000
0000
0000
0000
0000
0000
0000
0000
0000
0000
0000
0000
0000
0000
0000
0000
0000
0000
0000
0000
0000
0000
0000
0000
0000
0000
0000
0000
0000
0000
0000
0000
0000
0000
0000
0000
0003
0000
0000
0000
0000
0000
0000
0000
0000
0000
0000
,
2000
0000
0000
0000
0000
0000
0000
0000
0000
0000
0000
0000
0000
0000
0000
0000
0000
0000
0000
0000
0000
0000
0000
0000
0000
0000
0000
0000
0000
0000
0000
0000
0000
0000
0000
0000
0000
0000
0000
3000
0000
0000
0000
0000
0000
0000
0000
0000
0020
0000
0000
0000
0000
0000
0000
0000
0000
0000
0000
0000
0000
0000
0000
0000
0000
0000
0000
0000
0000
0000
0000
0000
0000
0000
0000
0000
0000
0000
0000
0000
0000
0000
0000
0000
0000
0000
0030
0000
0000
0000
0000
0000
0000
0000
0000
0000
,
1001
1001
0000
0010
,
0100
0000
0011
0011
,
1100
0110
1001
0110
,
1100
1100
0011
0110
,
1002
0000
0000
0000
0000
0000
0000
0003
0000
0000
0000
0000
0000
0000
0000
0000
0000
0000
0000
0000
0000
0000
0000
0000
0110
0000
0000
0000
0000
0000
0000
0000
0000
0000
0000
0000
0000
0000
0000
0000
0000
0000
0000
0000
0000
0000
0000
0000
1001
0000
0000
0000
0000
0000
0000
0000
0000
0000
0000
0000
0000
0000
0000
0000
0000
0000
0000
0000
0000
0000
0000
0000
0011
0000
0000
0000
0000
0000
0000
0000
0000
0000
0000
0000
0000
0000
0000
0000
0000
0000
0000
0000
0000
0000
0000
0000
,
0012
0000
0000
0000
0000
0000
0000
0000
0000
0000
0000
0000
0000
0003
0000
0000
0000
0000
0000
0000
0000
0000
0000
0000
0000
0000
0000
0000
0000
0000
0000
0000
0000
0000
0000
0000
0000
0000
0000
0000
0000
0000
0000
0000
0000
0000
0000
0000
0011
0000
0000
0000
0000
0000
0000
0000
0000
0000
0000
0000
0000
0000
0000
0000
0000
0000
0000
0000
0000
0000
0000
0000
0000
0000
0000
0000
0000
0000
0000
0000
0000
0000
0000
0000
0000
0000
0000
0000
0000
0000
0000
0000
0000
0000
0000
0000
0220
0000
0000
0000
0000
0000
0000
0000
0000
0000
0000
0000
0000
0000
0000
0000
0000
0000
0000
0000
0000
0000
0030
0000
0300
0000
0000
0000
0000
0000
0000
0000
0000
0000
0000
0000
0000
0000
0000
0000
0000
0000
0000
0000
0000
0000
0000
0000
0000
0000
0000
0000
0000
0000
0000
0000
0000
0000
0000
0000
0000
0000
0000
0000
0000
0000
0000
0000
0000
0000
0000
0000
0000
0000
0000
0000
0000
0000
0000
0000
0000
0000
0000
0000
0000
0000
0000
0000
0000
0000
0000
0000
0000
0000
0000
0000
,
0101
0000
1010
0110
,
0110
1001
0110
1100
,
0120
0000
0000
0000
0000
0000
0000
0000
0000
0000
0000
0000
0000
0030
0000
0000
0000
0000
0000
0000
0000
0000
0000
0000
0000
0000
0000
0000
0000
0000
0000
0000
0000
0000
0000
0000
0000
0000
0000
0000
0000
0000
0000
0000
0000
0000
0000
0000
0101
0000
0000
0000
0000
0000
0000
0000
0000
0000
0000
0000
0000
0000
0000
0000
0000
0000
0000
0000
0000
0000
0000
0000
0000
0000
0000
0000
0000
0000
0000
0000
0000
0000
0000
0000
0000
0000
0000
0000
0000
0000
0000
0000
0000
0000
0000
0000
0010
0000
0000
0000
0000
0000
0000
0000
0000
0000
0000
0000
0000
0000
0000
0000
0000
0000
0000
0000
0000
0000
0000
0000
0000
0000
0000
0000
0000
0000
0000
0000
0000
0000
0000
0000
0000
0000
0000
0000
0000
0000
0000
0000
0000
0000
0000
0000
0101
0000
0000
0000
0000
0000
0000
0000
0000
0000
0000
0000
0000
0000
0000
0000
0000
0000
0000
0000
0000
0000
0000
0000
0000
0000
0000
0000
0000
0000
0000
0000
0000
0000
0000
0000
0000
0000
0000
0000
0000
0000
0000
0000
0000
0000
0000
0000
,
1001
1001
0110
1001
,
0110
0000
0000
1000
,
0001
0000
0000
0000
0000
0000
0000
0000
0000
0000
0000
0000
0000
0000
0000
0000
1000
0000
0000
0000
0000
0000
0000
0000
0000
0000
0000
0000
0000
0000
0000
0000
2000
0000
0000
0000
0000
0000
0000
0000
0000
0000
0000
0000
0000
0000
0000
0000
0000
0000
0000
0000
0000
0000
0000
0000
0000
0000
0000
3000
0000
0000
0000
0000
,
0001
0000
0000
0000
0000
0000
0000
0000
0000
0000
0000
0000
0000
0000
0000
0000
0000
0000
0000
0000
0000
0000
0000
0000
0000
0000
0000
0000
0000
0000
0000
0000
0000
0000
0000
0000
0000
0000
0000
0000
0000
0000
0000
0000
0000
0000
0000
0000
0010
0000
0000
0000
0000
0000
0000
0000
0000
0000
0000
0000
0000
0000
0000
0000
0000
0000
0000
0000
0000
0000
0000
0000
0000
0000
0000
0000
0000
0000
0000
0000
0000
0000
0000
0000
0000
0000
0000
0000
0000
0000
0000
0000
0000
0000
0000
0000
0200
0000
0000
0000
0000
0000
0000
0000
0000
0000
0000
0000
0000
0000
0000
0000
0000
0000
0000
0000
0000
0000
0000
0000
0000
0000
0000
0000
0000
0000
0000
0000
0000
0000
0000
0000
0000
0000
0000
0000
0000
0000
0000
0000
0000
0000
0000
0000
0000
0000
0000
0000
0000
0000
0000
0000
0000
0000
0000
0000
0000
0000
0000
0000
0000
0000
0000
0000
0000
0000
0000
0000
0000
0000
0000
0000
0000
0000
0000
0000
0000
0000
0000
0000
0000
0000
0000
0000
0000
0000
0000
0300
0000
0000
0000
0000
,
0000
1000
0010
0100
,
0100
0000
0000
0000
0000
0000
0000
0000
0000
0000
0000
0000
0000
0000
0000
0000
0000
0000
0000
0000
0000
0000
0000
0000
0000
0000
0000
0000
0000
0000
0000
0000
0000
0000
0000
0000
0000
0000
0000
0000
0000
0000
0000
0000
0000
0000
0000
0000
0200
0000
0000
0000
0000
0000
0000
0000
0000
0000
0000
0000
0000
0000
0000
0000
0000
0000
0000
0000
0000
0000
0000
0000
0000
0000
0000
0000
0000
0000
0000
0000
0000
0000
0000
0000
0000
0000
0000
0000
0000
0000
0000
0000
0000
0000
0000
0000
0000
0000
0000
0000
0000
0000
0000
0000
0000
0000
0000
0000
0000
0000
0000
0000
0000
0000
0000
0000
0000
0000
0000
0000
0000
0000
0000
0000
0000
0000
0000
0000
0000
0000
0000
0000
0000
0000
0000
0000
0000
0000
0000
0000
0000
0000
0000
0000
0000
0000
0000
0000
0000
0000
0000
0000
0000
0000
0000
0000
0000
0000
0000
0000
0000
0000
0000
0000
0000
0000
0000
0000
0000
0000
0000
0000
0000
0000
0000
0300
0000
0000
0000
0000
0000
0000
0000
0000
0000
0000
0000
0000
0000
0000
0000
0000
,
0000
0001
1000
0000
,
0001
0001
2000
0000
,
0000
3000
0000
0000
0000
0000
0000
0000
0000
0000
0000
0000
0000
0000
0000
0000
0010
0000
0000
0000
0000
0000
0000
0000
0000
0000
0000
0000
0000
0000
0000
0000
0100
0000
0000
0000
0000
0000
0000
0000
0000
0000
0000
0000
0000
0000
0000
0000
0001
0000
0000
0000
0000
0000
0000
0000
0000
0000
0000
0000
0000
0000
0000
0000
,
0100
0000
0000
0000
0000
0000
0000
0000
0000
0000
0000
0000
0000
0000
0000
0000
0200
0000
0000
0000
0000
0000
0000
0000
0000
0000
0000
0000
0000
0000
0000
0000
0000
0000
0000
0000
0000
0000
0000
0000
0000
0000
0000
0000
0000
0000
0000
0000
0000
0000
0000
0000
0000
0000
0000
0300
0000
0000
0000
0000
0000
0000
0000
0000
,
0000
1001
0110
0011
,
0102
0000
0000
0000
0000
0000
0000
0003
0000
0000
0000
0000
0000
0000
0000
0000
0000
0000
0000
0000
0000
0000
0000
0000
0011
0000
0000
0000
0000
0000
0000
0000
0000
0000
0000
0000
0000
0000
0000
0000
0000
0000
0000
0000
0000
0000
0000
0000
0000
0000
0000
0000
0000
0000
0000
0000
0000
0000
0000
0000
0000
0000
0000
0000
0000
0000
0000
0000
0000
0000
0000
0000
0000
0000
0000
0000
0000
0000
0000
0000
0000
0000
0000
0000
0000
0000
0000
0000
0000
0000
0000
0000
0000
0000
0000
0000
,
1000
0010
0100
0001
,
0001
0000
0000
0000
0000
0000
0000
0000
0000
0000
0000
0000
0000
0000
0000
0000
0000
0000
0000
0000
0000
0000
0000
0000
0000
0000
0000
0000
0000
0000
0000
0000
0000
0000
0000
0000
0000
0000
0000
0000
0000
0000
0000
0000
0000
0000
0000
0000
0100
0000
0000
0000
0000
0000
0000
0000
0000
0000
0000
0000
0000
0000
0000
0000
0000
0000
0000
0000
0000
0000
0000
0000
0000
0000
0000
0000
0000
0000
0000
0000
0000
0000
0000
0000
0000
0000
0000
0000
0000
0000
0000
0000
0000
0000
0000
0000
0010
0000
0000
0000
0000
0000
0000
0000
0000
0000
0000
0000
0000
0000
0000
0000
0000
0000
0000
0000
0000
0000
0000
0000
0000
0000
0000
0000
0000
0000
0000
0000
0000
0000
0000
0000
0000
0000
0000
0000
0000
0000
0000
0000
0000
0000
0000
0000
0200
0000
0000
0000
0000
0000
0000
0000
0000
0000
0000
0000
0000
0000
0000
0000
0000
0000
0000
0000
0000
0000
0000
0300
0000
0000
0000
0000
0000
0000
0000
0000
0000
0000
0000
0000
0000
0000
0000
0000
0000
0000
0000
0000
0000
0000
0000
0000
,
0000
0000
0000
0000
0000
0000
0000
0000
0000
0000
0000
0000
0000
0000
0000
0000
0000
0000
0000
0000
0000
0000
0000
0000
2002
0000
0000
0000
0000
0000
0000
0000
0000
0000
0000
0000
0000
0000
0000
0000
0000
0000
0000
0000
0000
0000
0000
0000
0000
0000
0000
0000
0000
0000
0000
0000
0000
0000
0000
0000
0000
0000
0000
0000
0000
0000
0000
0000
0000
0000
0000
0000
0000
0000
0000
0000
0000
0000
0000
0000
0000
0000
0000
0000
0000
0000
0000
0000
0000
0000
0000
0000
0000
0003
3000
0000
,
0000
0000
0000
0000
,
0000
0000
0000
0000
;

//---------------dance-single - ----------------
#NOTES:
     dance-single:
     :
     Medium:
     8:
     0.505,0.599,0.362,0.201,0.000,296.000,36.000,20.000,0.000,0.000,0.000,0.505,0.599,0.362,0.201,0.000,296.000,36.000,20.000,0.000,0.000,0.000:
0000
0000
0000
0000
,
0000
1001
0000
0010
,
0100
0000
0001
0000
1000
0001
1000
0001
,
0000
0000
1001
0000
0000
0000
0000
0010
,
0000
0010
0000
0010
0000
0100
0001
0100
,
0001
0000
1000
0000
0010
0000
0100
0001
,
0100
0000
0010
0000
1000
1000
0100
0100
,
0000
0000
0010
0000
0000
0000
0000
1001
,
0000
0110
0000
1001
0110
1001
0110
0000
,
0010
0100
0001
0000
0010
1000
0010
0000
,
0100
0001
0100
0010
0000
0000
1000
0000
,
1000
0100
0001
0000
0010
0100
0001
1000
,
0000
1000
0000
1000
0000
0000
0000
0010
,
0100
0000
0001
1000
0000
0000
0100
0010
,
0100
0010
0000
0100
0000
0001
0000
0001
,
0000
0000
0000
0000
0000
0000
0000
0000
0002
0000
0000
0000
0000
0003
0000
0000
0000
0000
0000
0000
0000
0000
0000
0000
0000
0000
0000
0000
0000
0000
0000
0000
0000
0000
0000
0000
0000
0000
0000
0000
1000
0000
0000
0000
0000
0000
0000
0000
0100
0000
0000
0000
0000
0000
0000
0000
0010
0000
0000
0000
0000
0000
0000
0000
,
0000
0110
0000
0110
0000
0000
0000
0000
,
1000
1000
0100
0100
0010
0010
0001
0001
,
0010
0010
0100
0100
0000
1000
1000
0000
,
0010
0010
0100
0100
0001
0001
1000
1000
,
0010
0000
0000
0020
0000
0030
0010
0000
0000
0100
0000
0000
0100
0000
0000
0100
0000
0000
0001
0000
0000
0000
0000
0000
,
1000
0000
0001
1000
0000
0010
0100
0000
,
0001
1000
0000
0000
0010
0000
0100
0000
,
0001
0000
1000
0001
0000
0100
0010
0000
,
1001
0000
0110
0000
1001
0000
0110
1001
,
0110
0010
0010
0010
,
0000
1001
0110
0000
,
1000
0100
0010
0001
0000
0000
0000
0000
,
0000
0000
0010
0000
1000
0001
0100
0010
,
0000
0000
0000
0000
0000
0000
0000
0000
0000
0000
0000
0000
0000
0000
0000
0000
0000
0000
0000
0000
0000
0000
0000
0000
0200
0000
0000
0000
0000
0000
0000
0000
0000
0000
0000
0000
0000
0000
0000
0000
0000
0000
0000
0000
0000
0000
0000
0000
0000
0000
0000
0000
0000
0000
0000
0000
0000
0000
0000
0000
0000
0000
0000
0000
0000
0000
0000
0000
0000
0000
0000
0000
0000
0000
0000
0000
0000
0000
0000
0000
0000
0000
0000
0000
0000
0000
0000
0000
0000
0000
0000
0000
0000
0000
0000
0000
0000
0000
0000
0000
0000
0000
0000
0000
0000
0000
0000
0000
0000
0000
0000
0000
0000
0000
0000
0000
0000
0000
0000
0000
0000
0000
0000
0000
0000
0000
0000
0000
0000
0000
0000
0000
0000
0000
0000
0000
0000
0000
0000
0000
0000
0000
0000
0000
0000
0000
0000
0000
0000
0000
0000
0000
0000
0000
0000
0000
0000
0000
0000
0000
0000
0000
0000
0000
0000
0000
0000
0000
0000
0000
0000
0000
0000
0000
0000
0300
0000
0000
0000
0000
0000
0000
0000
0000
0000
0000
0000
0000
0000
0000
0000
0000
,
0000
1001
0110
1000
,
1000
0100
0010
0001
0000
0000
0000
0000
,
0000
0000
1000
0000
0010
0100
0010
0100
,
0000
0000
0000
0000
0000
0000
0000
0000
0000
0000
0000
0000
0000
0000
0000
0000
0000
0000
0000
0000
0000
0000
0000
0000
0200
0000
0000
0000
0000
0000
0000
0000
0000
0000
0000
0000
0000
0000
0000
0000
0000
0000
0000
0000
0000
0000
0000
0000
0000
0000
0000
0000
0000
0000
0000
0000
0000
0000
0000
0000
0000
0000
0000
0000
0000
0000
0000
0000
0000
0000
0000
0000
0000
0000
0000
0000
0000
0000
0000
0000
0000
0000
0000
0000
0000
0000
0000
0000
0000
0000
0000
0000
0000
0000
0000
0000
0000
0000
0000
0000
0000
0000
0000
0000
0000
0000
0000
0000
0000
0000
0000
0000
0000
0000
0000
0000
0000
0000
0000
0000
0000
0000
0000
0000
0000
0000
0000
0000
0000
0000
0000
0000
0000
0000
0000
0000
0000
0000
0000
0000
0000
0300
0000
0000
0000
0000
0000
0000
0000
0000
0000
0000
0000
0000
0000
0000
0000
0000
0000
0000
0000
0000
0000
0000
0000
0000
0000
0000
2001
0000
0000
0000
0000
0000
0000
0000
0000
0000
0000
0000
0000
0000
3000
0000
0000
0000
0000
0000
0000
0000
0000
0000
,
0000
0000
0000
0000
,
1000
1000
0000
0001
0000
0000
0000
0001
,
0000
0000
0000
0000
0000
0000
0000
0100
,
0000
0001
0000
1000
0000
0000
0000
0000
,
0001
0000
0000
0001
0000
0000
0000
0010
,
0100
0000
0000
0001
1000
0010
0100
0010
,
0000
1001
0000
0000
,
1100
0000
0110
0000
0010
0100
0001
0100
,
0020
0000
0000
0000
,
0000
0030
0000
0000
0000
0000
0000
0000
0000
0000
0000
0000
0000
0000
0000
0000
0000
0000
0000
0000
0000
0000
0000
0000
0000
0000
0000
0000
0000
0000
0000
0000
0000
0000
0000
0000
1001
0000
0000
0000
0000
0000
0000
0000
0000
0000
0000
0000
1001
0000
0000
0000
0000
0000
0000
0000
0000
0000
0000
0000
0000
0000
0000
0000
0000
0000
0000
0000
0000
0000
0000
0000
1001
0000
0000
0000
0000
0000
0000
0000
0000
0000
0000
0000
0000
0000
0000
0000
0000
0000
0000
0000
0000
0000
0000
0000
,
0010
0100
0001
0000
1000
0100
0010
0000
,
0001
0000
0000
0000
0000
0000
0000
0000
0000
0000
0000
0000
0000
0000
0000
0000
0000
0000
0000
0000
0000
0000
0000
0000
0100
0000
0000
0000
0000
0000
0000
0000
0000
0000
0000
0000
0000
0000
0000
0000
0000
0000
0000
0000
0000
0000
0000
0000
0010
0000
0000
0000
0000
0000
0000
0000
0000
0000
0000
0000
0000
0000
0000
0000
0000
0000
0000
0000
0000
0000
0000
0000
0200
0000
0000
0000
0000
0000
0000
0000
0000
0000
0000
0000
0000
0000
0000
0000
0000
0000
0000
0000
0000
0000
0000
0000
0000
0000
0000
0000
0000
0000
0000
0000
0000
0000
0000
0000
0000
0000
0000
0000
0000
0000
0000
0000
0000
0000
0000
0000
0000
0000
0000
0000
0000
0000
0000
0000
0000
0000
0000
0000
0000
0000
0000
0000
0000
0300
0000
0000
0000
0000
0000
0000
0000
0000
0000
0000
0000
0000
0000
0000
0000
0000
0000
0000
0000
0000
0000
0000
0000
0000
0000
0000
0000
0000
0000
0000
0000
0000
0000
0000
0000
0000
0000
0000
0000
0000
0000
0000
0000
0000
0000
0000
0000
0000
0000
0000
0000
0000
0000
0000
,
1000
0000
0001
1000
0001
0000
0100
0010
,
0100
0000
0000
0000
0002
0000
0000
0003
0100
0000
0000
0000
0010
0000
0000
0000
0100
0000
0000
0000
0000
0000
0000
0000
0000
0000
0000
0000
1000
0000
0000
0000
,
0100
0001
0000
0001
0100
1000
0000
0100
,
0010
0100
0000
1000
0000
0001
0000
1000
,
0000
0000
0000
0000
0000
0000
0000
0000
0000
0000
0000
0000
0000
0000
0000
0000
0000
0000
0000
0000
0000
0000
0000
0000
0002
0000
0000
0000
0000
0000
0000
0000
0000
0000
0000
0000
0000
0000
0000
0000
0000
0000
0000
0000
0000
0000
0000
0000
0000
0000
0000
0000
0000
0000
0000
0000
0000
0000
0000
0000
0000
0000
0000
0000
0000
0000
0000
0000
0000
0000
0000
0000
0000
0000
0000
0000
0000
0000
0000
0000
0000
0000
0000
0000
0000
0000
0000
0000
0000
0000
0000
0000
0000
0000
0000
0000
0000
0000
0000
0000
0000
0000
0000
0003
0000
0000
0000
0000
0000
0000
0000
0000
0000
0000
0000
0000
0000
0000
0000
0000
0000
0000
0000
0000
0000
0000
0000
0000
0000
0000
0000
0000
0000
0000
0000
0000
0000
0000
0000
0000
0000
0000
0000
0000
0010
0000
0000
0000
0000
0000
0000
0000
0000
0000
0000
0000
0000
0000
0000
0000
0000
0000
0000
0000
0000
0000
0000
0000
0100
0000
0000
0000
0000
0000
0000
0000
0000
0000
0000
0000
0000
0000
0000
0000
0000
0000
0000
0000
0000
0000
0000
0000
,
0000
1000
0000
0001
0000
0000
0000
0000
,
1000
1000
0001
0001
0100
0100
0010
0010
,
1000
1000
0001
0001
0100
0100
0100
0000
,
0010
0010
0010
1000
1000
1000
0001
0001
,
0001
0000
0000
0000
0000
0000
0000
0000
0100
0000
0000
0000
0000
0000
0000
0000
0010
0000
0000
0000
0000
0000
0000
0000
0200
0000
0000
0000
0000
0000
0000
0000
0000
0000
0000
0000
0000
0000
0000
0000
0000
0000
0000
0000
0000
0000
0000
0000
0000
0000
0000
0000
0000
0000
0000
0300
0000
0000
0000
0000
0000
0000
0000
0000
,
1001
0000
0010
0100
0010
0100
0010
0000
,
0001
1000
0001
1000
0001
0000
0100
0000
,
0010
0000
0100
0010
0000
1000
0001
0000
,
0202
0000
0000
0000
0000
0000
0000
0000
0000
0000
0000
0000
0000
0303
0000
0000
0000
0000
0000
0000
0000
0000
0000
0000
0000
0000
0000
0000
0000
0000
0000
0000
0000
0000
0000
0000
0000
0000
0000
0000
0000
0000
0000
0000
0000
0000
0000
0000
0110
0000
0000
0000
0000
0000
0000
0000
0000
0000
0000
0000
0000
0000
0000
0000
0000
0000
0000
0000
0000
0000
0000
0000
0000
0000
0000
0000
0000
0000
0000
0000
0000
0000
0000
0000
0000
0000
0000
0000
0000
0000
0000
0000
0000
0000
0000
0000
1100
0000
0000
0000
0000
0000
0000
0000
0000
0000
0000
0000
0000
0000
0000
0000
0000
0000
0000
0000
0000
0000
0000
0000
0000
0000
0000
0000
0000
0000
0000
0000
0000
0000
0000
0000
0000
0000
0000
0000
0000
0000
0000
0000
0000
0000
0000
0000
0110
0000
0000
0000
0000
0000
0000
0000
0000
0000
0000
0000
0000
0000
0000
0000
0000
0000
0000
0000
0000
0000
0000
0000
0000
0000
0000
0000
0000
0000
0000
0000
0000
0000
0000
0000
0000
0000
0000
0000
0000
0000
0000
0000
0000
0000
0000
0000
,
1001
0000
0000
0000
0000
0000
0010
0100
,
0000
0001
1000
0000
,
0010
0000
0000
0000
0000
0000
0000
0000
0000
0000
0000
0000
0000
0000
0000
0000
0000
0000
0000
0000
0000
0000
0000
0000
0100
0000
0000
0000
0000
0000
0000
0000
0000
0000
0000
0000
0000
0000
0000
0000
0000
0000
0000
0000
0000
0000
0000
0000
0001
0000
0000
0000
0000
0000
0000
0000
0000
0000
0000
0000
0000
0000
0000
0000
0000
0000
0000
0000
0000
0000
0000
0000
0200
0000
0000
0000
0000
0000
0000
0000
0000
0000
0000
0000
0000
0000
0000
0000
0000
0000
0000
0000
0000
0000
0000
0000
0000
0000
0000
0000
0000
0000
0000
0000
0000
0000
0000
0000
0000
0000
0000
0000
0000
0000
0000
0000
0000
0000
0000
0000
0000
0000
0000
0000
0000
0000
0000
0000
0000
0000
0000
0000
0000
0000
0000
0000
0000
0000
0000
0000
0000
0000
0000
0000
0000
0000
0000
0000
0000
0000
0000
0000
0000
0000
0000
0000
0000
0000
0000
0000
0000
0000
0000
0000
0000
0000
0000
0000
0000
0000
0000
0000
0000
0000
0000
0300
0000
0000
0000
0000
0000
0000
0000
0000
0000
0000
0000
0000
0000
0000
0000
0000
,
0000
0000
1001
0000
1000
0100
0010
0001
,
0000
0000
0000
0000
0000
0000
0000
0000
0000
0000
0000
0000
0000
0000
0000
0000
0000
0000
0000
0000
0000
0000
0000
0000
0200
0000
0000
0000
0000
0000
0000
0000
0000
0000
0000
0000
0000
0000
0000
0000
0000
0000
0000
0000
0000
0000
0000
0000
0000
0000
0000
0000
0000
0000
0000
0000
0000
0000
0000
0000
0000
0000
0000
0000
0000
0000
0000
0000
0000
0000
0000
0000
0000
0000
0000
0000
0000
0000
0000
0000
0000
0000
0000
0000
0000
0000
0000
0000
0000
0000
0000
0000
0000
0000
0000
0000
0000
0000
0000
0000
0000
0000
0000
0000
0000
0000
0000
0000
0000
0000
0000
0000
0000
0000
0000
0000
0000
0000
0000
0000
0000
0000
0000
0000
0000
0000
0000
0000
0000
0000
0000
0000
0000
0000
0000
0000
0000
0000
0000
0000
0000
0000
0000
0000
0000
0000
0000
0000
0000
0000
0000
0000
0000
0000
0000
0000
0000
0000
0000
0000
0000
0000
0000
0000
0000
0000
0000
0300
0000
0000
0000
0000
0000
0000
0000
0000
0000
0000
0000
0000
0000
0000
0000
0000
0000
0000
0000
0000
0000
0000
0000
0000
,
0000
1001
0010
0100
,
1000
0000
0000
0000
0000
0000
0000
0000
0000
0000
0000
0000
0001
0000
0000
0000
0000
0000
0000
0000
0000
0000
0000
0000
0100
0000
0000
0000
0000
0000
0000
0000
0000
0000
0000
0000
0200
0000
0000
0000
0000
0000
0000
0000
0000
0000
0000
0000
0000
0000
0000
0000
0000
0000
0000
0000
0000
0000
0000
0000
0000
0000
0000
0000
0000
0000
0000
0000
0000
0000
0000
0000
0000
0000
0000
0000
0000
0000
0000
0000
0000
0000
0000
0000
0000
0000
0000
0000
0000
0000
0000
0300
0000
0000
0000
0000
,
0000
0000
0001
0000
0010
0100
0001
2000
,
0000
3000
0000
0000
0000
0000
0000
0000
2000
0000
0000
0000
0000
0000
0000
0000
0000
0000
0000
0000
0000
0000
0000
0000
0000
0000
0000
0000
0000
0000
0000
0000
0000
0000
0000
0000
0000
0000
0000
0000
0000
0000
0000
3000
0000
0000
0000
0000
0000
0000
0000
0000
0000
0000
0000
0000
0000
0000
0000
0000
0000
0000
0000
0000
,
0000
0000
0010
0000
0100
0001
1000
0010
,
0000
0200
0000
0000
,
0000
0000
0000
0000
,
0000
0000
0000
0000
0000
0000
0000
0000
0000
0000
0000
0000
0000
0300
0000
0000
,
0000
2002
0000
0000
,
0000
0000
0000
0000
0000
0000
0000
0000
0000
0000
0000
0000
0000
0000
0000
0000
0000
0000
0000
0000
0000
0000
0000
0000
0000
0000
0000
0000
0000
0000
0000
0000
0000
0000
0000
0000
0000
0000
0000
0000
0000
0000
0000
0000
0000
0000
0000
0000
0000
0000
0000
0000
0000
0000
0000
0000
0000
0000
0000
0000
0000
0000
0000
0000
0000
0000
0000
0000
0000
0000
0000
0000
0000
0000
0000
0000
0000
0000
0000
0000
0000
0000
0000
0000
0000
0000
0000
0000
0000
0000
0000
0000
0000
0000
0000
3000
0003
0000
0000
0000
0000
0000
0000
0000
0000
0000
0000
0000
0000
0000
0000
0000
0000
0000
0000
0000
0000
0000
0000
0000
0000
0000
0000
0000
0000
0000
0000
0000
0000
0000
0000
0000
0000
0000
0000
0000
0000
0000
0000
0000
0000
0000
0000
0000
0000
0000
0000
0000
0000
0000
0000
0000
0000
0000
0000
0000
0000
0000
0000
0000
0000
0000
0000
0000
0000
0000
0000
0000
0000
0000
0000
0000
0000
0000
0000
0000
0000
0000
0000
0000
0000
0000
0000
0000
0000
0000
0000
0000
0000
0000
0000
0000
,
0000
0000
0000
0000
;

//---------------dance-single - ----------------
#NOTES:
     dance-single:
     :
     Hard:
     14:
     0.835,1.000,0.442,0.131,0.392,525.000,44.000,13.000,0.000,0.000,0.000,0.835,1.000,0.442,0.131,0.392,525.000,44.000,13.000,0.000,0.000,0.000: // measure 0
0000
0000
0000
1001
,  // measure 1
0010
0000
0100
0000
0001
1000
0001
0000
,  // measure 2
0010
0000
0100
0000
1000
0100
0001
0010
,  // measure 3
0000
0000
0110
0000
0000
0000
0000
0001
,  // measure 4
0000
1000
0000
0010
0100
0010
0100
0001
,  // measure 5
0000
0101
0010
1000
,  // measure 6
0100
0010
1000
0000
1000
0100
0010
0001
,  // measure 7
0000
0000
0101
0000
0000
0000
0000
0010
,  // measure 8
0000
0010
0000
0010
0010
0010
1000
0000
,  // measure 9
0001
1000
0010
0100
0001
1000
0010
0100
,  // measure 10
0001
0001
0001
1000
0000
0000
0010
0100
,  // measure 11
0001
1000
0010
0100
0001
1000
0010
0100
,  // measure 12
0001
1000
0010
0100
0100
0100
0001
0000
,  // measure 13
1000
0100
1000
0000
0010
0001
0010
0000
,  // measure 14
1000
0100
0010
0010
0100
0011
1000
0100
,  // measure 15
0220
0000
0000
0000
0000
0000
0000
0000
0000
0000
0000
0000
0000
0000
0000
0000
0300
0000
0030
0000
0000
0000
0000
0000
0001
0000
0000
0000
0000
0000
0000
0000
0000
0000
0000
0000
0000
0000
0000
0000
0000
0000
0000
0000
0000
0000
0000
0000
1000
0000
0000
0000
0000
0000
0000
0000
0000
0000
0000
0000
0000
0000
0000
0000
0000
0000
0000
0000
0000
0000
0000
0000
0110
0000
0000
0000
0000
0000
0000
0000
0000
0000
0000
0000
0000
0000
0000
0000
0000
0000
0000
0000
0000
0000
0000
0000
1000
0000
0000
0000
0000
0000
0000
0000
0000
0000
0000
0000
0000
0000
0000
0000
0000
0000
0000
0000
0000
0000
0000
0000
0001
0000
0000
0000
0000
0000
0000
0000
0000
0000
0000
0000
0000
0000
0000
0000
0000
0000
0000
0000
0000
0000
0000
0000
0100
0000
0000
0000
0000
0000
0000
0000
0000
0000
0000
0000
0000
0000
0000
0000
0000
0000
0000
0000
0000
0000
0000
0000
0011
0000
0000
0000
0000
0000
0000
0000
0000
0000
0000
0000
0000
0000
0000
0000
0000
0000
0000
0000
0000
0000
0000
0000
,  // measure 16
0100
0010
1010
0110
0110
0101
0010
0000
,  // measure 17
0100
0000
0010
0110
0100
0010
0100
0001
,  // measure 18
1000
0010
0100
0000
1000
0010
0100
0001
,  // measure 19
0100
0001
0100
0010
1000
0010
0100
0001
,  // measure 20
0200
0310
1000
0001
0100
0010
0100
0000
,  // measure 21
1001
0010
0100
0001
1000
0100
0001
1000
,  // measure 22
0010
0100
0100
0010
0001
0010
0001
1000
,  // measure 23
0010
0000
0000
0000
0000
0000
0000
0000
0000
0000
0000
0000
0000
0000
0000
0000
0000
0000
0000
0000
0000
0000
0000
0000
0100
0000
0000
0000
0000
0000
0000
0000
0000
0000
0000
0000
0000
0000
0000
0000
0000
0000
0000
0000
0000
0000
0000
0000
0001
0000
0000
0000
0000
0000
0000
0000
0000
0000
0000
0000
0000
0000
0000
0000
0000
0000
0000
0000
0000
0000
0000
0000
0020
0000
0000
0000
0000
0000
0000
0000
0000
0000
0000
0000
0000
0030
0000
0000
0000
0000
0000
0000
0000
0000
0000
0000
0001
0000
0000
0000
0000
0000
0000
0000
0000
0000
0000
0000
0000
0000
0000
0000
0000
0000
0000
0000
0000
0000
0000
0000
0100
0000
0000
0000
0000
0000
0000
0000
0000
0000
0000
0000
0000
0000
0000
0000
0000
0000
0000
0000
0000
0000
0000
0000
0010
0000
0000
0000
0000
0000
0000
0000
0000
0000
0000
0000
0000
0000
0000
0000
0000
0000
0000
0000
0000
0000
0000
0000
0000
0000
0000
0000
0000
0000
0000
0000
0000
0000
0000
0000
0000
0000
0000
0000
0000
0000
0000
0000
0000
0000
0000
0000
,  // measure 24
1010
0100
1010
0001
0110
1001
0110
1001
,  // measure 25
0110
0000
0000
0000
0000
0000
1000
0100
,  // measure 26
0000
0000
0010
0100
0010
0000
0000
0000
,  // measure 27
1000
0000
0010
0000
0100
0000
0001
0000
0000
0000
0000
0000
1000
0001
1000
0000
,  // measure 28
0010
0100
0001
1000
0010
0100
0001
1000
,  // measure 29
0010
0100
0010
0100
0010
0100
0010
0100
0001
0000
1000
0001
1000
0001
0100
0000
,  // measure 30
0010
0100
0001
1001
0010
0100
0001
1000
,  // measure 31
0010
0100
0010
0100
0000
1000
0010
0000
0000
0000
0000
0000
1001
0000
0010
0000
,  // measure 32
0100
0000
0001
0100
0001
0100
0010
1000
0101
0010
0100
0010
0100
0010
0100
0001
,  // measure 33
0000
1000
0000
0000
0000
0000
0000
0000
,  // measure 34
0100
0000
0010
0000
1001
0000
0010
0100
,  // measure 35
0000
0000
1000
0000
0010
0000
0100
0000
0010
0100
0010
0100
0001
0000
0100
0010
,  // measure 36
0000
1001
0000
0000
,  // measure 37
0010
0000
0000
0010
0000
0000
0010
0000
0000
0000
0000
0000
0000
0000
0000
0000
,  // measure 38
1001
0000
0000
0000
0010
0000
0000
0000
0100
0000
0001
0100
0001
0000
1000
0010
,  // measure 39
0100
0000
0001
0100
0001
0000
0100
0010
0100
0000
0010
1000
0010
0000
0001
0100
,  // measure 40
0001
0000
0010
1000
0010
0000
0100
0010
0100
0000
0001
1000
0001
0000
1000
0100
,  // measure 41
0001
0000
0010
0100
0001
0000
1000
0010
0000
0000
0001
0000
0100
0001
0000
0000
,  // measure 42
0001
0000
0000
0000
0000
2002
0000
0000
0000
0000
0000
0000
0000
0000
0000
0000
,  // measure 43
0000
0000
0000
0003
0000
3000
0000
0000
0000
0000
0000
0000
0000
0000
0000
0000
0000
0000
0000
0000
0000
0000
0000
0000
0100
0000
0000
0000
0000
0000
0000
0000
0000
0000
0000
0000
0000
0000
0000
0000
0000
0000
0000
0000
0000
0000
0000
0000
0100
0000
0000
0000
0000
0000
0000
0000
0000
0000
0000
0000
0000
0000
0000
0000
0000
0000
0000
0000
0000
0000
0000
0000
0000
0000
0000
0000
0000
0000
0000
0000
0000
0000
0000
0000
0000
0000
0000
0000
0000
0000
0000
0000
0000
0000
0000
0000
0100
0000
0000
0000
0000
0000
0000
0000
0000
0000
0000
0000
0000
0000
0000
0000
0000
0000
0000
0000
0000
0000
0000
0000
0000
0000
0000
0000
0000
0000
0000
0000
0000
0000
0000
0000
0000
0000
0000
0000
0000
0000
0000
0000
0000
0000
0000
0000
1001
0000
0000
0000
0000
0000
0000
0000
0000
0000
0000
0000
0000
0000
0000
0000
0000
0000
0000
0000
0000
0000
0000
0000
0000
0000
0000
0000
0000
0000
0000
0000
0000
0000
0000
0000
0000
0000
0000
0000
0000
0000
0000
0000
0000
0000
0000
0000
,  // measure 44
0100
0001
1000
0010
0100
0001
0100
0011
,  // measure 45
0100
0010
1010
0010
0100
0001
0100
0000
,  // measure 46
1000
0001
0000
0010
0100
0001
1000
0010
,  // measure 47
0100
0100
0100
0001
1000
0000
0000
1000
,  // measure 48
0001
1000
0000
0010
0100
0010
1000
0100
,  // measure 49
0010
0110
0001
0011
0010
0100
1001
0010
,  // measure 50
0200
0000
0000
0000
0000
0000
0000
0000
0000
0000
0000
0000
0000
0000
0000
0000
0000
0000
0000
0000
0000
0000
0000
0000
0000
0000
0000
0000
0000
0000
0000
0000
0000
0000
0000
0000
0000
0000
0000
0000
0000
0000
0000
0000
0000
0000
0000
0000
0000
0000
0000
0000
0000
0000
0000
0000
0000
0000
0000
0000
0000
0000
0000
0000
0000
0000
0000
0000
0000
0000
0000
0000
0000
0000
0000
0000
0000
0000
0000
0000
0000
0000
0000
0000
0000
0000
0000
0000
0000
0000
0000
0000
0000
0000
0300
0000
0000
0000
0000
0000
0000
0000
0000
0000
0000
0000
0000
0000
0000
0000
0000
0000
0000
0000
0000
0000
0000
0000
0000
0000
0000
0000
0000
0000
0000
0000
0000
0000
0000
0000
0000
0000
0000
0000
0000
0000
0000
0000
0000
0000
0000
0000
0000
0000
0001
0000
0000
0000
0000
0000
0000
0000
0000
0000
0000
0000
0000
0000
0000
0000
0000
0000
0000
0000
0000
0000
0000
0000
0000
0000
0000
0000
0000
0000
0000
0000
0000
0000
0000
0000
0000
0000
0000
0000
0000
0000
0000
0000
0000
0000
0000
0000
,  // measure 51
0010
0100
0000
0001
0000
0000
0000
0000
,  // measure 52
0100
0001
0010
0000
1000
0010
0100
0000
,  // measure 53
1000
0100
0000
0001
0100
0010
1000
0010
,  // measure 54
0100
0100
0001
0001
1000
1000
0010
0010
,  // measure 55
0110
0110
0001
1000
0110
0000
1000
1000
,  // measure 56
0100
0010
0001
0100
0010
0010
1000
0001
,  // measure 57
0001
0100
0010
1000
0001
0100
0010
1000
,  // measure 58
0000
0100
0001
1000
0010
0100
0010
0001
,  // measure 59
1000
0010
0010
0100
0100
0001
0001
1001
,  // measure 60
1001
0000
0000
0000
0000
0000
1000
0001
,  // measure 61
0010
0100
0010
0000
1000
0000
0001
0000
0100
0000
0010
0100
0010
0000
1000
0000
,  // measure 62
0001
0000
0100
0010
0001
0000
1000
0010
0100
0000
0001
0000
0010
0000
1000
0001
,  // measure 63
0100
0000
0010
1000
0010
0000
0100
0001
0100
0000
0010
0000
0010
0000
0100
0000
,  // measure 64
0001
0000
0000
0000
0000
0000
0000
0000
0000
0000
0000
0000
0000
0000
0000
0000
0000
0000
0000
0000
0000
0000
0000
0000
2002
0000
0000
0000
0000
0000
0000
0000
0000
0000
0000
0000
0000
0000
0000
0000
0000
0000
0000
0000
0000
0000
0000
0000
0000
0000
0000
0000
0000
0000
0000
0000
0000
0000
0000
0000
0000
0000
0000
0000
0000
0000
0000
0000
0000
0000
0000
0000
0000
0000
0000
0000
0000
0000
0000
0000
0000
0000
0000
0000
0000
0000
0000
0000
0000
0000
0000
0000
0000
0000
0000
0000
0000
0000
0000
0000
0000
0000
0000
0000
0000
0000
0000
0000
0000
0000
0000
0000
0000
0000
0000
0000
0000
0000
0000
0000
0000
0000
0000
0000
0000
0000
0000
0000
0000
0000
0000
0000
0000
0000
0000
0000
0000
0000
0000
0000
0000
0000
0000
0000
0000
0003
0000
3000
0000
0000
0000
0000
0000
0000
0000
0000
0000
0000
0000
0000
0000
0000
0000
0000
0000
0000
0000
0000
0000
0000
0000
0000
0000
0000
0000
0000
0000
0000
0000
0000
0000
0000
0000
0000
0000
0000
0000
0000
0000
0000
0000
0000
,  // measure 65
0010
0000
0100
0001
0100
0000
0010
1000
0010
0000
0100
0001
1000
0000
0010
0000
,  // measure 66
0100
0000
0010
0000
0001
0000
1000
0000
0010
0000
0000
0101
1000
0000
0010
0100
,  // measure 67
0000
0000
1000
0100
0000
0010
0010
0000
0010
0000
1000
0000
0001
0000
0100
0000
,  // measure 68
0010
0000
0000
0000
0000
0000
0000
0000
0000
0000
0000
0000
0000
0000
0000
0000
0000
0000
0000
0000
0000
0000
0000
0000
1000
0000
0000
0000
0000
0000
0000
0000
0000
0000
0000
0000
0000
0000
0000
0000
0000
0000
0000
0000
0000
0000
0000
0000
2002
0000
0000
0000
0000
0000
0000
0000
0000
0000
0000
0000
0000
0000
0000
0000
0000
0000
0000
0000
0000
0000
0000
0000
0000
0000
0000
0000
0000
0000
0000
0000
0000
0000
0000
0000
0000
0000
0000
0000
0000
0000
0000
0000
0000
0000
0000
0000
0000
0000
0000
0000
0000
0000
0000
0000
0000
0000
0000
0000
0000
0000
0000
0000
0000
0000
0000
0000
0000
0000
0000
0000
0000
0000
0000
0000
0000
0000
0000
0000
0000
0000
0000
0000
0000
0000
0000
0000
0000
0000
0000
0000
0000
0000
0000
0000
0000
0000
3000
0003
0000
0000
0000
0000
0000
0000
0000
0000
0000
0000
0000
0000
0000
0000
0000
0000
0000
0000
0000
0000
0010
0000
0000
0000
0000
0000
0000
0000
0000
0000
0000
0000
0100
0000
0000
0000
0000
0000
0000
0000
0000
0000
0000
0000
,  // measure 69
0010
0000
1000
0001
0100
0000
0001
1000
0010
0000
0100
0001
0100
0000
0000
0000
,  // measure 70
0001
0100
0001
0100
0001
0100
0010
1000
0010
0100
0001
0100
0010
1000
0001
0100
,  // measure 71
0010
1000
0001
0100
0010
1000
0100
0010
1000
0001
0100
0010
1000
0001
0100
0010
,  // measure 72
1000
0001
0100
0010
1000
0100
0010
1000
0110
0010
0100
0001
1000
0010
0100
0010
,  // measure 73
1000
0000
0000
0000
0000
0000
0000
0000
0000
0000
0000
0000
0010
0000
0000
0000
0000
0000
0000
0000
0000
0000
0000
0000
0000
0000
0000
0000
0000
0000
0000
0000
0000
0000
0000
0000
0000
0000
0000
0000
0000
0000
0000
0000
0000
0000
0000
0000
2002
0000
0000
0000
0000
0000
0000
0000
0000
0000
0000
0000
0000
0000
0000
0000
0000
0000
0000
0000
0000
0000
0000
0000
0000
0000
0000
0000
0000
0000
0000
0000
0000
0000
0000
0000
0000
0000
0000
0000
0000
0000
0000
0000
0000
0000
0000
0000
0000
0000
0000
0000
0000
0000
0000
0000
0000
0000
0000
0000
0000
0000
0000
0000
0000
0000
0000
0000
0000
0000
0000
0000
0000
0000
0000
0000
0000
0000
0000
0000
0000
0000
0000
0000
0000
0000
0000
0000
0000
0000
0000
0000
0000
0000
0000
0000
0000
0000
0000
0000
0000
3003
0000
0000
0000
0000
0000
0000
0000
0000
0000
0000
0000
0000
0000
0000
0000
0000
0000
0000
0000
0000
0000
0000
0000
0000
0000
0000
0000
0000
0000
0000
0000
0000
0000
0000
0000
0000
0000
0000
0000
0000
0000
0000
;

//---------------dance-double - ----------------
#NOTES:
     dance-double:
     :
     Easy:
     4:
     0.263,0.331,0.020,0.000,0.000,181.000,2.000,0.000,0.000,0.000,0.000,0.263,0.331,0.020,0.000,0.000,181.000,2.000,0.000,0.000,0.000,0.000:
00000000
00000000
00000000
00000000
,
00000000
00000000
00000000
00000000
,
00000000
00000000
00000000
00000000
,
00000000
00000000
00000000
00000000
,
00000000
00000000
00000000
00000000
,
00000000
10000000
00000000
01000000
,
00000000
00010000
00000000
00001000
,
00000000
00000010
00000000
00000001
,
00000100
00001000
00010000
00001000
,
00000000
00010000
00000000
00100000
,
00000000
10000000
00000000
01000000
,
00000000
00010000
00000000
00001000
,
00000000
00010000
00001000
01000000
,
00000000
00010000
00000000
00001000
,
00000000
00000100
00000000
00000001
,
00000000
00000100
00001000
00010000
,
00000000
10000000
00000000
01000000
,
00010000
10000000
01000000
00010000
,
00001000
00001000
00000100
00000001
,
00001000
00000001
00000100
00001000
,
00010000
00010000
01000000
10000000
,
00000000
00010000
00000000
00001000
,
00000000
00000100
00000001
00001000
,
00000000
00000100
00001000
00010000
,
01000000
10000000
00010000
00000100
,
00000001
00000001
00000001
00000110
,
00000000
00000100
00000000
00010000
,
00000000
10000000
00000000
01000000
,
00000000
00010000
00001000
00000100
,
00000000
00000001
00000000
00000100
,
00000000
00001000
00010000
00100000
,
00000000
01000000
00000000
10000000
,
00000000
00100000
00010000
00001000
,
00000000
00000010
00000000
00000001
,
00000000
00000100
00000000
00010000
,
00000000
10000000
00000000
01000000
,
00000000
00010000
00000000
00001000
,
00000000
00000100
00000000
00000001
,
00000000
00000100
00000000
00010000
,
00000000
00000100
00000000
00010000
,
00000000
00100000
00000000
01000000
,
00000000
10000000
00000000
01000000
,
00000000
00001000
00000000
00000001
,
00000100
00000100
00000100
00010000
,
00000000
10000000
00000000
01000000
,
00000000
00010000
00001000
01000000
,
00000000
00010000
00000000
00001000
,
00000000
00000100
00001000
00000100
,
00000000
00010000
00000000
00001000
,
00000000
00000100
00000000
00000001
,
00000000
00000100
00001000
00010000
,
00000000
01000000
00000000
10000000
,
00010000
10000000
01000000
00010000
,
00001000
00001000
00000100
00000001
,
00001000
00000001
00000100
00001000
,
00010000
00010000
01000000
10000000
,
00000000
00010000
00000000
00001000
,
00000000
00000100
00000001
00001000
,
00000000
00000100
00001000
00010000
,
01000000
10000000
00010000
00000100
,
00000001
00000001
00000001
00000110
,
00000000
00000100
00000000
00010000
,
00000000
10000000
00000000
01000000
,
00000000
00010000
00001000
00000100
,
00000000
00000001
00000000
00000100
,
00000000
00001000
00010000
01000000
,
00000000
01000000
00000000
10000000
,
00000000
00100000
00010000
00001000
,
00000000
00000010
00000000
00000001
,
00000000
00000100
00010000
10000000
,
00000000
01000000
00000000
00010000
,
00000000
00001000
00000000
00000100
,
00000000
00000001
00000000
00000100
,
00000000
00010000
00000000
00000000
,
00000000
00000000
00000000
00000000
,
00000000
00000000
00000000
00000000
;

//---------------dance-double - ----------------
#NOTES:
     dance-double:
     :
     Medium:
     6:
     0.420,0.368,0.000,0.000,0.015,293.000,0.000,0.000,0.000,0.000,0.000,0.420,0.368,0.000,0.000,0.015,293.000,0.000,0.000,0.000,0.000,0.000:
00000000
00000000
00000000
00000000
,
00000000
00000000
00000000
00000000
,
00000000
00000000
00000000
00000000
,
00000000
00000000
00000000
00000000
,
00000000
00000000
00000000
00000000
,
01000000
00010000
00001000
00000100
,
00000100
00001000
00010000
01000000
,
01000000
00010000
00001000
00000100
,
00000100
00001000
00010000
01000000
,
01000000
10000000
00010000
00001000
,
00001000
00000000
00000010
00000000
00000100
00000001
00001000
00000000
,
00000001
00000010
00000001
00000100
,
00000100
00000000
00001000
00000000
00010000
01000000
01000000
00000000
,
10000000
00010000
01000000
00001000
,
00010000
00001000
00000100
00000001
,
00000001
00001000
00010000
01000000
,
01000000
00000000
00010000
00000000
00001000
00000100
00000100
00000000
,
00000010
00001000
00010000
01000000
,
01000000
00000000
00010000
00000000
00001000
00000100
00001000
00000000
,
00000100
00000001
00001000
00000100
,
00000100
00000000
00001000
00000000
00010000
00100000
01000000
00000000
,
00100000
00010000
00001000
00000100
,
00000100
00001000
00010000
01000000
,
01000000
00010000
01000000
10000000
,
10000000
00010000
00001000
00000001
,
00000001
00001000
00010000
10000000
,
10000000
00010000
01000000
00100000
,
00100000
10000000
01000000
00010000
,
00001000
00000000
00000100
00000000
00000010
00001000
00000001
00000000
,
00000001
00000100
00001000
00010000
,
00010000
00000000
01000000
00000000
10000000
00100000
01000000
00000000
,
10000000
01000000
00010000
00001000
,
00000100
00000000
00000001
00000000
00001000
00000010
00000100
00000000
,
00000100
00001000
00010000
01000000
,
01000000
00000000
10000000
00000000
01000000
10000000
01000000
00000000
,
01000000
00010000
00001000
00000100
,
00000100
00001000
00010000
01000000
,
01000000
00000000
00000000
00010000
00000000
00000000
00001000
00000000
00000000
00000000
00000000
00000000
00000000
00000000
00000000
00000000
,
00000001
00000001
00001000
00001000
,
00001000
00001000
00010000
00010000
,
00010000
00010000
10000000
10000000
,
10000000
00000000
00000000
01000000
00000000
00000000
00010000
00000000
00001000
00000000
00000000
00000100
00000000
00000000
00000001
00000000
,
00000000
00000001
00000001
00000001
,
00001000
00010000
10000000
10000000
,
01000000
10000000
00010000
01000000
,
00001000
00000000
00000010
00000000
00000100
00001000
00000100
00000000
,
00000010
00000001
00001000
00000100
,
00000100
00000000
00001000
00000000
00010000
00100000
01000000
00000000
,
10000000
01000000
00010000
01000000
,
00010000
00001000
00000100
00000001
,
00000001
00001000
00010000
01000000
,
01000000
00000000
00010000
00000000
00001000
00000010
00000100
00000000
,
00000010
00001000
00010000
01000000
,
01000000
00000000
00010000
00000000
00001000
00000100
00000100
00000000
,
00001000
00000010
00000100
00000001
,
00000001
00000000
00001000
00000000
00010000
01000000
01000000
00000000
,
00100000
00010000
00001000
00000100
,
00000100
00000000
00001000
00000000
00010000
01000000
10000000
00000000
,
01000000
00010000
01000000
10000000
,
10000000
00010000
00001000
00000001
,
00000001
00001000
00010000
10000000
,
10000000
00010000
01000000
00100000
,
00100000
00000000
10000000
00000000
01000000
00100000
00010000
00000000
,
00010000
00001000
00000010
00000100
,
00000100
00000000
00000001
00000000
00000100
00001000
00000100
00000000
,
00010000
01000000
10000000
00100000
,
00100000
00000000
01000000
00000000
00010000
00100000
00001000
00000000
,
00000100
00000001
00001000
00000100
,
00000100
00000000
00001000
00000000
00010000
01000000
00010000
00000000
,
01000000
00010000
10000000
01000000
,
01000000
00010000
00001000
00000100
,
00000100
00001000
00010000
01000000
,
01000000
00010000
00001000
00000100
,
00000000
00001000
00010000
00000000
00000000
00000000
00000000
00000000
,
00000000
00000000
00000000
00000000
,
00000000
00000000
00000000
00000000
;

//---------------dance-double - ----------------
#NOTES:
     dance-double:
     :
     Hard:
     9:
     0.604,0.552,0.010,0.000,0.015,420.000,1.000,0.000,0.000,0.000,0.000,0.604,0.552,0.010,0.000,0.015,420.000,1.000,0.000,0.000,0.000,0.000:
00000000
00000000
00000000
00000000
,
00000000
00000000
00000000
00000000
,
00000000
00000000
00000000
00000000
,
00000000
00000000
00000000
00000000
,
00000000
00000000
00000000
00000000
,
10000000
01000000
10000000
00000000
00100000
10000000
00010000
00000000
,
01000000
00001000
00010000
00000000
00000010
00001000
00000100
00000000
,
00000001
00000100
00001000
00000000
00000010
00010000
00001000
00000000
,
01000000
00100000
10000000
00000000
00010000
00100000
00001000
00000000
,
00010000
00001000
00000010
00000000
00000001
00000100
00000010
00000000
,
00001000
00000100
00010000
00000000
00001000
01000000
00100000
00000000
,
10000000
01000000
00010000
00000000
01000000
10000000
00100000
00000000
,
00010000
00001000
00000010
00000000
00000001
00000100
00001000
00000000
,
00000100
00000001
00000010
00000000
00001000
00010000
00100000
00000000
,
00010000
10000000
01000000
00000000
00010000
00001000
00000100
00000000
,
00000010
00010000
00001000
00000000
00100000
01000000
00010000
00000000
,
00001000
00000100
00000001
00000000
00000010
00001000
00010000
00000000
,
00100000
10000000
01000000
00010000
01000000
10000000
01000000
00010000
,
00001000
00000100
00000001
00000010
00000100
00000000
00000100
00000000
,
00000010
00000001
00000100
00001000
00000100
00000001
00000100
00001000
,
00010000
01000000
10000000
00100000
01000000
00000000
01000000
00000000
,
00100000
10000000
01000000
00010000
01000000
10000000
01000000
00010000
,
00001000
00000100
00000001
00000010
00000100
00000000
00000100
00000000
,
00001000
00000010
00001000
00010000
00100000
10000000
00100000
00010000
,
01000000
00010000
00001000
00000010
00000001
00000010
00001000
00000000
,
00000000
00000100
00000000
00001000
00000000
00100000
10000000
01000000
,
10000000
01000000
10000000
00000000
00100000
10000000
00010000
00000000
,
01000000
00001000
00010000
00000000
00000010
00001000
00000100
00000000
,
00000001
00000100
00001000
00000000
00000010
00010000
00001000
00000000
,
01000000
00100000
10000000
00000000
00010000
00100000
00001000
00000000
,
00010000
00001000
00000010
00000000
00000001
00000100
00000010
00000000
,
00001000
00000100
00010000
00000000
00001000
01000000
00100000
00000000
,
10000000
01000000
00010000
00000000
01000000
10000000
00100000
00000000
,
00010000
00001000
00000010
00000000
00000001
00000100
00001000
00000000
,
00000100
00000001
00000010
00000000
00001000
00010000
00100000
00000000
,
00010000
10000000
01000000
00000000
00010000
00001000
00000100
00000000
,
00000010
00010000
00001000
00000000
00100000
01000000
00010000
00000000
,
00001000
00000000
00000000
00000010
00000000
00000000
00000100
00000000
00000000
00000000
00000000
00000000
00000000
00000000
00000000
00000000
,
00000001
00001000
00000100
00000000
00010000
00001000
00100000
00000000
,
00010000
10000000
01000000
00000000
00010000
00001000
00000100
00000000
,
00001000
00010000
01000000
00000000
00010000
00001000
00000010
00000000
,
00000001
00000000
00000000
00000100
00000000
00000000
00001000
00000000
00010000
00000000
00000000
01000000
00000000
00000000
10000000
00000000
,
00000000
10010000
00000000
00000000
,
00010000
00001000
00000100
00001000
00010000
01000000
00010000
00001000
,
00010000
00001000
00000010
00000000
00000001
00000100
00000010
00000000
,
00001000
00000100
00010000
00000000
00001000
01000000
00100000
00000000
,
10000000
01000000
00010000
00000000
01000000
10000000
00100000
00000000
,
00010000
00001000
00000010
00000000
00000001
00000100
00001000
00000000
,
00000100
00000001
00000010
00000000
00001000
00010000
00100000
00000000
,
00010000
10000000
01000000
00000000
00010000
00001000
00000100
00000000
,
00000010
00010000
00001000
00000000
00100000
01000000
00010000
00000000
,
00001000
00000100
00000001
00000000
00000010
00001000
00010000
00000000
,
00100000
10000000
01000000
00010000
01000000
10000000
01000000
00010000
,
00001000
00000100
00000001
00000010
00000100
00000000
00000100
00000000
,
00000010
00000001
00000100
00001000
00000100
00000001
00000100
00001000
,
00010000
01000000
10000000
00100000
01000000
00000000
01000000
00000000
,
00100000
10000000
01000000
00010000
01000000
10000000
01000000
00010000
,
00001000
00000100
00000001
00000010
00000100
00000000
00000100
00000000
,
00001000
00000010
00001000
00010000
00100000
10000000
00100000
00010000
,
01000000
00010000
00001000
00000010
00000001
00000010
00001000
00000000
,
00000000
00000100
00000000
00001000
00000000
00100000
10000000
01000000
,
10000000
01000000
10000000
00000000
00100000
10000000
00010000
00000000
,
01000000
00001000
00010000
00000000
00000010
00001000
00000100
00000000
,
00000001
00000100
00001000
00000000
00000010
00010000
00001000
00000000
,
01000000
00100000
10000000
00000000
00010000
00100000
00001000
00000000
,
00010000
00001000
00000010
00000000
00000001
00000100
00000010
00000000
,
00001000
00000100
00010000
00000000
00001000
01000000
00100000
00000000
,
10000000
01000000
00010000
00000000
01000000
10000000
00100000
00000000
,
00010000
00001000
00000010
00000000
00000001
00000100
00001000
00000000
,
00000100
00000001
00000010
00000000
00001000
00010000
00100000
00000000
,
00010000
10000000
01000000
00000000
00010000
00001000
00000100
00000000
,
00000010
00010000
00001000
00000000
00100000
01000000
00010000
00000000
,
00001000
00000100
00001000
00000000
00010000
01000000
00010000
00000000
,
00000000
00001000
00010000
00000000
00000000
00000000
00000000
00000000
,
00000000
00000000
00000000
00000000
,
00000000
00000000
00000000
00000000
;

//---------------dance-couple - ----------------
#NOTES:
     dance-couple:
     :
     Medium:
     8:
     0.746,0.736,1.000,0.000,0.015,296.000,206.000,0.000,0.000,10.000,0.000,0.746,0.736,1.000,0.000,0.015,296.000,206.000,0.000,0.000,10.000,0.000:
00000000
00000000
00000000
00000000
,
00000000
00000000
00000000
00000000
,
00000000
00000000
00000000
00000000
,
00000000
00000000
00000000
00000000
,
00000000
00000000
00000000
00000000
,
00001000
00000001
10000100
00000000
00000001
00001000
10000100
00000000
,
00001000
00000001
10000100
00000000
00000001
00001000
10000100
00000000
,
10000000
00010000
01000001
00000000
00010000
10000000
01000001
00000000
,
10000000
00010000
01000001
00000000
00010000
10000000
01000001
00000000
,
10001000
01000100
00010001
01000100
,
10001000
00000000
01000100
00000000
00010001
10001000
01000100
00000000
,
00010001
01000100
10001000
01000100
,
00010001
00000000
01000100
00000000
10001000
00010001
01000100
00000000
,
00010001
00000000
10001000
00000000
,
00010001
10001000
00010001
00010001
,
10001000
01000100
00010001
01000100
,
10001000
00000000
01000100
00000000
00010001
10001000
01000100
00000000
,
00001001
00000000
00000000
10010000
00000000
00000000
00001001
00000000
,
00000000
10010000
00000000
00000000
00001001
00000000
00000101
00000000
,
10010000
00000000
00000000
00001001
00000000
00000000
10010000
00000000
,
00000000
00001001
00000000
00000000
10010000
00000000
11000000
00000000
,
00011000
00000000
00000000
00011000
00000000
00000000
00011000
00000000
,
00000000
10000001
00000000
00000000
00011000
00000000
00011000
00000000
,
00000101
01010000
00001100
11000000
,
10011001
10011001
00011000
00011000
,
10000001
01000100
00100010
00100010
,
10001001
00000000
00000100
01000000
10000001
00000000
00000100
00000000
,
00011000
00000000
00000100
01000000
00010001
00000000
00000100
00000000
,
10001000
00000000
00001000
01000000
10000001
00000000
00000001
00000000
,
00011000
00000000
00001000
01000000
00010001
00000000
00000001
00000000
,
10011000
00000000
01000000
00000100
00011000
00000000
01000000
00000000
,
10000001
00000000
01000000
00000100
00010001
00000000
01000000
00000000
,
10001000
00000000
10000000
00000100
00011000
00000000
00010000
00000000
,
10000001
00000000
10000000
00000100
00010001
00000000
00010000
00000000
,
10001000
01000100
00010001
01000100
,
10001000
00000000
01000100
00000000
00010001
01000100
00010001
00000000
,
10001000
01000100
00010001
01000100
,
10001000
00000000
00000000
00010001
00000000
00000000
10001000
00000000
00000000
00000000
00000000
00000000
00000000
00000000
00000000
00000000
,
10011001
01000100
10000001
01000100
,
00011000
01000100
00011000
01000100
,
10000001
01000100
10000001
01000100
,
10000001
00000000
00000000
00011000
00000000
00000000
10000001
00000000
00011000
00000000
00000000
10000001
00000000
00000000
00011000
00000000
,
00000000
10011001
10011001
10011001
,
01000100
01000100
01000100
01000100
,
00010000
01000100
10000000
01000100
,
00010000
00000000
01000100
00000000
10000000
01000000
01000100
00000000
,
00000001
01000100
00001000
01000100
,
00000001
00000000
01000100
00000000
00001000
00000100
01000100
00000000
,
00100000
10000000
01000000
00000000
00100000
10000000
01000000
00000000
,
00100000
10000000
00100000
10000000
00100000
10000000
01000000
00000000
,
00000010
00000001
00000100
00000000
00000010
00000001
00000100
00000000
,
00000010
00000001
00000010
00000001
00000010
00000001
00000100
00000000
,
10010000
00000000
00000000
00001001
00000000
00000000
10010000
00000000
,
00000000
00001001
00000000
00000000
10010000
00000000
01010000
00000000
,
00001001
00000000
00000000
10010000
00000000
00000000
00001001
00000000
,
00000000
10010000
00000000
00000000
00001001
00000000
00001100
00000000
,
00011000
00000000
00000000
00011000
00000000
00000000
00011000
00000000
,
00000000
10000001
00000000
00000000
00011000
00000000
00011000
00000000
,
00000101
01010000
00001100
11000000
,
10011001
10011001
00011000
00011000
,
00010001
01000100
00100010
00100010
,
00001001
10000100
00000001
10000100
,
00001000
10000100
00000001
10000100
,
00001000
10000010
00000001
10000010
,
00001000
10000010
00000001
10000010
,
10010000
01000001
00010000
01000001
,
10000000
01000001
00010000
01000001
,
10000000
00100001
00010000
00100001
,
10000000
00100001
00010000
00100001
,
10001000
01000100
10001000
00000000
00010001
01000100
00010001
00000000
,
10001000
01000100
10001000
00000000
00010001
00100010
00010001
00000000
,
00100010
10001000
01000100
00010001
,
00100010
00010001
01000100
10001000
,
00000000
10001000
00010001
00000000
00000000
00000000
00000000
00000000
,
00000000
00000000
00000000
00000000
,
00000000
00000000
00000000
00000000
;

//---------------dance-solo - ----------------
#NOTES:
     dance-solo:
     :
     Easy:
     4:
     0.373,0.441,0.191,0.000,0.000,241.000,19.000,0.000,0.000,0.000,0.000,0.373,0.441,0.191,0.000,0.000,241.000,19.000,0.000,0.000,0.000,0.000:
000000
000000
000000
000000
,
000000
000000
000000
000000
,
000000
000000
000000
000000
,
000000
000000
000000
000000
,
000000
000000
000000
000000
,
000000
100000
000000
100000
,
000000
000010
000000
000010
,
000000
010000
000000
010000
,
000000
000001
000000
000001
,
000000
010000
000000
000001
,
000000
010000
000000
000001
,
000000
010000
000000
000001
,
000000
010000
000000
000001
,
000000
000010
000000
000010
,
000000
100000
000000
100000
,
000000
001000
000000
001000
,
000000
000001
000000
000001
,
010001
010000
010000
010000
,
000100
000100
000100
000100
,
000110
000010
000010
000010
,
001000
001000
001000
001000
,
100000
000001
001000
001000
,
100000
000001
001000
001000
,
100000
100000
000001
000001
,
100001
100001
100001
100001
,
001000
001000
000100
000100
,
100001
001000
010000
001000
,
010000
001000
000010
001000
,
100000
100000
000001
000001
,
100000
100000
000001
000001
,
010000
001000
010000
001000
,
000010
001000
000010
001000
,
100000
100000
000001
000001
,
100000
100000
000001
000001
,
010000
000100
100000
000010
,
010000
000100
100000
000010
,
000010
000100
000001
100000
,
000010
000100
000001
100000
,
100000
001000
000010
001000
,
100000
001000
000010
001000
,
100000
100000
000001
000001
,
100000
000000
000001
000000
,
000100
100000
001000
000001
,
100001
100001
100001
100001
,
100000
000010
001000
000010
,
100000
000010
001000
000010
,
000100
000100
001000
001000
,
000100
001000
000100
001000
,
000100
000100
001000
001000
,
000100
000100
001000
001000
,
100000
000001
001000
001000
,
000001
100000
001000
001000
,
100001
000001
100001
100000
,
000010
000010
010000
010000
,
000000
000001
000000
100000
,
000000
000001
000000
100000
,
000001
000001
100000
100000
,
000100
000100
001000
001000
,
000010
000010
001000
001000
,
100001
100001
100001
100001
,
001000
001000
001000
001000
,
100001
001000
000010
001000
,
000010
001000
010000
001000
,
000001
000100
100000
000100
,
000001
000100
100000
000100
,
000100
000100
001000
001000
,
000001
000001
100000
100000
,
000001
000001
100000
100000
,
000010
001000
010000
100000
,
000010
001000
010000
100000
,
000001
000001
010000
000001
,
100000
100000
000010
100000
,
000000
000001
000000
000001
,
000000
100001
000000
000000
,
000000
000000
000000
000000
,
000000
000000
000000
000000
;

//---------------dance-solo - ----------------
#NOTES:
     dance-solo:
     :
     Medium:
     6:
     0.402,0.515,0.251,0.000,0.015,255.000,25.000,0.000,0.000,0.000,0.000,0.402,0.515,0.251,0.000,0.015,255.000,25.000,0.000,0.000,0.000,0.000:
000000
000000
000000
000000
,
000000
000000
000000
000000
,
000000
000000
000000
000000
,
000000
000000
000000
000000
,
000000
000000
000000
000000
,
000010
000000
001000
000000
100000
001000
100000
000000
,
100000
000000
000100
000000
000010
000100
000010
000000
,
000001
000000
001000
000000
010000
001000
010000
000000
,
010000
000000
000100
000000
000001
000100
000001
000000
,
100000
001000
000001
001000
,
010000
001000
010000
001000
,
000001
001000
100000
001000
,
000010
001000
000010
001000
,
000100
001000
000100
001000
,
000100
000100
001000
001000
,
000100
001000
000001
000001
,
100000
100000
000001
000001
,
100010
010001
100010
010001
,
001100
100001
000100
001000
,
000110
010100
001000
001000
,
010100
000110
001000
001000
,
000010
100000
000001
001000
,
000010
100000
000100
001000
,
000001
001000
100000
001000
,
000001
000100
001000
100000
,
000010
001000
010000
010000
,
000001
000000
000000
000010
000001
000000
000000
000000
,
100000
000000
000000
010000
100000
000000
000000
000000
,
000001
000000
000000
000010
000001
000000
000000
000000
,
100000
000000
000000
010000
100000
000000
000000
000000
,
000001
000000
000000
000100
000010
000000
000000
000000
,
100000
000000
000000
000100
010000
000000
000000
000000
,
000001
000000
000000
000100
000010
000000
000000
000000
,
100000
000000
000000
000100
010000
000000
000000
000000
,
000010
001000
010000
001000
,
100000
000000
001000
000000
000001
000010
000001
000000
,
100000
001000
010000
001000
,
000001
000000
000000
100000
000000
000000
000001
000000
000000
000000
000000
000000
000000
000000
000000
000000
,
100001
010000
100001
000010
,
000100
000001
000100
000001
,
100000
001000
100000
001000
,
100000
000000
000000
000001
000000
000000
100000
000000
000001
000000
000000
100000
000000
000000
000001
000000
,
000000
100001
100001
100001
,
001000
001000
001000
001000
,
010000
000000
000000
000001
000010
000000
000000
000000
,
000010
000000
000000
100000
010000
000000
000000
000000
,
010000
000000
000000
000010
000001
000000
000000
000000
,
000010
000000
000000
010000
100000
000000
000000
000000
,
000100
000000
000000
000001
100000
000000
000000
000000
,
001000
000000
000000
100000
000001
000000
000000
000000
,
000010
000000
000000
000001
001000
000000
000000
000000
,
010000
000000
000000
100000
001000
000000
000000
000000
,
010001
100010
001100
100001
,
000110
010100
001000
000100
,
001010
011000
000100
000100
,
101000
001001
000100
001000
,
000001
100000
000100
001000
,
000010
001000
010000
001000
,
000001
001000
100000
001000
,
000001
000100
001000
100000
,
000010
001000
000010
000010
,
010000
000000
000000
000100
010000
000000
000000
000000
,
000010
000000
000000
000100
000010
000000
000000
000000
,
100000
000000
000000
001000
100000
000000
000000
000000
,
000001
000000
000000
001000
000001
000000
000000
000000
,
010000
000000
000000
000001
001000
000000
000000
000000
,
000010
000000
000000
100000
001000
000000
000000
000000
,
000100
000000
000000
010000
001000
000000
000000
000000
,
000100
000000
000000
000010
001000
000000
000000
000000
,
000001
000001
100000
100000
,
000001
000001
100000
100000
,
000100
100000
000010
001000
,
001000
010000
000001
000100
,
000000
100000
000001
000000
000000
000000
000000
000000
,
000000
000000
000000
000000
,
000000
000000
000000
000000
;

//---------------dance-solo - ----------------
#NOTES:
     dance-solo:
     :
     Hard:
     8:
     0.466,0.552,0.362,0.000,0.025,289.000,36.000,0.000,0.000,0.000,0.000,0.466,0.552,0.362,0.000,0.025,289.000,36.000,0.000,0.000,0.000,0.000:
000000
000000
000000
000000
,
000000
000000
000000
000000
,
000000
000000
000000
000000
,
000000
000000
000000
000000
,
000000
000000
000000
000000
,
100000
000010
001000
000000
000001
010000
001000
000000
,
100000
000010
001000
000000
000001
010000
001000
000000
,
100000
000010
001000
000000
000001
010000
001000
001000
,
000000
001000
000000
000010
100000
000010
001000
000000
,
000000
100000
100000
000000
000000
000001
000001
000000
,
100000
000010
000000
001000
000000
000001
100000
000000
,
000000
001000
000100
000000
000001
100000
100000
000001
,
000000
000100
000000
001000
000010
000000
010000
001000
,
001000
000000
000000
000001
100000
000000
000000
000100
,
001000
000010
000000
001000
000000
010000
000000
100000
,
000000
000100
000000
000000
000000
000001
100000
001000
,
000000
010000
000000
000001
100000
001000
001000
000000
,
010000
000000
000000
001000
000000
000000
000001
000000
,
000000
001000
000000
000000
100001
000000
100001
000000
,
000010
000000
000000
001000
000000
000000
000001
000000
,
000100
000001
000000
000010
000000
000000
000010
000000
,
000001
000000
000000
100000
000000
000000
001000
000000
,
000000
000100
000000
000000
100001
000000
100001
000000
,
001000
000000
000000
000010
000000
100000
100000
000000
,
100001
100001
100001
100001
,
000000
010000
000000
000001
000000
100000
000010
100000
,
000000
100001
001000
000100
,
001000
000000
000100
000000
010000
000010
001000
000000
,
000000
000000
000001
000000
100000
000010
100000
000010
,
000000
000010
000000
000000
010000
000001
010000
000001
,
000000
100001
001000
000100
,
010000
000010
001000
000001
000000
000000
100000
000000
,
000000
000000
000100
000000
100000
000010
001000
000010
,
100000
000000
000000
000000
,
000000
100001
000000
000000
000000
000000
000000
000000
000000
000000
000000
000000
000000
000000
000100
000000
,
001000
000000
000000
100000
100000
000001
000001
000000
,
000000
000000
000000
001100
000000
000000
000000
000000
000000
000000
000000
000000
000000
000000
000000
000000
,
001000
000000
000000
000010
000000
000000
100000
000000
000000
000000
000000
000000
100001
000000
000000
000000
,
000000
001000
000000
100001
000000
000000
000000
000100
,
000100
000000
000000
010000
000010
010000
000010
000000
,
000000
001001
000000
000000
,
000100
000000
000000
010000
000000
000000
000001
000000
000001
000000
000000
100000
000000
000000
000001
000000
,
000000
000000
001100
001000
000010
010000
000001
010000
,
000001
010000
000001
010000
100010
000000
100010
000000
,
000000
001000
001000
000000
000000
000100
000100
000000
,
010000
001000
000000
100000
000000
000001
000001
000000
,
000000
100000
100000
000000
001000
000010
000000
001000
,
000000
100000
000000
001000
000100
000001
001000
000001
,
100000
000000
000000
000010
001000
000000
000000
000010
,
001000
000010
000000
100000
000000
100000
000000
000001
,
000000
001000
000000
000000
000000
010000
000001
001000
,
000000
000010
000000
001000
000010
001000
001000
000000
,
100001
000000
000000
000100
000000
000000
001000
000000
,
000000
000010
001000
000000
100001
000000
100001
000000
,
010000
000000
000000
000010
000000
000000
001000
000000
,
000100
001000
000000
000010
000000
000000
000000
000000
,
100001
000000
000000
100000
000000
000000
000001
000000
,
000000
010000
000010
000000
010010
000000
010010
000000
,
001000
000000
000000
000001
000000
100000
001000
000000
,
100001
100001
100001
100001
,
000000
010000
000000
000001
000000
100000
000010
100000
,
000000
100001
000100
001000
,
000010
001000
000010
001000
000000
000000
001001
000000
,
000000
000000
010000
000000
001000
100000
000100
100000
,
000000
100000
000000
000000
100001
000000
100001
000000
,
000000
100001
001000
000100
,
010000
000010
000000
010010
,
000000
000000
000100
000000
100000
000001
100000
000010
,
000000
000010
000000
000000
001100
000000
001100
000000
,
000000
000000
000100
000000
100000
000001
100000
000001
,
000000
001000
000000
000000
000100
100000
001000
000000
,
000010
001000
000100
000000
100000
001000
010000
000000
,
000001
100000
001000
000000
000001
010000
000001
000000
,
000000
010000
000001
000000
000000
000000
000000
000000
,
000000
000000
000000
000000
,
000000
000000
000000
000000
;
