#TITLE:Kiss Kiss;
#SUBTITLE:;
#ARTIST:Holly Valance;
#TITLETRANSLIT:;
#SUBTITLETRANSLIT:;
#ARTISTTRANSLIT:;
#GENRE:;
#CREDIT:Unknown StepMaker;
#BANNER:Kiss Kiss.png;
#BACKGROUND:Kiss Kiss.png;
#LYRICSPATH:;
#CDTITLE:;
#MUSIC:Kiss Kiss.mp3;
#OFFSET:-10.741;
#SAMPLESTART:42.630;
#SAMPLELENGTH:10.000;
#SELECTABLE:YES;
#BPMS:0.000=97.002
,1.000=96.999
,4.000=97.002
,5.000=96.999
,8.000=97.002
,9.000=96.999
,12.000=97.002
,13.000=96.999
,16.000=97.002
,17.000=96.999
,20.000=97.002
,21.000=96.999
,24.000=97.002
,25.000=96.999
,28.000=97.002
,29.000=96.999
,32.000=97.002
,33.000=96.999
,36.000=97.002
,37.000=96.999
,40.000=97.002
,41.000=96.999
,44.000=97.002
,45.000=96.999
,48.000=97.002
,49.000=96.999
,52.000=97.002
,53.000=96.999
,56.000=97.002
,57.000=96.999
,60.000=97.002
,61.000=96.999
,64.000=97.002
,65.000=96.999
,68.000=97.002
,69.000=96.999
,72.000=97.002
,73.000=96.999
,76.000=97.002
,77.000=96.999
,80.000=97.002
,81.000=96.999
,84.000=97.002
,85.000=96.999
,88.000=97.002
,89.000=96.999
,92.000=97.002
,93.000=96.999
,96.000=97.002
,97.000=96.999
,100.000=97.002
,101.000=96.999
,104.000=97.002
,105.000=96.999
,108.000=97.002
,109.000=96.999
,112.000=97.002
,113.000=96.999
,116.000=97.002
,117.000=96.999
,120.000=97.002
,121.000=96.999
,124.000=97.002
,125.000=96.999
,126.000=97.002
,127.000=96.999
,128.000=97.002
,129.000=96.999
,130.000=97.002
,131.000=96.999
,132.000=97.002
,133.000=96.999
,134.000=97.002
,135.000=96.999
,136.000=97.002
,137.000=96.999
,138.000=97.002
,139.000=96.999
;
#STOPS:;
#BGCHANGES:;
#KEYSOUNDS:;
#ATTACKS:;

//---------------dance-single - ----------------
#NOTES:
     dance-single:
     :
     Beginner:
     2:
     0.136,0.214,0.154,0.031,0.000,75.000,15.000,3.000,0.000,0.000,0.000,0.136,0.214,0.154,0.031,0.000,75.000,15.000,3.000,0.000,0.000,0.000:
0010
0000
1000
0000
,
0010
0010
0000
0000
,
0001
0001
0000
0000
,
0010
0010
0010
0010
,
0000
1000
0000
0000
,
0001
0000
0100
0100
,
0000
0000
0001
0001
,
0000
1000
1000
1000
,
0000
0000
0010
0000
,
0100
0000
0010
0010
,
0000
1000
0000
0001
,
0000
0100
0000
0010
,
0000
1000
1000
0000
,
0001
0000
0100
0100
,
0000
0000
0010
0010
,
0000
0000
1000
1000
,
0000
0000
0000
0010
,
0000
0000
1001
1001
,
0000
0000
0110
0110
,
0000
0000
1001
1001
,
0000
0000
0000
0010
,
0000
1000
0000
0010
,
0000
0100
0000
1000
,
0000
0001
0000
0100
,
0000
0001
0000
1000
,
0000
0000
0000
0000
0000
0000
0000
0000
0000
0000
0000
0000
0000
0000
0000
0000
0010
0000
0000
0000
0000
0000
0000
0000
0000
0000
0000
0000
0000
0000
0000
0000
0000
0000
0000
0000
0000
0000
0000
0000
0000
0000
0000
0000
0000
0000
0000
0000
2000
0000
0000
0000
0000
3000
0000
0000
0000
0000
0000
0000
0000
0000
0000
0000
,
0000
0100
0100
0100
,
0000
0000
1000
1000
,
0000
0000
0010
0000
,
0100
0100
0000
0000
,
0001
0001
0001
0001
,
0000
0000
1001
0000
,
0110
0000
0000
0000
0000
0000
2002
3003
0000
0000
0000
0000
,
0110
0110
0110
0000
,
1001
0000
1001
1001
,
0000
0000
0000
0000
;

//---------------dance-single - ----------------
#NOTES:
     dance-single:
     :
     Easy:
     6:
     0.279,0.232,0.164,0.051,0.000,169.000,16.000,5.000,0.000,0.000,0.000,0.279,0.232,0.164,0.051,0.000,169.000,16.000,5.000,0.000,0.000,0.000:
1000
0000
0001
0000
0100
0001
0100
0000
,
1100
0000
0001
0000
0100
0010
0100
0000
,
0001
0000
1000
0000
0001
1000
0001
0000
,
0100
0000
0010
0100
0001
0000
0000
0000
,
1000
0100
0001
0010
,
1000
0000
0000
0000
0000
0000
0000
0000
0000
0000
0000
0000
0001
0000
0000
0000
0000
0000
0000
0000
0000
0000
0000
0000
1000
0000
0000
0000
0000
0000
0000
0000
0000
0000
0000
0000
0000
0000
0000
0000
0000
0000
0000
0000
0000
0000
0000
0000
0020
0000
0000
0000
0000
0000
0000
0030
0000
0000
0000
0000
0010
0000
0000
0000
0000
0000
0000
0000
0000
0000
0000
0000
0010
0000
0000
0000
0000
0000
0000
0000
0000
0000
0000
0000
0000
0000
0000
0000
0000
0000
0000
0000
0000
0000
0000
0000
,
0001
0000
1000
0000
0001
0001
0000
1000
,
0000
0010
0000
0100
0000
1001
1001
0000
,
0010
0100
0001
1000
,
0001
0000
0100
0000
0001
0100
1000
0000
,
1000
0000
0000
0000
0000
0000
0000
0000
0000
0000
0000
0000
0000
0000
0000
0000
0010
0000
0000
0000
0000
0000
0000
0000
0000
0000
0000
0000
0000
0000
0000
0000
0100
0000
0000
0000
0000
0000
0000
0000
0002
0000
0000
0000
0000
0003
0000
0000
0100
0000
0000
0000
0000
0000
0000
0000
0000
0000
0000
0000
0000
0000
0000
0000
,
0010
1000
0001
0010
,
1000
1000
1000
1000
1000
0000
0000
0000
,
0001
0000
0100
0000
0001
0001
0001
0000
,
1000
0000
0010
0000
0100
0100
0100
0000
,
0001
0000
1000
0000
1001
1001
1001
0000
,
1000
0000
0010
0000
0000
1001
1001
0000
,
0010
0000
0000
0000
0000
0000
0000
0000
0000
0000
0000
0000
0000
0000
0000
0000
0000
0000
0000
0000
0000
0000
0000
0000
1000
0000
0000
0000
0000
0000
0000
0000
0000
0000
0000
0000
0000
0000
0000
0000
0000
0000
0000
0000
0000
0000
0000
0000
0010
0000
0000
0000
0000
0000
0000
0000
0000
0000
0000
0000
0010
0000
0000
0000
0000
0000
0000
0000
0000
0000
0000
0000
0020
0000
0000
0000
0000
0000
0000
0030
0000
0000
0000
0000
0000
0000
0000
0000
0000
0000
0000
0000
0000
0000
0000
0000
,
0100
0000
0001
0000
1000
1000
1000
0000
,
0001
0000
0100
0000
0010
0010
0010
0000
,
1000
0000
0001
0000
0000
1001
1001
0000
,
0010
0000
0100
0000
0010
0100
0010
0000
,
1000
0000
0001
0000
0100
0001
0010
0000
,
1000
0000
0001
0000
0100
0010
1000
0000
,
0001
0000
0001
0000
1001
0010
0010
0000
,
0001
0000
1000
0000
0010
0100
0010
0000
,
1000
0001
1000
0000
0010
0010
0010
0000
,
1000
0000
0001
0000
0100
0100
0001
0001
,
1000
0010
0101
0101
,
0010
0000
1000
0000
0001
1000
0001
0000
,
0010
0000
0100
0000
0001
0001
0001
0000
,
2000
0000
0000
0000
0000
0000
0000
0000
0000
0000
0000
0000
0000
0000
0000
0000
0000
0000
0000
0000
0000
0000
0000
0000
0000
0000
0000
0000
0000
0000
0000
0000
0000
0000
0000
0000
0000
0000
0000
0000
0000
0000
0000
0000
0000
0000
0000
0000
0002
0000
0000
0000
0000
0000
0000
0000
0000
0000
0000
0000
0000
0000
0000
0000
0000
0000
0000
0000
0000
0000
0000
0000
0000
0000
0000
0000
0000
0000
0000
0000
0000
3000
0003
0000
0000
0000
0000
0000
0000
0000
0000
0000
0000
0000
0000
0000
0010
0000
0000
0000
0000
0000
0000
0000
0000
0000
0000
0000
0000
0000
0000
0000
0000
0000
0000
0000
0000
0000
0000
0000
0100
0000
0000
0000
0000
0000
0000
0000
0000
0000
0000
0000
0000
0000
0000
0000
0000
0000
0000
0000
0000
0000
0000
0000
0001
0000
0000
0000
0000
0000
0000
0000
0000
0000
0000
0000
0000
0000
0000
0000
0000
0000
0000
0000
0000
0000
0000
0000
0000
0000
0000
0000
0000
0000
0000
0000
0000
0000
0000
0000
0000
0000
0000
0000
0000
0000
0000
0000
0000
0000
0000
0000
,
1000
1000
0010
0100
,
0010
0010
0010
0010
0010
0000
0000
0000
,
1000
0000
0001
0000
1001
1001
1001
0000
;

//---------------dance-single - ----------------
#NOTES:
     dance-single:
     :
     Medium:
     9:
     0.415,0.339,0.298,0.062,0.000,248.000,29.000,6.000,0.000,0.000,0.000,0.415,0.339,0.298,0.062,0.000,248.000,29.000,6.000,0.000,0.000,0.000:
1000
0001
0110
0100
1010
1000
1100
0010
,
0100
0001
0010
0100
1000
1000
0001
0001
,
0100
0010
0010
0001
0101
1000
0101
0010
,
1000
1000
0100
0001
1100
0000
0000
0000
,
1000
0001
0100
0010
1000
0100
0100
0001
,
1000
0100
0010
0001
0010
0100
1000
1001
,
0010
0100
0001
0100
0010
0010
0100
0100
,
0001
0000
0000
0000
0000
0000
0000
0000
0000
0000
0000
0000
0001
0000
0000
0000
0000
0000
0000
0000
0000
0000
0000
0000
0002
0000
0000
0000
0000
0000
0000
0003
0000
0000
0000
0000
0000
0000
0000
0000
0000
0000
0000
0000
0000
0000
0000
0000
0010
0000
0000
0000
0000
0000
0000
0000
0000
0000
0000
0000
1000
0000
0000
0000
0000
0000
0000
0000
0000
0000
0000
0000
0001
0000
0000
0000
0000
0000
0000
0000
0000
0000
0000
0000
0000
0000
0000
0000
0000
0000
0000
0000
0000
0000
0000
0000
,
0200
0000
0000
0000
0000
0000
0000
0000
0000
0000
0000
0000
0000
0000
0000
0000
0000
0000
0000
0000
0000
0000
0000
0000
0020
0000
0000
0000
0000
0000
0000
0000
0000
0000
0000
0000
0000
0000
0000
0300
0030
0000
0000
0000
0000
0000
0000
0000
0001
0000
0000
0000
0000
0000
0000
0000
0000
0000
0000
0000
1000
0000
0000
0000
0000
0000
0000
0000
0000
0000
0000
0000
0010
0000
0000
0000
0000
0000
0000
0000
0000
0000
0000
0000
0100
0000
0000
0000
0000
0000
0000
0000
0000
0000
0000
0000
,
1100
0000
0011
0000
0110
1001
0110
0000
,
1000
0000
0000
0000
0000
0000
0000
0000
0000
0000
0000
0000
0001
0000
0000
0000
0000
0000
0000
0000
0000
0000
0000
0000
0200
0000
0000
0000
0000
0000
0000
0000
0000
0000
0000
0000
0000
0000
0000
0000
0000
0300
0000
0000
0000
0000
0000
0000
0010
0000
0000
0000
0000
0000
0000
0000
0000
0000
0000
0000
1000
0000
0000
0000
0000
0000
0000
0000
0000
0000
0000
0000
0001
0000
0000
0000
0000
0000
0000
0000
0000
0000
0000
0000
0100
0000
0000
0000
0000
0000
0000
0000
0000
0000
0000
0000
,
0010
0000
0000
0000
0000
0000
0000
0000
0000
0000
0000
0000
0020
0000
0000
0000
0000
0000
0000
0030
0000
0000
0000
0000
1000
0000
0000
0000
0000
0000
0000
0000
0000
0000
0000
0000
1000
0000
0000
0000
0000
0000
0000
0000
0000
0000
0000
0000
0100
0000
0000
0000
0000
0000
0000
0000
0000
0000
0000
0000
0100
0000
0000
0000
0000
0000
0000
0000
0000
0000
0000
0000
0001
0000
0000
0000
0000
0000
0000
0000
0000
0000
0000
0000
0001
0000
0000
0000
0000
0000
0000
0000
0000
0000
0000
0000
,
1100
0011
1100
1100
0011
0000
0000
0000
,
0100
0010
1000
0001
1000
1000
1000
0010
,
0100
0001
1000
0010
0001
0001
0001
1000
,
0010
0100
0100
0100
0001
0001
0001
1000
,
0010
0100
0001
0100
0000
1000
0001
0000
,
0100
0010
0100
0001
1000
1000
1000
0010
,
0100
0001
0010
0100
0001
0001
0001
0010
,
0011
0100
0010
1010
0100
0100
0100
1000
,
0100
0011
0100
0010
0000
1001
1001
0010
,
0100
0001
0100
0010
1000
1000
0100
0100
,
0010
0010
0100
0001
1000
1000
0001
0001
,
0100
0010
0010
0010
1000
0100
0001
0000
,
0100
1100
1000
0100
0010
0000
0000
0000
,
0000
1000
0001
0001
0010
0001
0010
0001
,
0100
0100
0010
0010
1000
1000
0001
0000
,
0100
0000
0000
0000
0000
0000
0000
0000
0000
0000
0000
0000
0000
0000
0000
0000
0000
0000
0000
0000
0000
0000
0000
0000
0010
0000
0000
0000
0000
0000
0000
0000
0000
0000
0000
0000
0000
0000
0000
0000
0000
0000
0000
0000
0000
0000
0000
0000
0002
0000
0000
0000
0000
0000
0000
0000
0000
0000
0000
0000
0000
0003
0000
0000
0000
0000
0000
0000
0000
0000
0000
0000
1000
0000
0000
0000
0000
0000
0000
0000
0000
0000
0000
0000
0000
0000
0000
0000
0000
0000
0000
0000
0000
0000
0000
0000
0010
0000
0000
0000
0000
0000
0000
0000
0000
0000
0000
0000
0000
0000
0000
0000
0000
0000
0000
0000
0000
0000
0000
0000
1000
0000
0000
0000
0000
0000
0000
0000
0000
0000
0000
0000
0000
0000
0000
0000
0000
0000
0000
0000
0000
0000
0000
0000
0001
0000
0000
0000
0000
0000
0000
0000
0000
0000
0000
0000
0000
0000
0000
0000
0000
0000
0000
0000
0000
0000
0000
0000
0100
0000
0000
0000
0000
0000
0000
0000
0000
0000
0000
0000
0000
0000
0000
0000
0000
0000
0000
0000
0000
0000
0000
0000
,
0010
1000
0001
0100
0010
0010
0010
0000
,
1001
0001
0010
0000
0100
0010
0100
1000
,
1000
0100
0010
0001
0010
0100
1000
0000
,
1000
0100
0010
0000
1000
0100
1000
0000
,
0010
0100
0001
1000
0010
0010
0100
0100
,
1001
0110
1001
0110
1001
0000
0000
0000
,
1000
1000
0100
0100
0010
0010
0010
0000
,
0000
0000
0000
0000
;

//---------------dance-single - ----------------
#NOTES:
     dance-single:
     :
     Hard:
     14:
     0.615,0.518,0.092,0.082,0.760,402.000,9.000,8.000,0.000,0.000,0.000,0.615,0.518,0.092,0.082,0.760,402.000,9.000,8.000,0.000,0.000,0.000: // measure 0
1000
0001
0100
0010
1000
0001
0100
0000
0001
0010
0001
0010
0001
0010
0001
0010
,  // measure 1
0001
0000
1000
0001
1000
0001
1000
0000
0010
0100
0010
0100
0010
0100
0010
0100
,  // measure 2
0001
0000
0001
1000
0010
0100
0001
0000
1000
0010
0100
0010
0100
0010
0100
0001
,  // measure 3
1000
0010
0100
0001
1000
0010
0100
0000
0100
0000
0000
0000
0000
0000
0000
0000
,  // measure 4
1000
0000
0001
0000
1000
0100
0001
0000
1000
0000
0010
0000
0100
0001
0100
0000
,  // measure 5
0001
1000
0001
0100
0010
0000
1000
0001
0100
0000
0010
0000
1000
0000
1001
0000
,  // measure 6
0010
0000
0100
0000
0001
1000
0010
0000
0100
0010
0100
1000
0001
1000
0001
0000
,  // measure 7
1000
0001
0100
0010
0100
0000
0001
1000
0001
0100
0001
0000
0010
0000
0000
0000
,  // measure 8
0200
0000
0000
0000
0000
0000
0000
0000
0000
0000
0000
0000
0000
0000
0000
0000
0000
0000
0000
0000
0000
0000
0000
0000
0000
0000
0000
0000
0000
0000
0000
0000
0000
0000
0000
0000
0000
0000
0000
0000
0000
0000
0000
0000
0000
0000
0000
0000
0002
0000
0000
0000
0000
0000
0000
0000
0000
0000
0000
0000
0000
0000
0000
0000
0000
0000
0000
0000
0000
0000
0000
0000
0000
0000
0000
0000
0300
0000
0000
0000
0000
0003
0000
0000
0000
0000
0000
0000
0000
0000
0000
0000
0000
0000
0000
0000
1000
0000
0000
0000
0000
0000
0000
0000
0000
0000
0000
0000
0001
0000
0000
0000
0000
0000
0000
0000
0000
0000
0000
0000
1000
0000
0000
0000
0000
0000
0000
0000
0000
0000
0000
0000
0010
0000
0000
0000
0000
0000
0000
0000
0000
0000
0000
0000
0100
0000
0000
0000
0000
0000
0000
0000
0000
0000
0000
0000
0000
0000
0000
0000
0000
0000
0000
0000
0000
0000
0000
0000
0001
0000
0000
0000
0000
0000
0000
0000
0000
0000
0000
0000
0000
0000
0000
0000
0000
0000
0000
0000
0000
0000
0000
0000
,  // measure 9
1000
0000
0001
1000
0000
0010
0100
0000
0001
1000
0010
0100
0001
0000
1000
0000
,  // measure 10
1000
0100
0001
0000
0001
0100
1000
0000
1000
0100
0010
0001
0010
0000
0100
0000
,  // measure 11
0001
0000
0100
0010
1000
0000
0001
0000
0100
0001
0100
0001
1000
0010
0100
0010
,  // measure 12
0100
0001
1000
0010
0100
0100
0100
0001
0001
0000
0000
0000
0000
0000
0000
0000
,  // measure 13
1000
0000
0010
0100
0001
0000
1000
0010
1000
0010
1000
0010
1000
0000
0001
0100
,  // measure 14
0010
0000
1000
0100
0001
0000
1000
0010
0100
0100
0001
0100
0001
0000
0000
0000
,  // measure 15
1000
0000
0100
0000
0010
0001
0100
0000
1000
0001
1000
0001
1000
0000
0010
0100
,  // measure 16
0000
0000
1000
0100
0010
0000
0010
0000
0000
0000
1001
0000
1001
0000
0000
0000
,  // measure 17
0010
0000
0100
0001
1000
0000
0010
0100
0010
0100
0010
0100
0010
0000
1000
0001
,  // measure 18
1000
0000
0010
0100
0001
0000
0100
0010
1000
0010
1000
0100
1000
0000
0000
0000
,  // measure 19
1000
0000
0001
0000
0100
0010
1000
0000
1000
0100
1000
0100
0010
0000
0001
1000
,  // measure 20
0010
0000
0000
0000
0000
0000
0000
0000
0000
0000
0000
0000
0100
0000
0000
0000
0000
0000
0000
0000
0000
0000
0000
0000
0001
0000
0000
0000
0000
0000
0000
0000
0000
0000
0000
0000
1000
0000
0000
0000
0000
0000
0000
0000
0000
0000
0000
0000
0010
0000
0000
0000
0000
0000
0000
0000
0000
0000
0000
0000
0100
0000
0000
0000
0000
0000
0000
0000
0000
0000
0000
0000
0200
0000
0000
0000
0000
0000
0000
0000
0000
0000
0000
0000
0000
0000
0000
0000
0000
0000
0000
0000
0000
0000
0000
0000
0000
0000
0000
0000
0000
0300
0000
0000
0000
0000
0000
0000
0000
0000
0000
0000
0000
0000
0000
0000
0000
0000
0000
0000
1001
0000
0000
0000
0000
0000
0000
0000
0000
0000
0000
0000
0000
0000
0000
0000
0000
0000
0000
0000
0000
0000
0000
0000
1001
0000
0000
0000
0000
0000
0000
0000
0000
0000
0000
0000
0000
0000
0000
0000
0000
0000
0000
0000
0000
0000
0000
0000
0010
0000
0000
0000
0000
0000
0000
0000
0000
0000
0000
0000
0000
0000
0000
0000
0000
0000
0000
0000
0000
0000
0000
0000
,  // measure 21
0100
0000
0000
0000
0000
0000
0000
0000
0000
0000
0000
0000
0001
0000
0000
0000
0000
0000
0000
0000
0000
0000
0000
0000
1000
0000
0000
0000
0000
0000
0000
0000
0000
0000
0000
0000
0001
0000
0000
0000
0000
0000
0000
0000
0000
0000
0000
0000
1000
0000
0000
0000
0000
0000
0000
0000
0000
0000
0000
0000
0010
0000
0000
0000
0000
0000
0000
0000
0000
0000
0000
0000
0100
0000
0000
0000
0000
0000
0000
0000
0000
0000
0000
0000
0000
0000
0000
0000
0000
0000
0000
0000
0000
0000
0000
0000
0010
0000
0000
0000
0000
0000
0000
0000
0000
0000
0000
0000
0100
0000
0000
0000
0000
0000
0000
0000
0000
0000
0000
0000
0010
0000
0000
0000
0000
0000
0000
0000
0000
0000
0000
0000
2000
0000
0000
0000
0000
0000
0000
0000
0000
0000
0000
0000
0100
3000
0000
0000
0000
0000
0000
0000
0000
0000
0000
0000
0100
0000
0000
0000
0000
0000
0000
0000
0000
0000
0000
0000
0001
0000
0000
0000
0000
0000
0000
0000
0000
0000
0000
0000
0100
0000
0000
0000
0000
0000
0000
0000
0000
0000
0000
0000
,  // measure 22
0010
0000
0010
1000
0001
1000
0010
0000
0100
0010
0100
0010
0001
1000
0010
0100
,  // measure 23
0001
0000
0001
1000
0001
1000
0001
1000
0100
0001
0100
0001
0100
0001
0100
1000
,  // measure 24
0100
0010
1000
0001
0100
0010
1000
0000
1001
0000
0010
0100
0001
0000
0001
0000
,  // measure 25
1000
0000
0100
0010
0100
0000
1000
0000
1000
0100
0001
0010
0100
0000
0010
0000
,  // measure 26
0100
0010
1000
0010
0001
0100
1000
0010
0100
0000
0001
0100
0001
0000
0000
0000
,  // measure 27
1000
0001
1000
0010
0010
0000
0010
0000
1000
0100
0001
0000
1000
0100
0001
0000
,  // measure 28
2000
0000
0000
0000
0000
0000
0000
0000
0000
0000
0000
0000
0010
0000
3000
0000
0000
0000
0000
0000
0000
0000
0000
0000
0100
0000
0000
0000
0000
0000
0000
0000
0000
0000
0000
0000
0001
0000
0000
0000
0000
0000
0000
0000
0000
0000
0000
0000
1000
0000
0000
0000
0000
0000
0000
0000
0000
0000
0000
0000
0010
0000
0000
0000
0000
0000
0000
0000
0000
0000
0000
0000
0100
0000
0000
0000
0000
0000
0000
0000
0000
0000
0000
0000
0000
0000
0000
0000
0000
0000
0000
0000
0000
0000
0000
0000
1001
0000
0000
0000
0000
0000
0000
0000
0000
0000
0000
0000
0000
0000
0000
0000
0000
0000
0000
0000
0000
0000
0000
0000
0110
0000
0000
0000
0000
0000
0000
0000
0000
0000
0000
0000
0000
0000
0000
0000
0000
0000
0000
0000
0000
0000
0000
0000
1001
0000
0000
0000
0000
0000
0000
0000
0000
0000
0000
0000
0000
0000
0000
0000
0000
0000
0000
0000
0000
0000
0000
0000
0000
0000
0000
0000
0000
0000
0000
0000
0000
0000
0000
0000
0000
0000
0000
0000
0000
0000
0000
0000
0000
0000
0000
0000
,  // measure 29
2000
0000
0000
0000
0000
0000
0000
0000
0000
0000
0000
0000
0000
0000
0000
0000
0000
0000
0000
0000
0000
0000
0000
0000
0000
0000
0000
0000
0000
0000
0000
0000
0000
0000
0000
0000
0000
0000
0000
0000
0000
0000
0000
0000
0000
0000
0000
0000
0020
0000
0000
0000
0000
3000
0000
0000
0000
0000
0000
0000
0000
0000
0000
0000
0000
0000
0000
0000
0000
0000
0000
0000
0000
0000
0000
0000
0000
0000
0000
0000
0000
0000
0000
0000
0000
0000
0000
0000
0030
0000
0000
0000
0000
0000
0000
0000
0100
0000
0000
0000
0000
0000
0000
0000
0000
0000
0000
0000
0001
0000
0000
0000
0000
0000
0000
0000
0000
0000
0000
0000
0000
0000
0000
0000
0000
0000
0000
0000
0000
0000
0000
0000
1000
0000
0000
0000
0000
0000
0000
0000
0000
0000
0000
0000
0010
0000
0000
0000
0000
0000
0000
0000
0000
0000
0000
0000
0000
0000
0000
0000
0000
0000
0000
0000
0000
0000
0000
0000
0000
0000
0000
0000
0000
0000
0000
0000
0000
0000
0000
0000
0000
0000
0000
0000
0000
0000
0000
0000
0000
0000
0000
0000
,  // measure 30
0001
0100
0001
0100
0010
1000
0001
0100
0010
1000
0010
1000
0001
0000
0000
0000
,  // measure 31
1000
0001
0000
0000
0001
0000
1000
0000
0001
1000
0001
0000
0001
0000
1000
0000
,  // measure 32
0100
0001
0100
0001
0100
0010
1000
0001
0100
0000
0100
0010
1000
0000
0001
0000
,  // measure 33
0100
0000
0000
0000
0000
0000
0000
0000
0000
0000
0000
0000
0010
0000
0000
0000
0000
0000
0000
0000
0000
0000
0000
0000
0100
0000
0000
0000
0000
0000
0000
0000
0000
0000
0000
0000
0010
0000
0000
0000
0000
0000
0000
0000
0000
0000
0000
0000
0100
0000
0000
0000
0000
0000
0000
0000
0000
0000
0000
0000
0010
0000
0000
0000
0000
0000
0000
0000
0000
0000
0000
0000
0100
0000
0000
0000
0000
0000
0000
0000
0000
0000
0000
0000
0001
0000
0000
0000
0000
0000
0000
0000
0000
0000
0000
0000
2000
0000
0000
0000
0000
0000
0000
0000
0000
0000
0000
0000
0000
0000
0000
0000
0000
3000
0000
0000
0000
0000
0000
0000
0001
0000
0000
0000
0000
0000
0000
0000
0000
0000
0000
0000
1000
0000
0000
0000
0000
0000
0000
0000
0000
0000
0000
0000
0000
0000
0000
0000
0000
0000
0000
0000
0000
0000
0000
0000
0001
0000
0000
0000
0000
0000
0000
0000
0000
0000
0000
0000
1000
0000
0000
0000
0000
0000
0000
0000
0000
0000
0000
0000
0000
0000
0000
0000
0000
0000
0000
0000
0000
0000
0000
0000
,  // measure 34
0010
0000
0100
0001
1000
0000
0010
0100
0001
0100
0001
0100
0001
0000
0000
0000
;
