#TITLE:Dirrty;
#SUBTITLE:;
#ARTIST:Christina Aguilera;
#TITLETRANSLIT:;
#SUBTITLETRANSLIT:;
#ARTISTTRANSLIT:;
#GENRE:;
#CREDIT:Unknown StepMaker;
#MENUCOLOR:;
#BANNER:Dirrty.png;
#DISC:Dirrty.png;
#BACKGROUND:Dirrty.png;
#PREVIEW:Dirrty.png;
#LYRICSPATH:;
#CDTITLE:;
#MUSIC:Dirrty.mp3;
#SAMPLESTART:65.130;
#SAMPLELENGTH:10.000;
#SELECTABLE:YES;
#SMAVERSION:b3.1;
#ROWSPERBEAT:0=192;
#BEATSPERMEASURE:0=4;
#OFFSET:-3.435;
#BPMS:0.000=100.000;
#STOPS:;
#BGCHANGES:;

//---------------dance-single - ----------------
#ROWSPERBEAT:0=192;
#BEATSPERMEASURE:0=4;
#OFFSET:-3.435;
#BPMS:0.000=100.000;
#STOPS:;
#DELAYS:;
#TICKCOUNT:0.000=2;
#SPEED:0.000=1.000;
#MULTIPLIER:0.000=1;
#FAKES:;
#METERTYPE:DDR;
#ATTACKS:;
#NOTES:
     dance-single:
     :
     Beginner:
     2:
     0.137,0.176,0.081,0.041,0.000:
1000
0000
0010
0000
,
0100
0000
0000
0000
,
1000
1000
0000
0000
,
0010
0010
0000
0000
,
1000
1000
0000
0000
,
0010
0010
0000
0000
,
0100
0100
0000
0000
,
0010
0010
0000
0000
,
1000
1000
0000
0100
,
0100
0100
0000
0000
,
1001
0000
0010
0000
,
0100
0000
1000
1000
,
0000
0110
0000
0001
,
0000
0100
0100
0000
,
1001
1001
0000
0000
,
0110
0110
0000
0000
,
1000
1000
0000
0000
,
0010
0010
0010
0010
,
0000
0001
0000
0100
,
0000
0010
0000
1000
,
0000
0001
0000
0100
,
0100
0000
1001
0000
,
0220
0000
0000
0000
0000
0000
0000
0000
0000
0000
0000
0000
0000
0000
0300
0000
0000
0030
0000
0000
0000
0000
0000
0000
0000
0000
0000
0000
0000
0000
0000
0000
0000
0000
0000
0000
0000
0000
0000
0000
0000
0000
0000
0000
0000
0000
0000
0000
0000
0000
0000
0000
0000
0000
0000
0000
0000
0000
0000
0000
0000
0000
0000
0000
0000
0000
0000
0000
0000
0000
0000
0000
0000
0000
0000
0000
0000
0000
0000
0000
0000
0000
0000
0000
0000
0000
0000
0000
0000
0000
0000
0000
0000
0000
0000
0000
0002
0000
0000
0000
0000
0000
0000
0000
0000
0000
0000
0000
0000
0000
0000
0000
0000
0000
0000
0000
0000
0000
0000
0000
0000
0000
0000
0000
0000
0000
0000
0000
0000
0000
0000
0000
0000
0000
0000
0000
0000
0000
0000
0000
0000
0000
0000
0000
0000
0000
0003
0000
0000
0000
0000
0000
0000
0000
0000
0000
0000
0000
0000
0000
0000
0000
0000
0000
0000
0000
0000
0000
0000
0000
0000
0000
0000
0000
0000
0000
0000
0000
0000
0000
0000
0000
0000
0000
0000
0000
0000
0000
0000
0000
0000
0000
,
1000
0000
0010
0000
,
1000
0000
0001
0000
,
0100
0100
0100
0000
,
0010
0000
0100
0000
,
0001
0000
0001
0000
,
0000
1000
0000
0010
,
0000
0100
0000
0001
,
0000
0010
0000
1000
,
0000
0100
0000
0001
,
0000
0010
0000
1000
,
0000
0000
0000
0000
0000
0000
0000
0000
0000
0000
0000
0000
0000
0000
0000
0000
0000
0000
0000
0000
0000
0000
0000
0000
0000
0000
0000
0000
0000
0000
0000
0000
0000
0000
0000
0000
0000
0000
0000
0000
0000
0000
0000
0000
0000
0000
0000
0000
0001
0000
0000
0000
0000
0000
0000
0000
0000
0000
0000
0000
0000
0000
0000
0000
0000
0000
0000
0000
0000
0000
0000
0000
0000
0000
0000
0000
0000
0000
0000
0000
0000
0000
0000
0000
0000
0000
0000
0000
0000
0000
0000
0000
0000
0000
0000
0000
0000
0000
0000
0000
0000
0000
0000
0000
0000
0000
0000
0000
0000
0000
0000
0000
0000
0000
0000
0000
0000
0000
0000
0000
0000
0000
0000
0000
0000
0000
0000
0000
0000
0000
0000
0000
0000
0000
0000
0000
0000
0000
0000
0000
0000
0000
0000
0000
2000
0000
0000
0000
0000
0000
0000
0000
0000
0000
0000
0000
0000
0000
0000
0000
0000
3000
0000
0000
0000
0000
0000
0000
0000
0000
0000
0000
0000
0000
0000
0000
0000
0000
0000
0000
0000
0000
0000
0000
0000
0000
0000
0000
0000
0000
0000
0000
,
0000
0100
0000
0000
,
0010
0010
0000
0000
,
1000
1000
0000
0000
,
0001
0001
0001
0000
,
0010
0000
0100
0000
,
0000
0000
0000
0000
;

//---------------dance-single - ----------------
#ROWSPERBEAT:0=192;
#BEATSPERMEASURE:0=4;
#OFFSET:-3.435;
#BPMS:0.000=100.000;
#STOPS:;
#DELAYS:;
#TICKCOUNT:0.000=2;
#SPEED:0.000=1.000;
#MULTIPLIER:0.000=1;
#FAKES:;
#METERTYPE:DDR;
#ATTACKS:;
#NOTES:
     dance-single:
     :
     Easy:
     4:
     0.230,0.276,0.305,0.000,0.000: // measure 1
1000
0010
0100
0001
,  // measure 2
0010
0010
1000
0001
,  // measure 3
1001
1001
0100
0100
,  // measure 4
0010
0010
1001
1001
,  // measure 5
0010
0010
0100
0100
,  // measure 6
0001
0010
1000
0010
,  // measure 7
0000
0110
0100
1000
,  // measure 8
0001
0100
0010
0010
,  // measure 9
1000
0001
0100
0001
,  // measure 10
0101
0101
0000
1000
,  // measure 11
0010
0000
1000
1000
,  // measure 12
0001
0011
0100
0110
,  // measure 13
1000
1000
0001
0001
,  // measure 14
0100
0010
0100
0000
,  // measure 15
1001
1001
0010
0010
,  // measure 16
1001
1001
0010
0011
,  // measure 17
0100
1010
0100
0100
,  // measure 18
0000
1000
0010
0100
,  // measure 19
0001
1000
1000
0100
,  // measure 20
0010
1000
0001
0100
,  // measure 21
0001
1000
0010
0100
,  // measure 22
0001
0001
1000
1000
,  // measure 23
0010
1010
0100
0000
,  // measure 24
0010
0011
0000
0000
,  // measure 25
1001
0000
0110
0000
,  // measure 26
1000
1000
0000
0000
,  // measure 27
0000
1001
0000
0010
,  // measure 28
0000
1001
0010
0010
,  // measure 29
0000
1001
0000
0110
,  // measure 30
0000
1001
0000
0100
,  // measure 31
0000
0010
0000
1000
,  // measure 32
0000
0001
0000
1000
,  // measure 33
0000
1001
0000
0110
,  // measure 34
0000
1001
0000
0000
,  // measure 35
1000
1000
0001
0001
,  // measure 36
0100
0100
0010
0010
,  // measure 37
1000
1001
0001
0100
,  // measure 38
0010
1000
0100
0100
,  // measure 39
0010
0010
1001
1001
;

//---------------dance-single - ----------------
#ROWSPERBEAT:0=192;
#BEATSPERMEASURE:0=4;
#OFFSET:-3.435;
#BPMS:0.000=100.000;
#STOPS:;
#DELAYS:;
#TICKCOUNT:0.000=2;
#SPEED:0.000=1.000;
#MULTIPLIER:0.000=1;
#FAKES:;
#METERTYPE:DDR;
#ATTACKS:;
#NOTES:
     dance-single:
     :
     Medium:
     6:
     0.283,0.296,0.214,0.051,0.000:
1000
0010
0100
0001
,
1000
1000
0001
0100
,
0110
0110
0001
0001
,
1000
1000
0110
0110
,
0001
0000
0000
0000
0000
0000
0000
0000
0000
0000
0000
0000
0000
0000
0000
0000
0000
0000
0000
0000
0000
0000
0000
0000
0000
0000
0000
0000
0000
0000
0000
0000
0000
0000
0000
0000
0000
0000
0000
0000
0000
0000
0000
0000
0000
0000
0000
0000
0001
0000
0000
0000
0000
0000
0000
0000
0000
0000
0000
0000
0000
0000
0000
0000
0000
0000
0000
0000
0000
0000
0000
0000
0000
0000
0000
0000
0000
0000
0000
0000
0000
0000
0000
0000
0000
0000
0000
0000
0000
0000
0000
0000
0000
0000
0000
0000
0110
0000
0000
0000
0000
0000
0000
0000
0000
0000
0000
0000
0000
0000
0000
0000
0000
0000
0000
0000
0000
0000
0000
0000
0000
0000
0000
0000
0000
0000
0000
0000
0000
0000
0000
0000
0000
0000
0000
0000
0000
0000
0000
0000
0000
0000
0000
0000
0220
0000
0000
0000
0000
0000
0000
0000
0000
0000
0000
0000
0000
0300
0000
0030
0000
0000
0000
0000
0000
0000
0000
0000
0000
0000
0000
0000
0000
0000
0000
0000
0000
0000
0000
0000
0000
0000
0000
0000
0000
0000
0000
0000
0000
0000
0000
0000
,
1000
1000
0110
0110
,
0001
0001
0110
0110
,
1000
1000
0110
0110
,
0001
0001
0110
0110
,
0110
0110
0000
0000
,
1000
0000
0100
0001
,
1000
0001
1000
0000
0010
0100
0010
0000
,
1000
0100
0001
0000
0001
0100
1000
0000
,
1000
0100
1000
0000
0010
0000
0010
0000
,
1000
0001
0100
0100
,
0010
0010
1000
1000
,
0001
1000
0001
0000
0100
0000
0010
0000
,
1000
0100
0010
0001
0010
0100
1000
0000
,
1000
0100
0010
0100
,
0001
0000
0001
0000
0100
0000
0100
0100
,
0001
0000
1000
0000
0000
0100
0100
0010
,
0000
1000
0001
0000
1000
0010
0000
0010
,
0010
1000
0001
0000
,
0100
0000
0000
0002
0000
0000
1000
0003
0000
0000
0000
0000
,
0010
0000
0100
0010
0100
0000
1000
0001
,
1000
0001
1000
0000
0000
0000
0010
0000
,
0000
1001
1001
0000
0010
0000
0100
0000
,
0000
0110
0110
0000
1000
0000
0100
0000
,
0000
1000
0010
0000
0100
0000
0001
0100
,
0010
0000
1000
0000
0100
0100
0100
0010
,
0000
1000
0001
0000
0100
0000
0010
0000
,
0000
0010
0010
0000
1000
0000
0001
0000
,
0000
0100
0100
0000
1000
0000
0010
0010
,
0000
0001
1000
0110
,
0001
0100
0010
0000
,
2000
0000
0000
0000
0000
0000
0200
0000
0000
3000
0300
0000
0001
0000
0000
0000
0000
0000
0100
0000
0000
0000
0000
0000
,
0010
0010
0010
0000
1000
0000
0001
0000
,
1000
0001
1000
0000
0010
0000
0010
0000
,
1000
0001
0100
0100
,
0000
0000
0000
0000
;

//---------------dance-single - ----------------
#ROWSPERBEAT:0=192;
#BEATSPERMEASURE:0=4;
#OFFSET:-3.435;
#BPMS:0.000=100.000;
#STOPS:;
#DELAYS:;
#TICKCOUNT:0.000=2;
#SPEED:0.000=1.000;
#MULTIPLIER:0.000=1;
#FAKES:;
#METERTYPE:DDR;
#ATTACKS:;
#NOTES:
     dance-single:
     :
     Hard:
     7:
     0.294,0.296,0.112,0.010,0.000:
1000
0100
0010
0100
,
1000
0100
0001
0010
,
1000
0000
0100
0000
1000
1000
1000
0000
,
0100
0000
0010
0000
0001
0001
0001
0000
,
0010
0000
0100
0000
0010
0010
0010
0000
,
0100
0000
1000
0000
0100
0100
0100
0000
,
0010
0000
0001
0000
1000
0100
0001
0000
,
0010
0000
0100
0000
1000
0100
0010
0000
,
0001
0000
0001
0000
0001
0000
1000
1000
,
1000
1000
0000
0000
0000
0000
0000
0000
,
0010
0001
1000
1000
,
1000
0100
0010
0000
0010
0001
0010
0000
,
0100
0010
0100
0000
1000
0100
1000
0000
,
1000
0100
0010
0001
0010
0000
0010
0000
,
0100
0100
1000
1000
,
1000
0001
1000
0000
0010
0000
0100
0000
,
0010
0100
0110
0000
1000
0000
0100
0000
,
1000
0100
0010
0001
0010
0100
1000
0000
,
1000
0010
0100
0000
0001
0000
0010
0100
,
0000
1000
0100
0000
0010
0001
0100
0000
,
1000
0010
0100
0000
0001
0000
0010
0010
,
0100
1000
0001
0010
,
1000
1100
0010
0000
,
0100
0011
0000
0000
,
1100
0000
0010
0000
0101
0000
1000
0010
,
0100
0000
0000
0000
0000
0000
0000
0000
0100
0000
0000
0000
0000
0000
0000
0000
0020
0000
0000
0000
0000
0000
0000
0000
0000
0000
0000
0000
0000
0000
0000
0000
0000
0000
0000
0000
0000
0000
0000
0000
0000
0000
0000
0000
0000
0030
0000
0000
0000
0000
0000
0000
0000
0000
0000
0000
0000
0000
0000
0000
0000
0000
0000
0000
,
1100
0010
1001
0000
0000
0000
0000
0000
,
0000
0010
1000
0000
0001
0000
0100
0000
,
0000
0010
0100
0000
0001
0000
1000
0010
,
0100
0001
1000
0010
0100
0100
0001
0001
,
0000
1000
0001
0000
0010
0100
0010
0100
,
0000
1001
1001
0000
0010
0100
0001
0000
,
0000
1000
0001
0000
0010
0100
0010
0010
,
1000
0001
0100
0010
1000
0001
0100
0010
,
1000
0000
0100
0000
1000
0010
0100
0000
,
0011
1100
0100
0001
,
1000
1000
0100
0000
0000
0000
0000
0000
,
0001
0100
0010
0000
1000
0001
1000
0000
,
0010
0000
0100
0000
0010
0010
0010
0000
,
0000
0000
0000
0000
;
