#TITLE:COTTON-EYE JOE;
#SUBTITLE:;
#ARTIST:REDNEX;
#TITLETRANSLIT:;
#SUBTITLETRANSLIT:;
#ARTISTTRANSLIT:;
#GENRE:;
#CREDIT:Unknown StepMaker;
#BANNER:COTTON-EYE JOE.png;
#BACKGROUND:COTTON-EYE JOE-bg.png;
#LYRICSPATH:;
#CDTITLE:./CDTITLES/DANCEMANIA DIAMOND.PNG;
#MUSIC:COTTON-EYE JOE.mp3;
#OFFSET:-0.116;
#SAMPLESTART:21.920;
#SAMPLELENGTH:12.000;
#SELECTABLE:YES;
#DISPLAYBPM:132.000;
#BPMS:0.000=132.003
,2.000=131.996
,3.000=132.003
,4.000=131.996
,5.000=132.003
,6.000=131.996
,7.000=132.003
,8.000=131.996
,9.000=132.003
,10.000=131.996
,11.000=132.003
,13.000=131.996
,14.000=132.003
,15.000=131.996
,16.000=132.003
,17.000=131.996
,18.000=132.003
,19.000=131.996
,20.000=132.003
,21.000=131.996
,22.000=132.003
,24.000=131.996
,25.000=132.003
,26.000=131.996
,27.000=132.003
,28.000=131.996
,29.000=132.003
,30.000=131.996
,31.000=132.003
,32.000=131.996
,33.000=132.003
,35.000=131.996
,36.000=132.003
,37.000=131.996
,38.000=132.003
,39.000=131.996
,40.000=132.003
,41.000=131.996
,42.000=132.003
,43.000=131.996
,44.000=132.003
,46.000=131.996
,47.000=132.003
,48.000=131.996
,49.000=132.003
,50.000=131.996
,51.000=132.003
,52.000=131.996
,53.000=132.003
,54.000=131.996
,55.000=132.003
,56.000=131.996
,57.000=132.003
,59.000=131.996
,60.000=132.003
,61.000=131.996
,62.000=132.003
,63.000=131.996
,64.000=132.003
,65.000=131.996
,66.000=132.003
,67.000=131.996
,68.000=132.003
,70.000=131.996
,71.000=132.003
,72.000=131.996
,73.000=132.003
,74.000=131.996
,75.000=132.003
,76.000=131.996
,77.000=132.003
,78.000=131.996
,79.000=132.003
,81.000=131.996
,82.000=132.003
,83.000=131.996
,84.000=132.003
,85.000=131.996
,86.000=132.003
,87.000=131.996
,88.000=132.003
,89.000=131.996
,90.000=132.003
,92.000=131.996
,93.000=132.003
,94.000=131.996
,95.000=132.003
,96.000=131.996
,97.000=132.003
,98.000=131.996
,99.000=132.003
,100.000=131.996
,101.000=132.003
,103.000=131.996
,104.000=132.003
,105.000=131.996
,106.000=132.003
,107.000=131.996
,108.000=132.003
,109.000=131.996
,110.000=132.003
,111.000=131.996
,112.000=132.003
,113.000=131.996
,114.000=132.003
,116.000=131.996
,117.000=132.003
,118.000=131.996
,119.000=132.003
,120.000=131.996
,121.000=132.003
,122.000=131.996
,123.000=132.003
,124.000=131.996
,125.000=132.003
,127.000=131.996
,128.000=132.003
,129.000=131.996
,130.000=132.003
,131.000=131.996
,132.000=132.003
,133.000=131.996
,134.000=132.003
,135.000=131.996
,136.000=132.003
,138.000=131.996
,139.000=132.003
,140.000=131.996
,141.000=132.003
,142.000=131.996
,143.000=132.003
,144.000=131.996
,145.000=132.003
,146.000=131.996
,147.000=132.003
,149.000=131.996
,150.000=132.003
,151.000=131.996
,152.000=132.003
,153.000=131.996
,154.000=132.003
,155.000=131.996
,156.000=132.003
,157.000=131.996
,158.000=132.003
,160.000=131.996
,161.000=132.003
,162.000=131.996
,163.000=132.003
,164.000=131.996
,165.000=132.003
,166.000=131.996
,167.000=132.003
,168.000=131.996
,169.000=132.003
,171.000=131.996
,172.000=132.003
,173.000=131.996
,174.000=132.003
,175.000=131.996
,176.000=132.003
,177.000=131.996
,178.000=132.003
,179.000=131.996
,180.000=132.003
,182.000=131.996
,183.000=132.003
,184.000=131.996
,185.000=132.003
,186.000=131.996
,187.000=132.003
,188.000=131.996
,189.000=132.003
,190.000=131.996
,191.000=132.003
,193.000=131.996
,194.000=132.003
,195.000=131.996
,196.000=132.003
,197.000=131.996
,198.000=132.003
,199.000=131.996
,200.000=132.003
,201.000=131.996
,202.000=132.003
,204.000=131.996
,205.000=132.003
,206.000=131.996
,207.000=132.003
,208.000=131.996
,209.000=132.003
,210.000=131.996
;
#STOPS:;
#BGCHANGES:;
#KEYSOUNDS:;
#ATTACKS:;

//---------------dance-single - ----------------
#NOTES:
     dance-single:
     :
     Beginner:
     2:
     0.190,0.215,0.104,0.000,0.000,118.000,10.000,0.000,0.000,0.000,0.000,0.190,0.215,0.104,0.000,0.000,118.000,10.000,0.000,0.000,0.000,0.000:
0000
0000
0000
0000
,
0000
0000
0000
0000
,
0000
0000
0000
0000
,
0000
0000
0000
0000
,
1000
0000
0010
0000
,
0010
0000
0010
0000
,
1000
0000
0001
0000
,
0100
0100
0100
0100
,
0000
0001
0000
0100
,
0000
0001
0000
1000
,
0000
0010
0000
0100
,
0000
0010
0000
1000
,
0000
1000
0000
0001
,
0000
1000
0000
0000
,
0001
0001
0000
0000
,
1000
1000
1000
1000
,
0000
0010
0000
0001
,
0000
1000
0000
0001
,
0000
0100
0000
0100
,
0000
0001
0000
1000
,
0000
0010
0000
0001
,
0000
1000
0000
1000
,
0000
0001
0000
0100
,
0000
0001
0000
1000
,
0000
0001
0001
0000
,
1000
1000
0000
0000
,
0010
0010
0000
0000
,
0100
0100
0000
0000
,
1000
0000
0001
0000
,
0100
0000
0010
0000
,
0010
0010
0010
0010
,
0010
0010
0010
0000
,
1001
0000
0110
0000
,
0001
0001
0001
0001
,
0000
1000
0000
0001
,
0000
1000
0000
0000
,
0110
0000
1001
0000
,
0110
0000
0110
0000
,
0001
0001
0001
0001
,
0000
0000
0100
0100
,
0001
0001
0001
0001
,
0001
0001
0001
0001
,
0000
1000
1000
1000
,
1000
1000
1000
1000
,
0000
0010
0010
0010
,
0010
0010
0010
0010
,
0000
0001
0001
0001
,
0001
0001
0001
0001
,
0000
1000
0000
0001
,
0000
1000
0000
0001
,
0000
1001
0000
0110
,
0000
1001
0000
0110
,
0000
0000
0000
0000
;

//---------------dance-single - ----------------
#NOTES:
     dance-single:
     :
     Easy:
     5:
     0.324,0.405,0.250,0.135,0.000,181.000,24.000,13.000,0.000,0.000,0.000,0.324,0.405,0.250,0.135,0.000,181.000,24.000,13.000,0.000,0.000,0.000:
0000
0000
0000
0000
,
0000
0000
0000
0000
,
0000
0000
0000
0000
,
0000
0000
0000
0000
,
1000
0001
0100
0100
,
0010
0010
1000
0001
,
0100
0100
0010
1000
,
0001
0001
0100
0010
,
1000
0001
0100
0010
,
0010
0001
0100
0010
,
1000
0001
0100
0010
,
0002
0000
0000
0000
0000
0000
0000
0000
0000
0000
0000
0000
0000
0000
0000
0000
0000
0003
0000
0000
0000
0000
0000
0000
,
1001
0010
0010
0010
,
1000
0100
0001
0001
,
0010
1000
0001
0100
,
0001
0010
0100
1001
,
0010
0100
0001
0001
,
0100
0100
0010
0100
,
0001
1000
0001
0100
,
0010
0010
1000
1001
,
0000
0001
1000
0010
,
0100
0001
1000
0010
,
0100
0100
0001
0010
,
1000
0001
0100
0010
,
1000
1000
0001
0001
,
0010
0000
0000
0000
0000
0000
0000
0000
0000
0000
0000
0000
0000
0000
0000
0000
0000
0000
0000
0000
0000
0000
0000
0000
0000
0000
0000
0000
0000
0000
0000
0000
0000
0000
0000
0000
0000
0000
0000
0000
0000
0000
0000
0000
0000
0000
0000
0000
0020
0000
0000
0000
0000
0000
0000
0000
0000
0000
0000
0000
0000
0030
0000
0000
0000
0000
0000
0000
0000
0000
0000
0000
0000
0000
0000
0000
0000
0000
0000
0000
0000
0000
0000
0000
0000
0000
0000
0000
0000
0000
0000
0000
0000
0000
0000
0000
0100
0000
0000
0000
0000
0000
0000
0000
0000
0000
0000
0000
0000
0000
0000
0000
0000
0000
0000
0000
0000
0000
0000
0000
0000
0000
0000
0000
0000
0000
0000
0000
0000
0000
0000
0000
0000
0000
0000
0000
0000
0000
0000
0000
0000
0000
0000
0000
0100
0000
0000
0000
0000
0000
0000
0000
0000
0000
0000
0000
0000
0000
0000
0000
0000
0000
0000
0000
0000
0000
0000
0000
0000
0000
0000
0000
0000
0000
0000
0000
0000
0000
0000
0000
0000
0000
0000
0000
0000
0000
0000
0000
0000
0000
0000
0000
,
0002
0000
0000
0000
0000
0000
0000
0003
0000
0000
0000
0000
0000
0000
0000
0000
0000
0000
0000
0000
0000
0000
0000
0000
1000
0000
0000
0000
0000
0000
0000
0000
0000
0000
0000
0000
0000
0000
0000
0000
0000
0000
0000
0000
0000
0000
0000
0000
0010
0000
0000
0000
0000
0000
0000
0000
0000
0000
0000
0000
0000
0000
0000
0000
0000
0000
0000
0000
0000
0000
0000
0000
0100
0000
0000
0000
0000
0000
0000
0000
0000
0000
0000
0000
0000
0000
0000
0000
0000
0000
0000
0000
0000
0000
0000
0000
,
0001
0000
0000
0000
0000
0000
0000
0000
0000
0000
0000
0000
0000
0000
0000
0000
0000
0000
0000
0000
0000
0000
0000
0000
1000
0000
0000
0000
0000
0000
0000
0000
0000
0000
0000
0000
0000
0000
0000
0000
0000
0000
0000
0000
0000
0000
0000
0000
0002
0000
0000
0000
0000
0000
0000
0000
0000
0000
0000
0000
0000
0000
0000
0000
0000
0000
0000
0000
0000
0000
0000
0000
0000
0000
0000
0000
0000
0003
0000
0000
0000
0000
0000
0000
0000
0000
0000
0000
0000
0000
0000
0000
0000
0000
0000
0000
,
1000
0010
0100
0001
,
0100
0000
0000
0000
0000
0000
0000
0000
0000
0000
0000
0000
0000
0000
0000
0000
0010
0000
0000
0000
0000
0000
0000
0000
0000
0000
0000
0000
0000
0000
0000
0000
2000
0000
0000
0000
0000
0000
0000
0000
0000
0000
0000
0000
0000
0000
0000
0000
0000
3000
0000
0000
0000
0000
0000
0000
0000
0000
0000
0000
0000
0000
0000
0000
,
0001
0100
0010
1000
,
0001
0000
0000
0000
0000
0000
0000
0000
0000
0000
0000
0000
0000
0000
0000
0000
0000
0000
0000
0000
0000
0000
0000
0000
0000
0000
0000
0000
0000
0000
0000
0000
0000
0000
0000
0000
0000
0000
0000
0000
0000
0000
0000
0000
0000
0000
0000
0000
1000
0000
0000
0000
0000
0000
0000
0000
0000
0000
0000
0000
0000
0000
0000
0000
0000
0000
0000
0000
0000
0000
0000
0000
0000
0000
0000
0000
0000
0000
0000
0000
0000
0000
0000
0000
0000
0000
0000
0000
0000
0000
0000
0000
0000
0000
0000
0000
0001
0000
0000
0000
0000
0000
0000
0000
0000
0000
0000
0000
0000
0000
0000
0000
0000
0000
0000
0000
0000
0000
0000
0000
0000
0000
0000
0000
0000
0000
0000
0000
0000
0000
0000
0000
0000
0000
0000
0000
0000
0000
0000
0000
0000
0000
0000
0000
0220
0000
0000
0000
0000
0000
0000
0000
0000
0000
0000
0000
0000
0000
0000
0000
0000
0000
0000
0000
0000
0300
0000
0030
0000
0000
0000
0000
0000
0000
0000
0000
0000
0000
0000
0000
0000
0000
0000
0000
0000
0000
0000
0000
0000
0000
0000
0000
,
0001
1000
0010
0010
,
1000
0001
0100
0100
,
0010
1001
0010
0110
,
0001
1001
0010
0110
,
0001
0001
1000
0010
,
0100
0001
1000
0011
,
0010
0110
0001
1000
,
0001
0110
0001
0001
,
1000
0010
0100
1001
,
0010
1001
0010
0110
,
0001
0110
0001
0010
,
0001
0001
1000
0001
,
0110
0010
0110
0100
,
0110
0010
0110
0100
,
0001
0000
0000
0000
0000
0000
0000
0000
0000
0000
0000
0000
0000
0000
0000
0000
0000
0000
0000
0000
0000
0000
0000
0000
0000
0000
0000
0000
0000
0000
0000
0000
0000
0000
0000
0000
0000
0000
0000
0000
0000
0000
0000
0000
0000
0000
0000
0000
1000
0000
0000
0000
0000
0000
0000
0000
0000
0000
0000
0000
0000
0000
0000
0000
0000
0000
0000
0000
0000
0000
0000
0000
0000
0000
0000
0000
0000
0000
0000
0000
0000
0000
0000
0000
0000
0000
0000
0000
0000
0000
0000
0000
0000
0000
0000
0000
2002
0000
0000
0000
0000
0000
0000
0000
0000
0000
0000
0000
0000
3003
0000
0000
0000
0000
0000
0000
0000
0000
0000
0000
0000
0000
0000
0000
0000
0000
0000
0000
0000
0000
0000
0000
0000
0000
0000
0000
0000
0000
0000
0000
0000
0000
0000
0000
0010
0000
0000
0000
0000
0000
0000
0000
0000
0000
0000
0000
0000
0000
0000
0000
0000
0000
0000
0000
0000
0000
0000
0000
0000
0000
0000
0000
0000
0000
0000
0000
0000
0000
0000
0000
0000
0000
0000
0000
0000
0000
0000
0000
0000
0000
0000
0000
,
0110
1001
0110
1001
,
0010
0000
0100
0001
,
0001
1000
0010
0010
,
2000
0000
0000
0000
0000
0000
0000
0000
0000
0000
0000
0000
0000
0000
0000
0000
0000
0000
0000
0000
0000
0000
0000
0000
0000
0000
0000
0000
0000
0000
0000
0000
0000
0000
0000
0000
0000
0000
0000
0000
0000
0000
0000
0000
0000
0000
0000
0000
0000
0000
0000
0000
0000
0000
0000
0000
0000
0000
0000
0000
0000
0000
0000
0000
0000
0000
0000
0000
0000
0000
0000
0000
0000
0000
0000
0000
0000
0000
0000
0000
0000
0000
0000
0000
0000
0000
0000
0000
0000
0000
0000
0000
0000
0000
0000
0000
0002
0000
0000
0000
0000
3000
0000
0000
0000
0000
0000
0000
0000
0000
0000
0000
0000
0000
0000
0000
0000
0000
0000
0000
0000
0000
0000
0000
0000
0000
0000
0000
0000
0000
0000
0000
0000
0000
0000
0000
0000
0000
0000
0000
0000
0000
0000
0000
0000
0000
0000
0000
0000
0000
0000
0000
0000
0000
0000
0000
0000
0000
0000
0000
0000
0000
0000
0000
0000
0000
0000
0000
0000
0000
0000
0000
0000
0000
0000
0000
0000
0000
0000
0000
0000
0000
0000
0000
0000
0000
0000
0000
0000
0000
0000
0000
,
0200
0000
0000
0000
0000
0000
0000
0000
0003
0000
0000
0000
0000
0000
0000
0000
0000
0000
0000
0000
0000
0000
0000
0000
0000
0000
0000
0000
0000
0000
0000
0000
0000
0000
0000
0000
0000
0000
0000
0000
0000
0000
0000
0000
0000
0000
0000
0000
0000
0000
0000
0000
0000
0000
0000
0000
0000
0000
0000
0000
0000
0000
0000
0000
0000
0000
0000
0000
0000
0000
0000
0000
0000
0000
0000
0000
0000
0000
0000
0000
0000
0000
0000
0000
0000
0000
0000
0000
0000
0000
0000
0000
0000
0000
0000
0000
0020
0000
0000
0000
0000
0000
0000
0300
0000
0000
0000
0000
0000
0000
0000
0000
0000
0000
0000
0000
0000
0000
0000
0000
0000
0000
0000
0000
0000
0000
0000
0000
0000
0000
0000
0000
0000
0000
0000
0000
0000
0000
0000
0000
0000
0000
0000
0000
0000
0000
0000
0000
0000
0000
0000
0000
0000
0000
0000
0000
0000
0000
0000
0000
0000
0000
0000
0000
0000
0000
0000
0000
0000
0000
0000
0000
0000
0000
0000
0000
0000
0000
0000
0000
0000
0000
0000
0000
0030
0000
0000
0000
0000
0000
0000
0000
,
0000
0000
0000
0000
;

//---------------dance-single - ----------------
#NOTES:
     dance-single:
     :
     Medium:
     7:
     0.313,0.296,0.031,0.042,0.000,204.000,3.000,4.000,0.000,0.000,0.000,0.313,0.296,0.031,0.042,0.000,204.000,3.000,4.000,0.000,0.000,0.000:
0000
0000
0000
0000
,
0000
0000
0000
0000
,
0000
0000
0000
0000
,
0000
0000
0000
0000
,
0010
0100
0001
0001
,
1000
0000
0001
0000
1000
1000
1000
0000
,
0010
0100
0001
1000
,
0010
0000
0010
0000
0100
0100
0100
0000
,
0001
1000
0010
0100
,
0001
0000
1000
0000
0010
0100
0000
0110
,
0010
1000
0001
0100
,
0020
0000
0000
0000
0000
0000
0000
0000
0000
0000
0000
0000
0000
0000
0000
0000
0000
0000
0000
0000
0000
0000
0000
0000
0000
0000
0000
0000
0000
0000
0000
0000
0000
0000
0000
0000
0000
0000
0000
0000
0000
0000
0000
0000
0000
0000
0000
0000
0000
0000
0000
0000
0000
0000
0000
0000
0000
0000
0000
0000
0000
0000
0000
0000
0000
0000
0000
0000
0000
0000
0000
0000
0000
0000
0000
0000
0000
0000
0000
0000
0000
0000
0000
0000
0000
0000
0000
0000
0000
0000
0000
0000
0000
0000
0000
0000
0000
0000
0000
0000
0000
0000
0000
0000
0000
0000
0000
0000
0000
0000
0000
0000
0000
0000
0000
0000
0000
0000
0000
0000
0000
0030
0000
0000
0000
0000
0000
0000
0000
0000
0000
0000
0000
0000
0000
0000
0000
0000
0000
0000
0000
0000
0000
0000
0000
0000
0000
0000
0000
0000
0000
0000
0000
0000
0000
0000
0000
0000
0000
0000
0000
0000
0000
0000
0000
0000
0000
0000
0000
0000
0000
0000
0000
0000
0000
0000
0000
0000
0000
0000
0000
0000
0000
0000
0000
0000
0000
0000
0000
0000
0000
0000
,
0001
0000
1000
0000
0001
1000
0001
0000
,
0010
0000
0100
0000
0001
1000
0001
0000
,
0010
0010
0010
0010
,
1000
0000
0100
0000
0001
0010
0001
0000
,
1000
0010
0100
0001
,
0010
0000
0001
0000
1000
1000
1000
0000
,
0010
0100
0001
1000
,
0010
0000
0010
0000
0100
0001
0100
0000
,
0000
0010
0000
1000
0000
0001
0000
0100
,
0000
0010
0000
1000
0000
0001
0000
0000
,
0000
0100
0000
0001
0000
1000
0000
0010
,
0000
0000
0000
0000
0000
0000
0000
0000
0000
0000
0000
0000
0000
0000
0000
0000
0000
0000
0000
0000
0000
0000
0000
0000
1000
0000
0000
0000
0000
0000
0000
0000
0000
0000
0000
0000
0000
0000
0000
0000
0000
0000
0000
0000
0000
0000
0000
0000
0000
0000
0000
0000
0000
0000
0000
0000
0000
0000
0000
0000
0000
0000
0000
0000
0000
0000
0000
0000
0000
0000
0000
0000
0020
0000
0000
0000
0000
0000
0000
0000
0000
0000
0000
0000
0000
0030
0000
0000
0000
0000
0000
0000
0000
0000
0000
0000
0000
0000
0000
0000
0000
0000
0000
0000
0000
0000
0000
0000
0000
0000
0000
0000
0000
0000
0000
0000
0000
0000
0000
0000
0100
0000
0000
0000
0000
0000
0000
0000
0000
0000
0000
0000
0000
0000
0000
0000
0000
0000
0000
0000
0000
0000
0000
0000
0000
0000
0000
0000
0000
0000
0000
0000
0000
0000
0000
0000
0000
0000
0000
0000
0000
0000
0000
0000
0000
0000
0000
0000
0000
0000
0000
0000
0000
0000
0000
0000
0000
0000
0000
0000
0000
0000
0000
0000
0000
0000
0000
0000
0000
0000
0000
0000
,
1000
0000
0010
0100
0010
0000
0010
0000
,
0010
0010
0000
0010
0000
0000
0000
0000
,
1000
0001
0010
0001
,
1000
0010
1000
0000
0001
0000
0000
0000
,
0010
0010
0001
0010
,
1000
0100
1000
0100
0000
0000
0000
0000
,
0010
0001
1000
0001
,
0100
0001
0100
0000
0001
0000
1001
0000
,
0010
0000
0100
0000
0010
0010
0010
0000
,
1000
0000
0001
0000
0001
0010
0001
0000
,
1000
0000
0010
0000
0001
0001
0001
0000
,
0100
0000
0010
0000
1001
0010
0010
0000
,
0001
0000
0010
0000
0010
0010
0010
0000
,
1000
0000
0002
0003
0100
0100
0100
0000
,
0010
1000
0001
0001
,
2000
0000
0000
0000
0000
0000
0000
0000
0000
0000
0000
0000
0000
0000
0000
0000
0000
3000
0000
0000
0000
0000
0000
0000
0000
0000
0000
0000
0000
0000
0000
0000
0000
0000
0000
0000
0000
0000
0000
0000
0000
0000
0000
0000
0000
0000
0000
0000
0001
0000
0000
0000
0000
0000
0000
0000
0000
0000
0000
0000
0000
0000
0000
0000
0000
0000
0000
0000
0000
0000
0000
0000
0000
0000
0000
0000
0000
0000
0000
0000
0000
0000
0000
0000
0000
0000
0000
0000
0000
0000
0000
0000
0000
0000
0000
0000
0100
0000
0000
0000
0000
0000
0000
0000
0000
0000
0000
0000
0000
0000
0000
0000
0000
0000
0000
0000
0000
0000
0000
0000
0010
0000
0000
0000
0000
0000
0000
0000
0000
0000
0000
0000
0000
0000
0000
0000
0000
0000
0000
0000
0000
0000
0000
0000
0100
0000
0000
0000
0000
0000
0000
0000
0000
0000
0000
0000
0000
0000
0000
0000
0000
0000
0000
0000
0000
0000
0000
0000
0000
0000
0000
0000
0000
0000
0000
0000
0000
0000
0000
0000
0000
0000
0000
0000
0000
0000
0000
0000
0000
0000
0000
0000
,
1000
0000
0000
0001
0000
1000
0000
0001
,
0000
0100
0000
0010
0000
1000
0000
0000
,
0000
0001
0000
0100
0000
0010
0000
1000
,
0000
0001
0000
0100
0000
0010
0000
0000
,
0000
1000
0000
0001
0000
0100
0000
0010
,
0000
0010
0000
0010
0000
0010
0000
0000
,
0000
1000
0000
0001
0000
0100
0000
0010
,
0000
1000
0000
0001
0000
0100
0000
0000
,
0010
0000
0100
0000
0010
0010
0010
0000
,
1000
0000
0001
0000
0100
0010
0001
0000
,
1000
0010
0100
0001
,
1000
0001
1000
0001
1000
0001
1000
0000
,
0000
0000
0000
0000
;

//---------------dance-single - ----------------
#NOTES:
     dance-single:
     :
     Hard:
     11:
     0.590,0.538,0.499,0.052,0.000,344.000,48.000,5.000,0.000,0.000,0.000,0.590,0.538,0.499,0.052,0.000,344.000,48.000,5.000,0.000,0.000,0.000: // measure 0
0000
0000
0000
0000
,  // measure 1
0000
0000
0000
0000
,  // measure 2
0000
0000
0000
0000
,  // measure 3
0000
0000
0000
0000
,  // measure 4
0010
0000
0010
0010
0000
0010
0010
0000
,  // measure 5
1000
0001
1000
0001
1000
0001
1000
0000
,  // measure 6
1000
0100
0100
0100
0010
0010
0010
0000
,  // measure 7
0001
0001
0001
0001
1000
1000
1000
0000
,  // measure 8
0010
0100
0001
1000
0010
0100
0001
1000
,  // measure 9
0001
1000
1001
0010
0100
0100
0100
0100
,  // measure 10
0100
0100
0001
0001
0001
0001
0001
0100
,  // measure 11
0101
0000
0010
1000
0000
0001
0100
0000
,  // measure 12
0010
1000
0001
0100
0010
0010
0010
0000
,  // measure 13
0100
0001
0101
0010
1000
0010
1000
0000
,  // measure 14
0001
0100
0001
0001
0101
0001
0010
1000
,  // measure 15
0001
0100
0001
0001
0110
1001
0110
0000
,  // measure 16
0010
0100
0001
1000
0010
0100
0100
0000
,  // measure 17
0001
1000
0001
1000
1000
1000
1000
0000
,  // measure 18
0001
0000
0000
0000
0000
0000
0000
0000
0000
0000
0000
0000
0000
0000
0000
0000
0000
0000
0000
0000
0000
0000
0000
0000
0100
0000
0000
0000
0000
0000
0000
0000
0000
0000
0000
0000
0000
0000
0000
0000
0000
0000
0000
0000
0000
0000
0000
0000
0020
0000
0000
0000
0000
0000
0000
0000
0000
0000
0000
0000
0000
0000
0030
0000
0000
0000
0000
0000
0000
0000
0000
0000
0100
0000
0000
0000
0000
0000
0000
0000
0000
0000
0000
0000
0000
0000
0000
0000
0000
0000
0000
0000
0000
0000
0000
0000
0011
0000
0000
0000
0000
0000
0000
0000
0000
0000
0000
0000
0000
0000
0000
0000
0000
0000
0000
0000
0000
0000
0000
0000
0100
0000
0000
0000
0000
0000
0000
0000
0000
0000
0000
0000
0000
0000
0000
0000
0000
0000
0000
0000
0000
0000
0000
0000
0010
0000
0000
0000
0000
0000
0000
0000
0000
0000
0000
0000
0000
0000
0000
0000
0000
0000
0000
0000
0000
0000
0000
0000
0100
0000
0000
0000
0000
0000
0000
0000
0000
0000
0000
0000
0000
0000
0000
0000
0000
0000
0000
0000
0000
0000
0000
0000
,  // measure 19
0010
1000
0001
0100
0010
0001
0001
0000
,  // measure 20
1000
0001
0100
0010
0100
0001
1001
0000
,  // measure 21
0001
1000
0001
1000
0010
1000
0011
0000
,  // measure 22
0010
0000
0000
0000
0000
0000
0000
0000
1000
0000
0000
0000
0000
0000
0000
0000
0010
0000
0000
0000
0000
0000
0000
0000
1000
0000
0000
0000
0000
0000
0000
0000
0020
0000
0000
0000
0000
0030
0000
0000
1000
0000
0000
0000
0000
0000
0000
0000
0010
0000
0000
0000
0000
0000
0000
0000
0010
0000
0000
0000
0000
0000
0000
0000
,  // measure 23
1000
1000
0010
1000
0010
1000
0001
0000
,  // measure 24
0001
0001
0010
0010
0001
0001
0010
0010
,  // measure 25
1000
1000
1000
0010
0010
0010
0010
0000
,  // measure 26
1000
0100
1000
0010
1000
0010
0100
0001
,  // measure 27
0100
0010
0001
0010
0001
0010
0011
0000
,  // measure 28
1000
0110
0010
0010
0010
1000
0001
0001
,  // measure 29
0110
1001
0010
0010
0100
0011
1000
0100
,  // measure 30
0010
0010
0010
1000
0100
0010
1010
0011
,  // measure 31
0100
0001
0100
0010
1000
0000
0010
0000
,  // measure 32
0001
1000
0010
0100
0001
0101
0101
0000
,  // measure 33
0010
1000
0001
0100
0110
0001
1010
0000
,  // measure 34
0001
0100
0010
1000
0001
0100
0010
0000
,  // measure 35
0001
0100
0001
1000
0110
1001
0110
0000
,  // measure 36
1100
0011
1100
0011
1100
0000
1100
0000
,  // measure 37
0010
0100
0001
1000
0010
0100
0010
0000
,  // measure 38
0001
0001
0001
1000
0010
0010
0010
0100
,  // measure 39
0001
0001
0001
1000
0010
0100
0001
0000
,  // measure 40
1000
0001
1000
0001
1000
0001
1000
0001
,  // measure 41
0100
0000
0000
0000
0000
0000
0000
0000
0010
0000
0000
0000
0000
0000
0000
0000
0100
0000
0000
0000
0000
0000
0000
0000
0010
0000
0000
0000
0000
0000
0000
0000
0100
0000
0000
0000
0000
0000
0000
0000
0011
0000
0000
0000
0000
0000
0000
0000
0022
0000
0000
0000
0000
0000
0000
0033
0000
0000
0000
0000
0000
0000
0000
0000
,  // measure 42
1000
0010
0100
1010
0001
0100
0010
0101
,  // measure 43
0010
0010
1000
0110
0000
0010
0101
0100
,  // measure 44
1100
1100
1100
1100
0010
0100
0110
0001
,  // measure 45
0001
0010
0000
0010
0001
0010
1000
0000
,  // measure 46
0010
0100
0001
1000
0010
0100
0110
0001
,  // measure 47
0000
0010
0100
0001
0011
0011
0011
0000
,  // measure 48
1000
0010
0100
0001
0100
0010
0001
0000
,  // measure 49
0001
1000
0011
1000
0010
0001
1000
0000
,  // measure 50
1000
0000
0000
0000
0000
0000
0000
0000
0000
0000
0000
0000
0000
0000
0000
0000
0000
0000
0000
0000
0000
0000
0000
0000
0001
0000
0000
0000
0000
0000
0000
0000
0000
0000
0000
0000
0000
0000
0000
0000
0000
0000
0000
0000
0000
0000
0000
0000
0100
0000
0000
0000
0000
0000
0000
0000
0000
0000
0000
0000
0000
0000
0000
0000
0000
0000
0000
0000
0000
0000
0000
0000
0001
0000
0000
0000
0000
0000
0000
0000
0000
0000
0000
0000
0000
0000
0000
0000
0000
0000
0000
0000
0000
0000
0000
0000
1000
0000
0000
0000
0000
0000
0000
0000
0000
0000
0000
0000
0000
0000
0000
0000
0000
0000
0000
0000
0000
0000
0000
0000
1010
0000
0000
0000
0000
0000
0000
0000
0000
0000
0000
0000
0000
0000
0000
0000
0000
0000
0000
0000
0000
0000
0000
0000
0000
0000
0000
0000
0000
0000
0000
0000
0000
0000
0000
0000
0000
0000
0000
0000
0000
0000
0000
0000
0000
0000
0000
0000
1020
0000
0000
0000
0000
0000
0000
0000
0000
0000
0000
0000
0000
0000
0030
0000
0000
0000
0000
0000
0000
0000
0000
0000
,  // measure 51
0100
0001
1000
0001
0100
0001
0100
0000
;

//---------------dance-double - ----------------
#NOTES:
     dance-double:
     :
     Easy:
     2:
     0.171,0.161,0.125,0.000,0.000,103.000,12.000,0.000,0.000,0.000,0.000,0.171,0.161,0.125,0.000,0.000,103.000,12.000,0.000,0.000,0.000,0.000:
00000000
00000000
00000000
00000000
,
00000000
00000000
00000000
00000000
,
00000000
00000000
00000000
00000000
,
00000000
00000000
00000000
00000000
,
00100000
00000000
00100000
00000000
,
00001000
00000000
00001000
00000000
,
00010000
00000000
00010000
00000000
,
00000100
00000000
00000100
00000100
,
00000010
00000000
00000001
00000000
,
00000100
00000000
00001000
00000000
,
00010000
00000000
00100000
00000000
,
10000000
00000000
01000000
00000000
,
00010000
00000000
00001000
00000000
,
00001000
00000000
00000100
00000000
,
00000001
00000000
00001000
00000000
,
00000001
00000000
00000100
00000000
,
00001000
00000000
00010000
00000000
,
00010000
00000000
01000000
00000000
,
10000000
00000000
00010000
00000000
,
10000000
00000000
00100000
00000000
,
01000000
00000000
00001000
00000000
,
00010000
00000000
00000100
00000000
,
00000010
00000000
00000001
00000000
,
00000100
00000000
00000110
00000000
,
00010000
00000000
00011000
00000000
,
01000000
00000000
01100000
00000000
,
10000000
00000000
10010000
00000000
,
00100000
00000000
01100000
00000000
,
00001000
00000000
00011000
00000000
,
00000010
00000000
00000110
00000000
,
00000001
00000000
00001001
00000000
,
00000010
00000000
00000000
00000011
,
00000010
00000000
00000001
00000000
,
00000001
00000100
00001000
00000000
,
00001000
00000000
00010000
00000000
,
01000000
00000000
10000000
00100000
,
00100000
00000000
10000000
00000000
,
10000000
01000000
00010000
00000000
,
00010000
00000000
00001000
00000000
,
00000100
00000000
00000001
00000010
,
00000000
00000001
00000000
00000100
,
00000000
00001000
00000000
00010000
,
00000000
00010000
00000000
01000000
,
00000000
10000000
10010000
00000000
,
00000000
10000000
00000000
01000000
,
00000000
00010000
00000000
00001000
,
00000000
00001000
00000000
00000100
,
00000000
00000001
00001000
00001001
,
00000010
00000000
00000001
00000000
,
00000100
00001000
00010000
00000000
,
01000000
00000000
10000000
00000000
,
00100000
00000000
01100000
00000000
,
00000000
00000000
00000000
00000000
;

//---------------dance-double - ----------------
#NOTES:
     dance-double:
     :
     Medium:
     5:
     0.273,0.323,0.187,0.000,0.000,166.000,18.000,0.000,0.000,0.000,0.000,0.273,0.323,0.187,0.000,0.000,166.000,18.000,0.000,0.000,0.000,0.000:
00000000
00000000
00000000
00000000
,
00000000
00000000
00000000
00000000
,
00000000
00000000
00000000
00000000
,
00000000
00000000
00000000
00000000
,
00100000
10000000
10000000
00000000
,
01000000
00010000
00010000
00000000
,
00001000
00000000
00000010
00000010
,
00001000
00000000
00010000
00010000
,
00100000
00010000
00001000
00000100
,
00001000
00010000
01000000
00010000
,
00001000
00000010
00001000
00010000
,
00011000
00000000
00000000
00000000
,
00100000
10000000
01000000
00000000
,
01000000
00010000
00001000
00000000
,
00001000
00000000
00000010
00001010
,
00000001
00000000
00000100
00000101
,
00000010
00000001
00000100
00000000
,
00000100
00001000
00010000
00000000
,
00010000
00000000
00100000
00110000
,
10000000
00000000
01000000
11000000
,
00000000
10000000
00000000
11000000
00000000
01000000
00000000
01010000
,
00000000
00010000
00000000
00011000
00000000
00001000
00000000
00001010
,
00000000
00000010
00000000
00000011
00000000
00000001
00000000
00000101
,
00000000
00000100
00000000
00001100
00000000
00001000
00000000
00011000
,
00010000
00000000
00000000
00100000
10000000
00000000
00000000
10000000
,
01000000
00010000
00001000
00000000
,
00001000
00000000
00000000
00000010
00000001
00000000
00000000
00000001
,
00000100
00001000
00010000
00000000
,
00010000
00000000
00000000
01000000
10000000
00000000
00000000
10000000
,
00100000
00010000
00001000
00000000
,
00001000
00000000
00000000
00000100
00000001
00000000
00000000
00000001
,
00000010
00001000
00010000
00011000
,
00010000
00100000
01100000
00000000
,
10000000
01000000
01100000
00000000
,
00010000
00001000
00000010
00001000
,
00010000
01000000
00010000
00001000
,
00001000
00000010
00000110
00000000
,
00000001
00000100
00000110
00000000
,
00001000
00010000
00100000
00010000
,
00001000
00000100
00001000
00010000
,
00000000
00100000
00000000
10000000
00000000
00010000
00000000
01000000
,
00000000
00001000
00000000
00010000
00000000
00000100
00000000
00001000
,
00000000
00000001
00000000
00000010
00000000
00001000
00000000
00010000
,
00000000
01000000
00000000
10000000
00000000
00100000
00000000
00010000
,
00000000
00001000
00000000
00000010
00000001
00000000
00000100
00000000
,
00000000
00001000
00000000
00010000
00100000
00000000
10000000
00000000
,
00000000
01000000
00000000
00010000
00001000
00000000
00000100
00000000
,
00000000
00001000
00000000
00010000
00100000
00000000
10000000
00000000
,
10000000
01000000
00010000
00000000
,
00001000
00000100
00000001
00000000
,
00000010
00000000
00000100
00010000
,
00001000
00000000
01000000
00100000
,
00000000
00000000
00000000
00000000
;

//---------------dance-double - ----------------
#NOTES:
     dance-double:
     :
     Hard:
     6:
     0.400,0.431,0.156,0.000,0.000,254.000,15.000,0.000,0.000,0.000,0.000,0.400,0.431,0.156,0.000,0.000,254.000,15.000,0.000,0.000,0.000,0.000:
00000000
00000000
00000000
00000000
,
00000000
00000000
00000000
00000000
,
00000000
00000000
00000000
00000000
,
00000000
00000000
00000000
00000000
,
00100000
10000000
01000000
00010000
,
01000000
00010000
00001000
00000100
,
00001000
00000100
00000001
00000100
,
00001000
00010000
00100000
10000000
,
10010000
11000000
01100000
00101000
,
00011000
00010100
00000110
00000011
,
00000101
00001010
00010100
00011000
,
00101000
00000000
00000000
00000000
,
00100000
10000000
01000000
00000000
01000000
00010000
00001000
00000000
,
00001000
00000010
00000001
00000000
00000001
00000100
00001000
00000000
,
00000100
00000001
00000010
00000000
00000010
00000001
00000100
00000000
,
00000100
00001000
00010000
00000000
00010000
00100000
10000000
00000000
,
00100000
10000000
01000000
00000000
00010000
00001000
00000010
00000000
,
00000010
00000001
00000100
00000000
00001000
00010000
00100000
00000000
,
00100000
00010000
00001000
00000000
00000100
00000001
00000010
00000000
,
00000010
00000001
00000100
00000000
00001000
00010000
00100000
00000000
,
00100000
10000000
00000000
10000000
00000000
10000000
01000000
00010000
,
00010000
00001000
00000000
00001000
00000000
00001000
00000010
00000001
,
00000001
00000100
00000000
00000100
00000000
00000100
00001000
00010000
,
00010000
00100000
00000000
00100000
00000000
00100000
10000000
01000000
,
00010000
00000000
00001000
00000010
00001000
00000000
00000010
00000001
,
00000100
00000000
00000100
00001000
00000000
00010000
00000000
00010000
,
00100000
00000000
10000000
01000000
10000000
00000000
01000000
00010000
,
00001000
00000000
00001000
00000010
00000000
00000001
00000000
00000001
,
00000100
00000000
00001000
00010000
01000000
00000000
00010000
00001000
,
00000010
00000000
00000001
00000010
00000000
00001000
00000000
00010000
,
00001000
00000000
00010000
00100000
10000000
00000000
10000000
01000000
,
00010000
00001000
00000010
00000011
,
00000001
00000100
00000001
00000000
00000010
00001000
00000010
00000000
,
00000100
00010000
00000100
00000000
00001000
00100000
00001000
00000000
,
00010000
00000000
00100000
10000000
00100000
00000000
01000000
00000000
,
10000000
00000000
01000000
00010000
01000000
00000000
10000000
00000000
,
10000000
01000000
10000000
00000000
00100000
00010000
00100000
00000000
,
01000000
00001000
01000000
00000000
00010000
00000010
00010000
00000000
,
00001000
00000000
00000010
00000001
00000010
00000000
00000100
00000000
,
00000001
00000000
00000100
00001000
00000100
00000000
00000001
00000000
,
00000000
00000001
00000100
00000001
00000000
00000100
00001000
00000100
,
00000000
00010000
00000000
00010000
00000000
00100000
10000000
00100000
,
00000000
10000000
01000000
10000000
00000000
01000000
00010000
01000000
,
00000000
00001000
00000000
00001000
00000000
00000010
00000001
00000010
,
00000000
00000001
00000100
00000100
00000000
00001000
00010000
00010000
,
00000000
00100000
00000000
00100000
00000000
10000000
01000000
01000000
,
00000000
00010000
00001000
00001000
00000000
00000100
00000001
00000001
,
00000000
00000010
00000000
00000010
00000000
00001000
00010000
00010000
,
00001000
00000100
00001000
00000000
00010000
01000000
00010000
00000000
,
00001000
00000010
00001000
00000000
00010000
00100000
00010000
00000000
,
00100000
00000000
10000000
01000000
10000000
00000000
01000000
00000000
,
00010000
00000000
00001000
00000100
00001000
00000000
00011000
00000000
,
00000000
00000000
00000000
00000000
;
