#TITLE:Combination;
#SUBTITLE:;
#ARTIST:EZ2Dancer;
#TITLETRANSLIT:;
#SUBTITLETRANSLIT:;
#ARTISTTRANSLIT:;
#GENRE:;
#CREDIT:Unknown StepMaker;
#BANNER:Combination.png;
#BACKGROUND:Combination.png;
#LYRICSPATH:;
#CDTITLE:;
#MUSIC:Combination.mp3;
#OFFSET:-3.761;
#SAMPLESTART:63.140;
#SAMPLELENGTH:10.110;
#SELECTABLE:YES;
#BPMS:0.000=115.003
,1.000=114.998
,3.000=115.003
,4.000=114.998
,6.000=115.003
,7.000=114.998
,9.000=115.003
,10.000=114.998
,13.000=115.003
,14.000=114.998
,16.000=115.003
,17.000=114.998
,19.000=115.003
,20.000=114.998
,22.000=115.003
,23.000=114.998
,26.000=115.003
,27.000=114.998
,29.000=115.003
,30.000=114.998
,32.000=115.003
,33.000=114.998
,35.000=115.003
,36.000=114.998
,39.000=115.003
,40.000=114.998
,43.000=115.003
,44.000=114.998
,47.000=115.003
,48.000=114.998
,51.000=115.003
,52.000=114.998
,55.000=115.003
,56.000=114.998
,59.000=115.003
,60.000=114.998
,63.000=115.003
,64.000=114.998
,67.000=115.003
,68.000=114.998
,71.000=115.003
,72.000=114.998
,75.000=115.003
,76.000=114.998
,79.000=115.003
,80.000=114.998
,83.000=115.003
,84.000=114.998
,87.000=115.003
,88.000=114.998
,91.000=115.003
,92.000=114.998
,95.000=115.003
,96.000=114.998
,99.000=115.003
,100.000=114.998
,103.000=115.003
,104.000=114.998
,107.000=115.003
,108.000=114.998
,111.000=115.003
,112.000=114.998
,115.000=115.003
,116.000=114.998
,119.000=115.003
,120.000=114.998
,123.000=115.003
,124.000=114.998
,127.000=115.003
,128.000=114.998
,131.000=115.003
,132.000=114.998
,135.000=115.003
,136.000=114.998
,139.000=115.003
,140.000=114.998
,143.000=115.003
,144.000=114.998
;
#STOPS:;
#BGCHANGES:-7.305=Combination.mpg.mpg=1.000=0=0=0=StretchNoLoop====,
143.000=Combination.png=1.000=0=0=1=====,
99999=-nosongbg-=1.000=0=0=0 // don't automatically add -songbackground-
;
#KEYSOUNDS:;
#ATTACKS:;

//---------------dance-single - ----------------
#NOTES:
     dance-single:
     :
     Beginner:
     1:
     0.098,0.112,0.025,0.012,0.000,52.000,2.000,1.000,0.000,0.000,0.000,0.098,0.112,0.025,0.012,0.000,52.000,2.000,1.000,0.000,0.000,0.000:
0000
0000
0000
0000
,
0000
0000
0000
0000
,
0000
0010
0000
0010
,
0000
1000
0000
0001
,
0000
0100
0000
0100
,
0000
0010
0000
1000
,
0000
1000
0000
0000
,
0000
0010
0000
0001
,
0000
0100
0000
1000
,
0000
0010
0000
0001
,
0000
0000
0010
0000
,
0000
1000
0000
0010
,
0000
0100
0000
0001
,
0000
1000
0000
0000
,
0000
0010
0000
0010
,
0000
1000
0000
0000
,
0000
0001
0000
0000
,
0000
0100
0000
0000
,
0000
0010
0000
0010
,
0000
1000
0000
0001
,
0000
0000
0000
0000
2000
0000
0000
0000
0000
0000
0000
0000
0000
3000
0000
0000
,
0000
0000
0000
0000
,
0010
0000
0100
0000
,
0001
0000
0000
0000
,
0000
1000
0000
0000
,
0000
0010
0010
0010
,
0010
0010
0000
0000
,
0000
1000
0000
0000
,
0000
0010
0000
0000
,
0000
0100
0000
0000
,
0000
0001
0000
0000
,
0000
1000
0000
0001
,
0000
0100
0000
0010
,
0000
0100
0000
0000
,
0000
0010
0000
0000
,
0000
1001
0000
1001
,
0000
0000
0000
0000
;

//---------------dance-single - ----------------
#NOTES:
     dance-single:
     :
     Easy:
     2:
     0.152,0.179,0.012,0.037,0.000,81.000,1.000,3.000,0.000,0.000,0.000,0.152,0.179,0.012,0.037,0.000,81.000,1.000,3.000,0.000,0.000,0.000:
0000
0000
0000
0000
,
0000
0001
0000
0000
,
0000
1000
1000
1000
,
1000
0001
0000
0100
,
0000
0010
0000
1000
,
0000
0001
0000
1000
,
0000
0010
0000
0000
,
0000
0010
0000
0100
,
0000
0001
0000
1000
,
0000
0010
0000
0100
,
0000
0001
0000
0000
,
0000
1000
0000
0001
,
1000
0010
0000
0100
,
0000
0001
1000
0001
,
0000
0010
0000
0100
,
0000
0001
0000
1000
,
0000
0010
0100
0001
,
0001
1000
0000
1000
,
0000
0010
0010
0100
,
0100
1001
0000
0010
,
0000
0200
0000
0000
,
0000
0000
0000
0000
0000
0300
0000
0000
0000
0000
0000
0000
0000
0000
0000
0000
0000
0000
0000
0000
0000
0000
0000
0000
0000
0000
0000
0000
0000
0000
0000
0000
0001
0000
0000
0000
0000
0000
0000
0000
0000
0000
0000
0000
0000
0000
0000
0000
0000
0000
0000
0000
0000
0000
0000
0000
0000
0000
0000
0000
0000
0000
0000
0000
,
1000
0000
0000
0001
,
0000
0100
0000
0000
,
0000
0010
0000
0100
,
0000
0000
0000
0000
0000
0000
0000
0000
0000
0000
0000
0000
0000
0000
0000
0000
0000
0000
0000
0000
0000
0000
0000
0000
0001
0000
0000
0000
0000
0000
0000
0000
0000
0000
0000
0000
0000
0000
0000
0000
0000
0000
0000
0000
0000
0000
0000
0000
2000
0000
0000
0000
0000
0000
0000
0000
0000
0000
0000
3000
0000
0000
0000
0000
0000
0000
0000
0000
0000
0000
0000
0000
0001
0000
0000
0000
0000
0000
0000
0000
0000
0000
0000
0000
0000
0000
0000
0000
0000
0000
0000
0000
0000
0000
0000
0000
,
0100
0010
0100
0001
,
1000
0010
0100
0001
,
0000
1000
0100
0001
,
0000
0010
0100
1000
,
0000
0020
0000
0000
,
0000
0030
0000
0000
0001
0000
0000
0000
1000
0000
0000
0000
0010
0000
0000
0000
,
0000
0100
0001
0100
,
0000
1000
0000
0010
,
0000
0100
0000
0001
,
0000
1000
0001
0100
;

//---------------dance-single - ----------------
#NOTES:
     dance-single:
     :
     Medium:
     5:
     0.259,0.246,0.000,0.037,0.000,142.000,0.000,3.000,0.000,0.000,0.000,0.259,0.246,0.000,0.037,0.000,142.000,0.000,3.000,0.000,0.000,0.000:
0000
0000
0000
0000
,
0000
0010
0000
0000
,
0000
1000
0100
0010
,
0001
0000
1000
0000
0001
1000
0001
0000
,
0010
0000
0100
0000
0010
0100
0010
0000
,
0001
0000
1000
0000
0001
1000
0001
0000
,
0100
0000
0000
0000
0000
0000
0000
0000
0000
0000
0000
0000
0000
0000
0000
0000
0000
0000
0000
0000
0000
0000
0000
0000
0020
0000
0000
0000
0000
0000
0000
0000
0000
0000
0000
0000
0000
0000
0000
0000
0000
0000
0000
0000
0000
0000
0000
0000
0000
0000
0000
0000
0000
0000
0000
0000
0000
0000
0000
0000
0000
0000
0000
0000
0000
0030
0000
0000
0000
0000
0000
0000
0000
0000
0000
0000
0000
0000
0000
0000
0000
0000
0000
0000
0000
0000
0000
0000
0000
0000
0000
0000
0000
0000
0000
0000
,
0000
0000
1000
0000
0001
1000
0001
0000
,
0010
0000
0100
0000
0100
0001
1000
0000
,
0010
0000
0100
0000
1000
0100
0001
0000
,
0010
0000
0000
0000
0000
0000
0000
0000
0000
0000
0000
0000
0000
0000
0000
0000
0200
0000
0000
0000
0000
0000
0000
0000
0000
0000
0000
0000
0000
0000
0000
0000
0000
0000
0000
0000
0000
0000
0000
0000
0000
0300
0000
0000
0000
0000
0000
0000
0000
0000
0000
0000
0000
0000
0000
0000
0000
0000
0000
0000
0000
0000
0000
0000
,
0000
0000
1000
0000
0001
0000
0100
0100
,
0100
0000
0010
0000
1000
0000
0001
0001
,
0001
0000
0100
0000
0010
0000
1000
1000
,
1000
0010
0000
0100
,
0000
0001
0100
0010
,
0010
0000
0001
0000
1000
0000
0100
0100
,
0100
1000
0001
0100
,
0010
0000
1000
0001
1000
0001
1000
0000
,
0010
0000
0100
0000
0001
0000
1000
0010
,
0100
0001
1000
0000
,
0000
0000
0010
0000
0100
0000
0001
0100
,
0001
1000
0100
0010
,
0100
0000
0001
0000
1000
0000
0100
1000
,
0100
0010
0001
1000
,
0100
0010
0010
0010
,
0010
1000
0001
0100
,
0010
0000
0001
0100
0001
0000
0010
0000
,
0010
0000
1000
0100
0001
0000
0010
0000
,
0010
0000
1000
0100
0010
0000
1000
0000
,
0100
0000
0000
0020
0000
0000
0000
0000
0000
0000
0030
0000
,
0000
0001
1000
0010
,
0010
0000
0100
0000
0001
0001
0001
0000
,
1000
0010
0100
1000
,
0100
0010
0000
0001
,
1000
0000
0001
0000
1000
0001
1000
0000
,
0000
0000
0000
0000
;

//---------------dance-single - ----------------
#NOTES:
     dance-single:
     :
     Hard:
     6:
     0.325,0.335,0.037,0.112,0.000,170.000,3.000,9.000,0.000,0.000,0.000,0.325,0.335,0.037,0.112,0.000,170.000,3.000,9.000,0.000,0.000,0.000: // measure 0
0000
0000
0000
0000
,  // measure 1
0000
0010
0000
0000
,  // measure 2
0000
1000
0001
1000
,  // measure 3
0001
0000
0100
0010
0100
0010
0100
0000
,  // measure 4
0001
0000
1000
0001
1000
0001
1000
0000
,  // measure 5
0001
0000
0010
0001
0010
0001
0010
0000
,  // measure 6
0100
0000
0000
0000
0000
0000
0000
0000
0000
0000
0000
0000
0000
0000
0000
0000
0000
0000
0000
0000
0000
0000
0000
0000
0000
0000
0000
0000
0000
0000
0000
0000
0000
0000
0000
0000
0000
0000
0000
0000
0000
0000
0000
0000
0000
0000
0000
0000
2002
0000
0000
0000
0000
0000
0000
0000
0000
0000
0000
0000
0000
0000
0000
0000
0000
0000
0000
0000
0000
0000
0000
0000
0000
0000
0000
0000
0000
0000
0000
0000
0000
0000
0000
0000
0000
0000
0000
0000
0000
0000
0000
0000
0000
0000
0000
0000
0000
0000
0000
0000
0000
0000
0000
0000
0000
0000
0000
0000
0000
0000
0000
0000
0000
0000
0000
0000
0000
0000
0000
0000
0000
0000
0000
0000
0000
0000
0000
0000
0000
0000
0000
0000
0000
0000
0000
0000
0003
0000
3000
0000
0000
0000
0000
0000
0000
0000
0000
0000
0000
0000
0000
0000
0000
0000
0000
0000
0000
0000
0000
0000
0000
0000
0000
0000
0000
0000
0000
0000
0000
0000
0000
0000
0000
0000
0000
0000
0000
0000
0000
0000
0000
0000
0000
0000
0000
0000
0000
0000
0000
0000
0000
0000
,  // measure 7
0000
0000
0010
0100
0010
0100
0001
0000
,  // measure 8
1000
0000
1000
0100
0001
1000
0100
0000
,  // measure 9
0010
0000
0100
0010
1000
0001
0100
0000
,  // measure 10
0100
0000
0000
0000
0000
0000
0000
0000
0000
0000
0000
0000
0000
0000
0000
0000
0000
0000
0000
0000
0000
0000
0000
0000
0000
0000
0000
0000
0000
0000
0000
0000
0000
0000
0000
0000
0000
0000
0000
0000
0000
0000
0000
0000
0000
0000
0000
0000
0020
0000
0000
0000
0000
0000
0000
0000
0000
0000
0000
0000
0000
0000
0000
0000
0000
0000
0000
0000
0000
0000
0000
0000
0000
0000
0000
0000
0000
0000
0000
0000
0000
0000
0000
0000
0000
0000
0000
0000
0000
0000
0000
0000
0000
0000
0000
0000
0000
0000
0030
0000
0000
0000
0000
0000
0000
0000
0000
0000
0000
0000
0000
0000
0000
0000
0000
0000
0000
0000
0000
0000
0000
0000
0000
0000
0000
0000
0000
0000
0000
0000
0000
0000
0000
0000
0000
0000
0000
0000
0000
0000
0000
0000
0000
0000
0001
0000
0000
0000
0000
0000
0000
0000
0000
0000
0000
0000
0000
0000
0000
0000
0000
0000
0000
0000
0000
0000
0000
0000
0000
0000
0000
0000
0000
0000
0000
0000
0000
0000
0000
0000
0000
0000
0000
0000
0000
0000
0000
0000
0000
0000
0000
0000
,  // measure 11
0001
0000
1000
0001
1000
0000
0010
0100
,  // measure 12
0010
0000
0001
0100
0010
0010
0010
0001
,  // measure 13
0001
0000
0100
0000
0001
0000
1000
0001
,  // measure 14
1000
0010
0000
0010
,  // measure 15
0000
0000
0001
0000
1000
0000
0001
0100
,  // measure 16
0001
0000
0010
0010
1000
0001
0100
0100
,  // measure 17
0001
1000
0010
0100
,  // measure 18
0001
0000
0000
0000
0000
0000
0000
0000
0000
0000
0000
0000
0000
0000
0000
0000
0000
0000
0000
0000
0000
0000
0000
0000
0000
0000
0000
0000
0000
0000
0000
0000
0000
0000
0000
0000
0000
0000
0000
0000
0000
0000
0000
0000
0000
0000
0000
0000
1000
0000
0000
0000
0000
0000
0000
0000
0000
0000
0000
0000
0000
0000
0000
0000
0000
0000
0000
0000
0000
0000
0000
0000
1000
0000
0000
0000
0000
0000
0000
0000
0000
0000
0000
0000
0000
0000
0000
0000
0000
0000
0000
0000
0000
0000
0000
0000
0001
0000
0000
0000
0000
0000
0000
0000
0000
0000
0000
0000
0000
0000
0000
0000
0000
0000
0000
0000
0000
0000
0000
0000
0002
0000
0000
0000
0000
0000
0000
0000
0000
0000
0000
0000
0000
0000
0000
0000
0000
0003
0000
0000
0000
0000
0000
0000
0100
0000
0000
0000
0000
0000
0000
0000
0000
0000
0000
0000
0000
0000
0000
0000
0000
0000
0000
0000
0000
0000
0000
0000
0100
0000
0000
0000
0000
0000
0000
0000
0000
0000
0000
0000
0000
0000
0000
0000
0000
0000
0000
0000
0000
0000
0000
0000
,  // measure 19
0010
0000
0000
0000
0000
0000
0000
0000
0000
0000
0000
0000
0000
0000
0000
0000
0000
0000
0000
0000
0000
0000
0000
0000
0000
0000
0000
0000
0000
0000
0000
0000
0000
0000
0000
0000
0000
0000
0000
0000
0000
0000
0000
0000
0000
0000
0000
0000
2002
0000
0000
0000
0000
0000
0000
0000
0000
0000
0000
0000
0000
0000
0000
0000
0000
0000
0000
0000
0000
0000
0000
0000
0000
0000
0000
0000
0000
0000
0000
0000
0000
0000
0000
0000
0000
0000
0000
0000
0000
0000
0000
0000
0000
0000
3000
0000
0003
0000
0000
0000
0000
0000
0000
0000
0000
0000
0000
0000
0000
0000
0000
0000
0000
0000
0000
0000
0000
0000
0000
0000
0000
0000
0000
0000
0000
0000
0000
0000
0000
0000
0000
0000
0000
0000
0000
0000
0000
0000
0000
0000
0000
0000
0000
0000
0010
0000
0000
0000
0000
0000
0000
0000
0000
0000
0000
0000
0000
0000
0000
0000
0000
0000
0000
0000
0000
0000
0000
0000
0000
0000
0000
0000
0000
0000
0000
0000
0000
0000
0000
0000
0000
0000
0000
0000
0000
0000
0000
0000
0000
0000
0000
0000
,  // measure 20
0100
0001
0100
0000
0010
0000
1000
0100
,  // measure 21
1000
0000
0010
0000
1000
0100
0001
0000
,  // measure 22
0001
0100
1000
0000
0100
0010
0100
0000
,  // measure 23
0001
0000
1000
0001
1000
0000
0010
0010
,  // measure 24
0010
0100
0001
1000
0100
0010
1000
1000
,  // measure 25
1000
0000
0001
0001
0100
0100
0010
0010
,  // measure 26
1000
0002
2000
0000
,  // measure 27
0000
0000
0000
0000
0000
0000
0000
0000
0003
3000
0000
0000
0000
0000
0000
0000
0000
0000
0000
0000
0000
0000
0000
0000
0000
0000
0000
0000
0000
0000
0000
0000
0000
0000
0000
0000
0000
0000
0000
0000
0000
0000
0000
0000
0000
0000
0000
0000
0010
0000
0000
0000
0000
0000
0000
0000
0000
0000
0000
0000
0000
0000
0000
0000
0000
0000
0000
0000
0000
0000
0000
0000
0100
0000
0000
0000
0000
0000
0000
0000
0000
0000
0000
0000
0000
0000
0000
0000
0000
0000
0000
0000
0000
0000
0000
0000
0010
0000
0000
0000
0000
0000
0000
0000
0000
0000
0000
0000
0000
0000
0000
0000
0000
0000
0000
0000
0000
0000
0000
0000
0100
0000
0000
0000
0000
0000
0000
0000
0000
0000
0000
0000
0000
0000
0000
0000
0000
0000
0000
0000
0000
0000
0000
0000
0001
0000
0000
0000
0000
0000
0000
0000
0000
0000
0000
0000
0000
0000
0000
0000
0000
0000
0000
0000
0000
0000
0000
0000
0000
0000
0000
0000
0000
0000
0000
0000
0000
0000
0000
0000
0000
0000
0000
0000
0000
0000
0000
0000
0000
0000
0000
0000
,  // measure 28
0000
0000
1000
0001
1000
0001
1000
0000
,  // measure 29
0010
0000
0100
0010
0100
0010
0100
0000
,  // measure 30
0000
0001
0000
0000
,  // measure 31
0000
0000
1000
0001
0100
0010
0100
0000
,  // measure 32
0001
0000
1000
0100
0001
1000
0100
0000
,  // measure 33
0010
0000
0010
0100
0001
1000
0100
0000
,  // measure 34
0001
0000
0000
0000
0000
0000
0000
0000
0000
0000
0000
0000
0000
0000
0000
0000
0000
0000
0000
0000
0000
0000
0000
0000
0000
0000
0000
0000
0000
0000
0000
0000
0000
0000
0000
0000
0000
0000
0000
0000
0000
0000
0000
0000
0000
0000
0000
0000
2000
0000
0000
0000
0000
0000
0000
0000
0000
0000
0000
0000
0000
0000
0000
0000
0000
0000
0000
0000
0000
0000
0000
0000
0000
0000
0000
0000
0000
0000
0000
0000
0000
0000
0000
0000
0000
0000
0000
0000
0000
0000
0000
0000
0000
0000
0000
0000
0000
0000
0000
0000
0000
0000
0000
0000
0000
0000
0000
0000
0000
0000
0000
0000
0000
0000
0000
0000
0000
0000
0000
0000
0000
0000
0000
0000
0000
0000
0000
0000
0000
0000
0000
0000
0000
0000
0000
0000
0000
0000
0000
0000
0000
0000
3000
0000
0000
0000
0000
0000
0000
0000
0000
0000
0000
0000
0000
0000
0000
0000
0000
0000
0000
0000
0000
0000
0000
0000
0000
0000
0000
0000
0000
0000
0000
0000
0000
0000
0000
0000
0000
0000
0000
0000
0000
0000
0000
0000
0000
0000
0000
0000
0000
0000
,  // measure 35
0000
0010
0100
1001
;
