#TITLE:Touch Me (All Night Long);
#SUBTITLE:;
#ARTIST:Cathy Dennis;
#TITLETRANSLIT:;
#SUBTITLETRANSLIT:;
#ARTISTTRANSLIT:;
#GENRE:;
#CREDIT:hooky;
#BANNER:Touch Me (All Night Long).png;
#BACKGROUND:Touch Me (All Night Long)-bg.png;
#LYRICSPATH:;
#CDTITLE:;
#MUSIC:Touch Me (All Night Long).ogg;
#OFFSET:0.000000;
#SAMPLESTART:58.980045;
#SAMPLELENGTH:16.239933;
#SELECTABLE:YES;
#DISPLAYBPM:118.000000;
#BPMS:0.000000=118.000000
;
#STOPS:
;
#BGCHANGES:0.000=Touch Me (All Night Long).avi=1.000=1=0=1===CrossFade==,
99999=-nosongbg-=1.000=0=0=0 // don't automatically add -songbackground-
;
#KEYSOUNDS:;
#ATTACKS:;

//---------------dance-single - hooky----------------
#NOTES:
     dance-single:
     hooky:
     Hard:
     7:
     0.372111,0.414113,0.335345,0.093585,0.167673,334.000000,291.000000,43.000000,12.000000,0.000000,0.000000,0.372111,0.414113,0.335345,0.093585,0.167673,334.000000,291.000000,43.000000,12.000000,0.000000,0.000000:
0000
0000
0000
0000
,
0000
0000
0000
0000
,
0000
0000
0000
0000
,
0000
0000
0000
0000
,
0000
0000
0000
0000
,
1000
0000
0000
0000
0010
0000
0000
0000
1000
0000
0000
0010
0000
0010
0000
0000
,
0100
0000
0000
0000
0001
0000
0000
0000
0100
0000
0000
0001
0000
0001
0000
0000
,
0010
0000
0000
0000
0001
0000
0000
0000
0010
0000
0000
0001
0000
0001
0000
0000
,
0200
0320
2030
3001
,
1001
0000
0110
0000
0010
1000
0100
1000
,
0001
0000
0000
0000
0001
0000
0000
1000
0000
0000
0010
0000
1000
0000
0000
0000
,
0010
0100
0010
1000
0001
0010
0001
1000
,
0001
0100
1000
0100
0001
0010
1000
0010
,
0001
0000
0101
0000
0010
1000
0100
0000
,
1000
0000
0000
0000
1001
0000
0000
0001
0000
0000
0001
0000
0100
0000
0000
0000
,
0010
1000
0100
1000
0001
0001
0101
0000
,
0010
0000
0011
0000
0001
1000
0010
0010
,
0110
0000
1010
0000
0010
1000
0100
1000
,
1000
0000
0001
0000
1000
0000
1000
0001
0000
0000
0010
0000
0000
0000
0000
0000
,
0001
0010
0001
1000
0010
0010
0100
0100
,
0020
1000
0001
0130
,
1000
0000
1010
0000
0100
0001
0010
0000
,
0001
0000
0000
0000
1001
0000
0000
1000
0000
0000
1000
0000
0010
0000
0000
0000
,
0100
0001
0010
0001
1000
1000
1010
0000
,
0100
0000
0000
0000
1100
0000
0000
1000
0000
0000
0001
0000
0100
0000
0100
0000
,
0001
0000
0000
0000
0101
0000
0000
0000
0001
0000
0000
0010
0000
0010
0000
0000
,
0001
0000
0000
0000
1000
0000
0000
0000
0010
0000
0000
0100
0000
0100
0000
0000
,
0010
1000
0001
1000
0001
0001
0011
0000
,
0001
0100
0001
0010
0001
1000
0010
0100
,
0010
0000
0000
0000
1010
0000
0000
0000
0100
0000
0000
1010
0000
1010
0000
0000
,
1000
0000
0000
0000
1100
0000
0000
0000
0010
0000
0000
1100
0000
1100
0000
0000
,
0001
0000
0000
0000
0101
0000
0000
0000
0010
0000
0000
0101
0000
0101
0000
0000
,
0001
0100
1000
0100
0001
0001
0010
0100
,
1000
0000
0000
0000
0001
0000
0000
0000
1000
0000
0000
0001
0000
0001
0000
0000
,
0100
0000
0000
0000
0001
0000
0000
0000
0100
0000
0000
0001
0000
0001
0000
0000
,
0010
0000
0000
0000
0100
0000
0000
0000
1000
0000
0000
0001
0000
0001
0000
0000
,
2000
3020
0230
0301
,
1010
0000
0000
0100
0000
0000
0011
0000
,
1001
0000
0000
0001
0000
0000
0110
0000
,
1010
0000
0000
1000
0000
0000
1100
0000
,
0001
0100
1000
0100
0001
0010
1000
0010
,
0001
0000
1000
0000
0010
0100
0001
0000
,
0010
0010
0001
0000
1001
0000
0110
0000
,
0010
1000
0100
0000
1000
0010
0100
0000
,
0001
0010
0100
0000
0010
0001
0100
0100
,
0010
0000
0000
0000
1010
0000
0000
0000
1000
0000
0000
0100
0000
0100
0000
0000
,
1000
0000
0000
0000
0001
0000
0000
0000
0100
0000
0000
0010
0000
0010
0000
0000
,
0100
0001
1000
0001
1000
1000
1100
0000
,
1000
0010
1000
0100
1000
0001
0100
0010
,
0100
0000
0000
0000
0101
0000
0000
0000
0010
0000
0000
0101
0000
0101
0000
0000
,
0001
0000
0000
0000
0011
0000
0000
0000
0100
0000
0000
0011
0000
0011
0000
0000
,
1000
0000
0000
0000
1010
0000
0000
0000
0100
0000
0000
1010
0000
1010
0000
0000
,
1000
0010
0001
0010
1000
0001
0010
0001
,
0001
0000
0000
0000
1000
0000
0000
0000
0001
0000
0000
1000
0000
1000
0000
0000
,
0010
0000
0000
0000
1000
0000
0000
0000
0010
0000
0000
1000
0000
1000
0000
0000
,
0100
0000
0000
0000
0010
0000
0000
0000
0001
0000
0000
1000
0000
1000
0000
0000
,
0002
0203
0320
1030
,
2002
0000
0000
0000
,
0000
0000
0000
0000
,
3003
0000
0000
0000
;

//---------------dance-single - ----------------
#NOTES:
     dance-single:
     :
     Medium:
     5:
     0.242875,0.322088,0.116981,0.031195,0.000000,218.000000,203.000000,15.000000,4.000000,0.000000,0.000000,0.242875,0.322088,0.116981,0.031195,0.000000,218.000000,203.000000,15.000000,4.000000,0.000000,0.000000:
0000
0000
0000
0000
,
0000
0000
0000
0000
,
0000
0000
0000
0000
,
0000
0000
0000
0000
,
0000
0000
0000
0000
,
1000
0001
1000
1000
,
0010
0100
0001
0001
,
0010
0001
1000
1000
,
0010
0100
0001
0010
,
0001
0001
1000
1000
,
0001
1000
0001
0001
,
0100
0010
1000
0100
,
1000
0000
0001
0000
1000
1000
0001
0000
,
0100
0100
0010
1000
,
0100
0100
1000
0001
,
0100
0010
1000
0100
,
1000
0000
0001
0000
0100
0001
0100
0000
,
0010
0010
1000
0100
,
1000
1000
0001
0001
,
0100
0010
1000
0100
,
2000
0010
0100
3001
,
0001
0100
0010
0010
,
1000
0100
1000
1000
,
0001
0100
0001
0010
,
0001
0100
0001
0000
0100
0010
1000
0000
,
0100
0100
1000
0000
,
1000
1000
0010
0000
,
0010
0010
0100
0000
,
0100
0100
0001
0000
,
0001
1000
0001
0001
,
1000
0010
1000
1000
,
0010
0100
0010
0100
,
0001
0001
0101
0000
,
0001
0010
0001
0001
,
0010
0100
0010
0010
,
0001
1000
0001
1000
,
0010
0010
1010
0000
,
0110
0000
1010
0000
,
1100
0000
0011
0001
,
0101
0000
0110
0000
,
1010
0000
1100
1000
,
1001
0001
0100
0010
,
1000
0000
0100
0100
0100
0000
1100
0000
,
0110
0000
0010
0000
0100
0001
0010
0000
,
0001
0001
1000
0000
0010
0100
0001
0000
,
0100
0100
0010
0000
,
0010
0010
1000
0000
,
1000
0001
0010
0000
,
0010
0000
0001
0000
0100
0100
0100
0100
,
0100
0010
1000
0100
,
1000
0010
0100
0001
,
0010
0010
0100
0100
,
0010
0001
2000
3001
,
0001
0100
0010
0010
,
0010
1000
0100
0100
,
0100
1000
0100
1000
,
0001
1000
1001
0000
,
0220
0000
0000
0000
,
0000
0000
0000
0000
,
0330
0000
0000
0000
;

//---------------dance-single - ----------------
#NOTES:
     dance-single:
     :
     Easy:
     3:
     0.180485,0.230063,0.179371,0.023396,0.000000,162.000000,139.000000,23.000000,3.000000,0.000000,0.000000,0.180485,0.230063,0.179371,0.023396,0.000000,162.000000,139.000000,23.000000,3.000000,0.000000,0.000000:
0000
0000
0000
0000
,
0000
0000
0000
0000
,
0000
0000
0000
0000
,
0000
0000
0000
0000
,
0000
0000
0000
0000
,
0001
1000
0001
0000
,
0001
0100
0010
0000
,
0010
1000
0100
0000
,
1000
0001
1000
0000
,
0010
0000
0100
0000
,
0010
0010
0010
0000
,
0010
1000
0100
1000
,
0001
0001
1000
1000
,
1001
0000
0110
0000
,
0010
1000
0100
0000
,
1000
1000
0001
0000
,
0001
0100
0001
0001
,
0011
0000
0100
0000
,
1010
0000
1000
0000
,
1100
0000
0001
0000
,
1001
0000
0110
0000
,
1010
0000
1000
0000
,
0100
0000
1000
0000
,
0001
0001
0101
0000
,
0100
0100
0110
0000
,
0010
1000
0100
0000
,
1000
0001
0100
0000
,
0001
0000
1000
0000
,
0001
0000
0100
0000
,
0010
0010
0010
0000
,
0100
0100
0100
0000
,
0001
0000
1000
0000
,
0001
0001
0001
0000
,
1000
0010
0100
0000
,
0100
0001
0010
0000
,
0001
1000
0001
1000
,
0010
0010
0200
0300
,
0010
0000
0010
0000
,
0100
0000
0100
0000
,
0010
0000
0010
0000
,
1000
0000
0001
0000
,
1000
0000
0110
0000
,
0010
0000
1010
0000
,
1000
0000
1001
0000
,
0001
0000
0011
0000
,
0001
0001
1000
0000
,
1000
1000
0010
0000
,
0010
0100
0001
0000
,
0010
0100
1000
1000
,
1001
0000
0110
0000
,
1001
0000
1001
0000
,
1100
0000
0011
0000
,
0001
0001
0101
0000
,
0100
0000
0010
0000
,
1000
0000
0100
0000
,
1000
1000
0001
0001
,
0100
0010
0110
0000
,
2002
0000
0000
0000
,
0000
0000
0000
0000
,
3003
0000
0000
0000
;

//---------------dance-single - ----------------
#NOTES:
     dance-single:
     :
     Beginner:
     1:
     0.110296,0.161044,0.038994,0.077987,0.000000,99.000000,94.000000,5.000000,10.000000,0.000000,0.000000,0.110296,0.161044,0.038994,0.077987,0.000000,99.000000,94.000000,5.000000,10.000000,0.000000,0.000000:
// measure 0
0000
0000
0000
0000
,  // measure 1
0000
0000
0000
0000
,  // measure 2
0000
0000
0000
0000
,  // measure 3
0000
0000
0000
0000
,  // measure 4
0000
0000
0000
0000
,  // measure 5
1000
0000
1000
0000
,  // measure 6
0001
0000
0001
0000
,  // measure 7
1000
0000
1000
0000
,  // measure 8
0001
0000
1000
0000
,  // measure 9
0010
0000
0010
0000
,  // measure 10
0100
0000
0100
0000
,  // measure 11
0001
0000
1000
0000
,  // measure 12
0001
0000
0000
0000
,  // measure 13
0100
0000
0010
0000
,  // measure 14
1000
0000
1000
0000
,  // measure 15
0100
0000
1000
0000
,  // measure 16
0001
0000
0000
0000
,  // measure 17
0100
0000
0010
0000
,  // measure 18
1000
0000
0100
0000
,  // measure 19
1000
1000
1000
0000
,  // measure 20
0001
0001
0001
0000
,  // measure 21
0100
0000
0010
0000
,  // measure 22
1000
0000
0100
0000
,  // measure 23
1000
0000
0001
0000
,  // measure 24
0100
0100
0100
0000
,  // measure 25
0020
0000
0000
0030
,  // measure 26
2000
0000
0000
3000
,  // measure 27
0002
0000
0000
0003
,  // measure 28
0200
0000
0000
0300
,  // measure 29
0010
0000
0010
0000
,  // measure 30
0010
0000
0010
0000
,  // measure 31
0100
0000
0100
0000
,  // measure 32
0001
0000
1000
0000
,  // measure 33
0100
0000
0100
0000
,  // measure 34
0100
0000
0100
0000
,  // measure 35
0010
0000
0001
0000
,  // measure 36
1000
0000
0001
0000
,  // measure 37
0200
0000
0000
0300
,  // measure 38
0020
0000
0000
0030
,  // measure 39
2000
0000
0000
3000
,  // measure 40
0002
0000
0000
0003
,  // measure 41
1000
0000
1000
0000
,  // measure 42
0001
0000
0001
0000
,  // measure 43
0100
0000
0010
0000
,  // measure 44
0100
0000
0001
0000
,  // measure 45
1001
0000
0000
0000
,  // measure 46
0110
0000
0000
0000
,  // measure 47
1010
0000
0000
0000
,  // measure 48
0011
0000
0000
0000
,  // measure 49
0001
0000
0100
0000
,  // measure 50
0001
0000
0001
0000
,  // measure 51
1000
0000
0000
0000
,  // measure 52
0001
0001
0001
0000
,  // measure 53
1000
0000
0100
0000
,  // measure 54
1000
0000
0010
0000
,  // measure 55
0100
0000
0000
0000
,  // measure 56
0100
0100
0100
0000
,  // measure 57
2002
0000
0000
0000
,  // measure 58
0000
0000
0000
0000
,  // measure 59
3003
0000
0000
0000
;
