#TITLE:BOP!;
#SUBTITLE:;
#ARTIST:JoJo Siwa;
#TITLETRANSLIT:;
#SUBTITLETRANSLIT:;
#ARTISTTRANSLIT:;
#GENRE:;
#CREDIT:;
#BANNER:BOP.png;
#BACKGROUND:BOP-bg.png;
#LYRICSPATH:;
#CDTITLE:;
#MUSIC:BOP.ogg;
#OFFSET:0.000000;
#SAMPLESTART:102.000000;
#SAMPLELENGTH:11.999988;
#SELECTABLE:YES;
#DISPLAYBPM:160.000000;
#BPMS:0.000000=160.000000
;
#STOPS:36.000000=0.750000,
130.000000=1.875000
;
#BGCHANGES:0.000=BOP.avi=1.000=0=0=0=StretchNoLoop====,
99999=-nosongbg-=1.000=0=0=0 // don't automatically add -songbackground-
;
#KEYSOUNDS:;
#ATTACKS:;

//---------------dance-single - ----------------
#NOTES:
     dance-single:
     :
     Hard:
     13:
     0.594665,0.615314,0.363343,0.102684,0.003949,527.000000,481.000000,46.000000,13.000000,0.000000,0.000000,0.594665,0.615314,0.363343,0.102684,0.003949,527.000000,481.000000,46.000000,13.000000,0.000000,0.000000:
0000
0000
0000
0000
,
0000
0000
0000
0000
,
1001
0000
1001
0000
0100
0010
0000
0000
,
0100
0000
0100
0000
0001
0010
0000
0000
,
0100
0000
0100
0000
0010
0001
0000
0000
,
0100
0010
0100
0010
1000
1000
0000
0000
,
0001
1000
0100
0010
,
0001
0100
1000
0100
0001
0010
0100
0000
,
0001
0010
1000
0100
0001
0100
0000
0010
,
0022
0033
0011
0000
0101
0000
0100
0000
,
0010
0100
0010
1000
0001
0100
0001
0010
,
0001
0100
0001
0000
1000
0100
0010
0100
,
1000
0010
0100
0001
1000
1000
0001
1000
,
0000
1000
0001
0000
0010
0100
1000
0001
,
0010
0100
1000
0001
0001
0000
1000
0001
,
0000
0001
1000
0000
0010
0010
0000
0010
,
0010
0000
0110
0000
0100
0010
1000
0100
,
0010
0001
0100
0001
2001
0000
0010
0000
,
0100
0000
3010
0010
0100
0001
0010
0001
,
0001
1000
0001
0100
0100
0001
0010
0001
,
0001
1000
0001
0001
0100
0001
0010
0001
,
1000
0010
0100
0000
1020
0000
0100
0000
,
0001
0000
0130
0100
0010
1000
0100
0010
,
0001
0001
0100
0000
0001
0010
0100
1000
,
0100
0010
0001
0001
2000
0000
0000
0000
,
0000
3000
1001
1001
,
0010
0100
0100
0000
0010
1000
0001
0001
,
1000
0100
1000
0000
0010
0010
0100
0000
,
0100
0001
0010
0000
0010
0100
0010
0001
,
0100
0001
1000
0000
0001
0000
1000
0000
,
0010
0010
0100
0000
0001
0100
1000
0100
,
0001
0010
0100
0000
1000
0100
0001
0010
,
1000
0000
0010
0000
0000
0000
0100
0000
0220
0000
0000
0000
0330
0000
1000
0001
,
0100
0001
0010
0000
0001
0010
0000
0001
,
0010
0000
0001
0001
0011
0000
0100
0100
,
1010
0000
0010
0000
0100
0010
0000
0100
,
0010
0000
0100
0001
0010
0010
0100
0001
,
0010
0010
0001
0000
1000
0001
0000
1000
,
0001
0000
0001
0001
0101
0000
0110
0000
,
1001
0000
0001
0100
1000
0100
0001
0010
,
1000
0010
0001
1000
0001
1000
0001
1000
,
0001
1000
0001
0000
0100
0101
0000
0000
,
0001
0001
0011
0000
1000
1010
0000
0010
,
0100
0000
1001
0000
0001
1001
0000
0100
,
0100
0010
1100
0000
1000
1010
0000
0100
,
0001
0010
0001
0000
0100
0000
1000
0000
,
0100
0000
0001
0001
0001
0001
0000
1000
,
0001
0000
0100
0010
1000
0100
1000
0001
,
0010
0001
0100
0100
0001
0010
0100
1000
,
0001
0001
1002
0000
0100
0000
0010
0000
,
0103
0100
0010
1000
0100
1000
1000
0001
,
1000
0010
0010
1000
0100
1000
1000
0001
,
1000
1000
0010
1000
0100
1000
0001
0100
,
0010
0201
0010
1000
,
0310
0010
0100
0001
0010
0100
1000
1000
,
0010
0000
1000
0100
0010
0001
0010
0100
,
1000
1000
0002
0000
0000
0000
0000
0000
,
0003
0000
1001
0000
1001
0000
0100
0010
,
0010
0000
0100
0001
1000
1000
0001
0010
,
0001
0000
0100
0100
0010
0000
0010
1000
,
0100
0000
0100
0010
0100
1000
0010
1000
,
0001
0000
0001
0000
1000
0000
0100
0100
,
0010
0000
0001
0010
1000
0010
0001
0100
,
0010
0000
0100
0010
1000
0001
0010
0001
,
0000
0001
2000
0000
0000
0000
0000
0000
,
0000
0000
0001
0001
,
3001
0000
1010
0000
0100
1010
0000
0100
,
1010
0000
1000
1000
1100
0000
0010
0010
,
0101
0000
0011
0000
0001
0011
0000
0001
,
0011
0000
0001
0100
0010
0010
0001
0100
,
0010
0010
1001
0000
0001
1001
0000
1000
,
1001
0000
1000
1000
1010
0010
0110
0000
,
1001
0000
1000
0010
0001
0010
1000
0100
,
0001
0100
1000
0001
1000
0001
1000
0001
,
1000
0001
1010
0000
1010
0000
0010
0100
,
0010
0000
0100
0001
0010
0001
1000
1000
,
0001
0000
0011
0000
0011
0000
0100
1000
,
0010
0000
0100
0001
0010
1000
0010
0001
,
0100
0000
0001
0000
1000
0000
0100
0100
,
0010
0000
0001
0100
1000
0100
0001
0010
,
0100
0100
1000
0010
0100
0001
0010
0010
,
0001
0001
2002
0000
0000
0000
0000
0000
,
3003
0000
0000
0000
;

//---------------dance-single - ----------------
#NOTES:
     dance-single:
     :
     Medium:
     9:
     0.409608,0.485774,0.276457,0.094785,0.000000,363.000000,328.000000,35.000000,12.000000,0.000000,0.000000,0.409608,0.485774,0.276457,0.094785,0.000000,363.000000,328.000000,35.000000,12.000000,0.000000,0.000000:
0000
0000
0000
0000
,
0000
0000
0000
0000
,
0001
0001
1000
0000
,
1000
1000
0001
0000
,
0010
0010
0100
0000
,
0100
0100
0010
0000
,
0001
1000
0010
0100
,
0001
0010
1000
0100
,
0001
0001
1000
0000
,
2002
3003
1001
0000
0001
0000
0010
0000
,
0100
0000
0010
0000
0001
0000
1000
0001
,
0000
0001
0010
0100
,
1000
0000
0010
0000
0100
0000
0010
0100
,
0000
0100
0000
0000
0001
0000
1000
0000
,
0001
0000
0001
0000
1000
0000
0010
1000
,
0000
1000
0100
0000
1000
0001
0000
1000
,
0001
0000
0101
0000
0011
0000
0001
0010
,
0001
1000
0001
0000
0200
0000
0000
0000
,
0310
0000
0000
0000
1000
0100
1000
0001
,
0001
0000
1000
0000
0010
0100
0010
0010
,
0100
0000
0001
0000
0010
0001
0100
0001
,
0001
1000
0002
1000
,
1000
0000
1003
0000
0010
0100
0010
1000
,
1000
0001
0010
0010
,
0100
0000
1000
0001
0000
0000
0001
0000
,
0001
0001
0010
0010
,
0001
0000
0010
0010
,
1000
0000
0100
0100
,
0001
0000
0100
0100
,
1000
0000
0001
1000
,
0100
0000
0010
0000
0001
0010
0001
0000
,
0100
0000
0100
0000
0010
1000
0100
0000
,
1000
0000
2002
0000
,
3003
0000
1010
0000
0000
0101
0000
0000
,
1010
0000
0100
1000
0100
0000
1100
0000
,
0101
0000
0011
0000
0000
1100
0000
0000
,
0011
0000
0001
0001
0001
0000
1000
1000
,
1000
0000
1010
0000
0000
0011
0000
0000
,
1010
0000
0100
0100
0010
0000
1010
0000
,
0110
0000
0100
0001
0010
0000
0010
0001
,
1000
0001
0000
0000
0001
0000
0001
0000
,
0001
1000
0100
0010
,
0100
0000
1000
0000
0001
1000
0000
0000
,
1000
0100
0010
0001
,
0100
0000
0010
0000
0100
0010
0000
0010
,
0000
1000
0001
1000
,
1000
0000
0001
0000
0100
0001
0000
0001
,
0010
0000
0001
1000
0000
0001
1000
0000
,
1010
0000
1100
0000
1000
0100
1000
0001
,
1000
0020
0000
0130
,
0000
0000
0001
0010
0001
1000
1000
0000
,
0001
0000
0100
0010
0100
0100
0010
0000
,
1000
0000
0100
1000
0010
1000
1000
0000
,
0001
2000
0001
0001
,
3001
0000
0100
0010
0100
0001
0001
0000
,
1000
0100
0100
0010
,
0001
1000
0000
0000
1000
0000
1000
0000
,
1000
0100
0100
1000
,
0000
0100
0100
0001
,
0000
0010
0010
1000
,
0000
0010
0010
0001
,
0000
0001
1000
0010
,
0100
0000
1000
0100
1000
0000
0010
0000
,
0010
0000
0100
0001
0010
0000
0001
0000
,
0000
2002
0000
0000
,
0000
0000
0000
0000
,
3003
0000
0101
0000
0000
1010
0000
0000
,
0101
0000
0010
0001
0010
0000
0011
0000
,
1010
0000
1100
0000
0000
0011
0000
0000
,
1100
0000
1000
1000
1000
0000
0001
0001
,
0001
0000
0101
0000
0000
1100
0000
0000
,
0101
0000
0010
0010
0100
0000
0101
0000
,
0110
0000
0010
1000
0100
0000
0100
1000
,
0001
1000
0000
0000
1000
0000
1000
0000
,
1000
0000
0001
0000
0001
0000
1000
0001
,
0000
0000
0001
0100
0010
0000
0100
0010
,
0000
0010
0010
1000
,
0000
0000
0001
1000
0001
1000
0001
1000
,
0000
0000
0001
0000
1000
0000
0100
0010
,
0001
0000
1000
0100
1000
0000
0100
0000
,
0100
0000
0010
0001
0100
0000
0001
0000
,
0000
2002
0000
0000
,
3003
0000
0000
0000
;

//---------------dance-single - ----------------
#NOTES:
     dance-single:
     :
     Easy:
     5:
     0.265173,0.291465,0.078988,0.126380,0.000000,235.000000,225.000000,10.000000,16.000000,0.000000,0.000000,0.265173,0.291465,0.078988,0.126380,0.000000,235.000000,225.000000,10.000000,16.000000,0.000000,0.000000:
0000
0000
0000
0000
,
0000
0000
0000
0000
,
0010
0010
0100
0000
,
0010
0010
0100
0000
,
0001
0010
0001
0000
,
1000
1000
0001
0000
,
0001
1000
0001
0000
,
0100
0010
1000
0000
,
0100
0100
0100
0000
,
1001
0000
0100
0000
,
0100
0000
0001
0010
,
0100
0000
1000
0000
,
1000
0000
0010
0100
,
0001
0000
1000
1000
,
1000
0000
0001
0001
,
0001
0000
1001
0000
,
1010
0000
0100
0100
,
0100
0000
0002
0000
,
1003
0000
2000
0000
,
3100
0000
0010
0001
,
0100
0000
0100
0010
,
1000
0000
0200
0000
,
1300
0000
2000
0000
,
3010
0000
0010
0010
,
0010
0010
0200
0000
,
0000
0300
1000
1000
,
0010
0000
0001
0001
,
0100
0000
0010
0010
,
0001
0000
1000
1000
,
0100
0000
0001
1000
,
0010
0010
0100
0001
,
0010
0010
0001
0001
,
1000
0000
2002
0000
,
3003
0000
0100
0000
0000
0100
0000
0000
,
0100
0000
0001
0001
,
0000
0000
1000
0000
0000
0001
0000
0000
,
1000
1000
0010
1000
,
0010
0000
0100
0000
0000
0100
0000
0000
,
0100
0100
0001
0010
,
0000
0001
0001
1000
,
1000
0001
0000
0010
,
0000
0100
0100
0100
,
0000
0010
0010
0010
,
0000
1010
0000
0001
,
0000
1000
1000
1000
,
0000
0010
0100
0001
,
0000
0010
0010
0010
,
0000
1100
0000
0101
,
0000
1000
1000
1000
,
0000
0002
0000
0013
,
0000
0020
0000
0130
,
0000
0100
0010
0001
,
0000
0100
0010
1000
,
0000
0020
0000
0130
,
0000
0200
0000
0301
,
0000
0001
1000
0001
,
1000
0002
0000
1003
,
0000
0010
0010
0100
,
0000
0010
0010
0100
,
0000
0001
0010
0100
,
0000
1000
1000
0001
,
0000
0001
1000
0010
,
0100
0001
0100
0010
,
1000
0100
1000
0001
,
0000
2002
0000
0000
,
0000
0000
0000
0000
,
3003
0000
0100
0000
0000
0010
0000
0000
,
0100
0000
0001
0001
,
0000
0000
1000
0000
0000
0100
0000
0000
,
1000
0001
0001
1000
,
1000
0000
0010
0000
0000
0100
0000
0000
,
0010
0000
0010
1010
,
0000
0010
0100
0001
,
0010
0001
0001
1000
,
1000
0001
0001
0010
,
0000
0100
0100
1000
,
0000
0100
0100
0010
,
0000
0010
0010
0001
,
0000
0001
1000
0010
,
0100
0001
0001
0010
,
0100
1000
1000
0001
,
0000
2002
0000
0000
,
3003
0000
0000
0000
;

//---------------dance-single - ----------------
#NOTES:
     dance-single:
     :
     Beginner:
     2:
     0.151205,0.194310,0.039494,0.063190,0.000000,134.000000,129.000000,5.000000,8.000000,0.000000,0.000000,0.151205,0.194310,0.039494,0.063190,0.000000,134.000000,129.000000,5.000000,8.000000,0.000000,0.000000:
// measure 0
0000
0000
0000
0000
,  // measure 1
0000
0000
0000
0000
,  // measure 2
0001
0000
0001
0000
,  // measure 3
0001
0000
0000
0000
,  // measure 4
1000
0000
1000
0000
,  // measure 5
1000
0000
0000
0000
,  // measure 6
0001
0000
0000
0000
,  // measure 7
1000
0000
0000
0000
,  // measure 8
0010
0000
0000
0000
,  // measure 9
0200
0300
0010
0000
,  // measure 10
0010
0000
0010
0000
,  // measure 11
0000
0000
1000
0000
,  // measure 12
1000
0000
1000
0000
,  // measure 13
0000
0000
0001
0000
,  // measure 14
1000
0000
0001
0000
,  // measure 15
0000
0000
0010
0000
,  // measure 16
0000
0000
0100
0000
,  // measure 17
0000
0000
0010
0000
,  // measure 18
0000
0000
0001
0000
,  // measure 19
0000
0000
1000
0000
,  // measure 20
1000
0000
0001
0000
,  // measure 21
0001
0000
0100
0000
,  // measure 22
0000
0000
0010
0000
,  // measure 23
0000
0000
1000
0000
,  // measure 24
1000
0000
0001
0000
,  // measure 25
0000
0000
0001
0000
,  // measure 26
1000
0000
0001
0000
,  // measure 27
0001
0000
0010
0000
,  // measure 28
0100
0000
0010
0000
,  // measure 29
0010
0000
0001
0000
,  // measure 30
1000
0000
0010
0000
,  // measure 31
0100
0000
0001
0000
,  // measure 32
0001
0000
2002
3003
,  // measure 33
0000
0001
0000
0001
,  // measure 34
0000
0001
0000
0001
,  // measure 35
0000
1000
0000
1000
,  // measure 36
0000
0100
0000
0100
,  // measure 37
0000
0010
0000
0010
,  // measure 38
0000
0010
0000
0010
,  // measure 39
0000
0001
0000
1000
,  // measure 40
0000
0001
0001
0001
,  // measure 41
0000
1000
0000
0100
,  // measure 42
0000
0010
0000
0001
,  // measure 43
0000
1000
0000
0000
,  // measure 44
0000
0001
0000
0000
,  // measure 45
0000
0100
0000
0100
,  // measure 46
0000
0010
0000
0010
,  // measure 47
0000
1001
0000
0000
,  // measure 48
0000
0110
0000
0000
,  // measure 49
0000
0010
0000
0000
,  // measure 50
0000
1000
0000
0000
,  // measure 51
0000
0100
0000
0100
,  // measure 52
0000
1000
0000
1000
,  // measure 53
0000
0001
0000
0000
,  // measure 54
0000
0100
0000
0000
,  // measure 55
0000
0010
0000
0010
,  // measure 56
0000
0020
0000
0000
,  // measure 57
0030
0100
0000
0100
,  // measure 58
0000
0001
0000
0001
,  // measure 59
0000
1000
0000
1000
,  // measure 60
0000
0010
0000
0010
,  // measure 61
0000
0100
0000
0001
,  // measure 62
0000
0010
0000
0010
,  // measure 63
0000
0100
0000
1000
,  // measure 64
0000
2002
0000
0000
,  // measure 65
0000
0000
0000
0000
,  // measure 66
3003
0001
0000
0100
,  // measure 67
0000
0001
0000
0001
,  // measure 68
0000
0010
0000
0100
,  // measure 69
0000
1000
0000
1000
,  // measure 70
0000
0010
0000
0100
,  // measure 71
0000
0001
0000
0001
,  // measure 72
0000
1000
0000
0100
,  // measure 73
0000
1000
0000
1000
,  // measure 74
0000
0001
0000
0000
,  // measure 75
0000
1000
0000
0000
,  // measure 76
0000
0010
0000
0000
,  // measure 77
0000
0100
0000
0000
,  // measure 78
0000
0001
0000
1000
,  // measure 79
0000
0100
0000
0100
,  // measure 80
0000
1000
0000
0001
,  // measure 81
0000
2002
0000
0000
,  // measure 82
3003
0000
0000
0000
;
