#TITLE:sinungaling;
#SUBTITLE:;
#ARTIST:Zild;
#TITLETRANSLIT:;
#SUBTITLETRANSLIT:;
#ARTISTTRANSLIT:;
#GENRE:Pop;
#CREDIT:Jenro Jupitel;
#MUSIC:sinungaling.ogg;
#BANNER:sinungaling-bn.png;
#BACKGROUND:sinungaling-bg.png;
#CDTITLE:;
#SAMPLESTART:36.513;
#SAMPLELENGTH:23.294;
#SELECTABLE:YES;
#OFFSET:-0.160;
#BPMS:0.000=85.000;
#STOPS:;
#BGCHANGES:;
#FGCHANGES:;

//--------------- dance-single - Jenro (2020) ----------------
#NOTES:
     dance-single:
     Jenro (2020):
     Beginner:
     1:
     0,0,0,0,0:
0000
0000
0000
0000
,
0000
0000
0000
0000
,
2000
0000
3001
0000
,
2000
0000
3001
0000
,
2000
0000
3001
0000
,
2000
0000
3001
0000
,
2000
3020
0230
0300
,
0002
0023
0230
0300
,
0002
2003
3200
0300
,
0002
2003
3200
0300
,
0020
0000
0130
0000
,
0020
0000
0130
0000
,
0020
0000
0130
0000
,
2000
3000
0002
0003
,
2000
3000
0002
0003
,
1000
1001
0000
0000
,
0001
1001
0000
0000
,
0002
0003
2000
3000
,
0002
0003
2000
3000
,
0001
1001
0000
0000
,
1000
1001
0000
0020
,
0130
0002
0203
0320
,
0030
2000
3200
0320
,
0030
2000
3002
0023
,
0030
2000
3002
0023
,
0030
0000
0000
1000
0000
0000
0000
1000
0000
0000
0000
0000
0000
0000
0000
0000
,
0000
0000
0000
0001
0000
0000
0000
0001
0000
0000
0000
0000
0000
0000
0000
0000
,
0000
0000
0000
1000
0000
0000
0000
1000
0000
0000
0000
0000
0000
0000
0000
0001
,
0000
0000
0000
0001
0000
0000
0000
0000
0000
0000
0000
1000
0000
0000
0000
1001
,
0000
0000
0000
0001
0000
0000
0000
0001
0000
0000
0000
0000
0000
0000
0000
0000
,
0000
0000
0000
1000
0000
0000
0000
1000
0000
0000
0000
0000
0000
0000
0000
0000
,
0000
0000
0000
0001
0000
0000
0000
0001
0000
0000
0000
0000
0000
0000
0000
0001
,
0000
0000
0000
1001
0000
0000
0000
1000
0000
0000
0000
1000
0000
0000
0000
0000
;

//--------------- dance-single - Jenro (2020) ----------------
#NOTES:
     dance-single:
     Jenro (2020):
     Easy:
     2:
     0,0,0,0,0:
0000
0000
0000
0000
,
0000
0000
0000
0000
,
1000
0001
1000
0000
,
1000
0001
1000
0000
,
1000
0001
1000
0000
,
1000
0001
1000
0000
,
1000
0001
0100
1000
,
1000
0001
0100
1000
,
0001
1000
0100
0001
,
0001
1000
0100
0001
,
0010
0000
0010
0000
,
0010
0000
0010
0010
,
0010
0010
0010
0010
,
2000
3100
0002
0103
,
2000
3010
0002
0013
,
1000
0001
1000
0001
0000
0000
0000
0000
,
0001
1000
0001
1000
0000
0000
0000
0000
,
0002
0013
2000
3010
,
0002
0103
2000
3100
,
0001
1000
0001
1000
0000
0000
0000
0000
,
1000
0001
1000
0001
0000
0000
1001
0000
,
0010
1000
0001
0100
,
1000
0100
0010
0001
,
0010
1000
0001
0100
,
1000
0001
0010
1001
,
0000
0000
0000
1000
0000
0000
0000
0010
0000
0000
0000
0000
0000
0000
0000
0000
,
0000
0000
0000
0001
0000
0000
0000
0010
0000
0000
0000
0000
0000
0000
0000
0000
,
0000
0000
0000
1000
0000
0000
0000
0010
0000
0000
0000
0000
0000
0000
0000
0001
,
0000
0000
0000
0010
0000
0000
0000
0100
0000
0000
0000
1000
0000
0000
0000
1001
,
0000
0000
0000
0001
0000
0000
0000
0100
0000
0000
0000
0000
0000
0000
0000
0000
,
0000
0000
0000
1000
0000
0000
0000
0100
0000
0000
0000
0000
0000
0000
0000
0000
,
0000
0000
0000
0001
0000
0000
0000
0100
0000
0000
0000
0000
0000
0000
0000
0001
,
0000
0000
0000
1000
0000
0000
0000
0100
0000
0000
0010
0000
0010
0000
0001
0000
;

//--------------- dance-single - Jenro (2020) ----------------
#NOTES:
     dance-single:
     Jenro (2020):
     Medium:
     3:
     0,0,0,0,0:
0000
0000
0000
0000
,
0000
0000
0000
0000
,
0010
0010
0000
0000
0001
0001
0000
0000
,
1000
1000
0000
0000
0010
0010
0000
0000
,
0010
0010
0000
0000
1000
1000
0000
0000
,
0001
0001
0000
0000
0010
0010
0000
0000
,
1000
0000
0001
0000
0100
0100
0000
0000
,
0001
0000
1000
0000
0010
0010
0000
0000
,
1000
0000
0100
0000
1000
1000
0000
0000
,
0001
0000
0010
0000
0100
0100
0000
0000
,
1000
1000
0000
0000
0001
0001
0000
0000
,
0010
0010
0000
0000
0100
0000
0100
0000
,
0100
0100
0000
0000
0100
0100
2000
0000
,
3001
0010
0100
0000
0100
1000
0010
0000
,
0100
0001
0010
0000
0010
0100
1000
0000
,
0001
0001
0001
0001
0000
0000
0000
0000
,
1000
1000
1000
1000
0000
0000
0000
0000
,
1000
0100
0010
0000
0010
0001
0100
0000
,
0010
1000
0100
0000
0100
0010
0001
0000
,
1000
1000
1000
1000
0000
0000
0000
0000
,
0001
0001
0001
0002
0000
0013
0110
0000
,
1000
0100
0010
0000
1000
0100
0010
0000
,
0001
0010
0100
0000
0001
0010
0100
0000
,
1000
0100
0010
0000
1000
0100
0010
0000
,
0001
0010
0100
1000
1001
0010
0100
1000
,
0001
0000
0000
0100
0000
0000
0001
0000
1000
0000
0000
0000
0000
0000
0000
1000
,
0000
0000
0000
0010
0000
0000
1000
0000
0001
0000
0001
0000
0000
0000
0000
0001
,
0000
0000
0000
0100
0000
0000
0010
0000
1000
0000
0000
0000
0000
0000
0000
1000
,
0000
0000
0000
0010
0000
0000
1000
0000
0100
0000
0001
0000
0010
0000
0100
0000
,
0000
0000
0000
1001
0000
0000
0010
0000
0001
0000
0000
0000
0000
0000
0000
0100
,
0000
0000
0000
1001
0000
0000
0010
0000
1000
0000
0000
0000
0000
0000
0000
0100
,
0000
0000
0000
1001
0000
0000
0010
0000
0001
0000
0000
0000
0000
0000
0000
0100
,
0000
0000
0000
1001
0000
0000
1000
0000
0100
0000
0001
0000
0010
0000
0100
0000
;

//--------------- dance-single - Jenro (2020) ----------------
#NOTES:
     dance-single:
     Jenro (2020):
     Hard:
     9:
     0,0,0,0,0:
0000
0000
0000
0000
,
0000
0000
0000
0000
,
0001
0100
0000
0000
0100
0100
0000
0000
,
0010
1000
0000
0000
1000
1000
0000
0000
,
1000
0100
0000
0000
0100
0100
0000
0000
,
0010
0001
0000
0000
0001
0001
0000
0000
,
1000
0100
0010
0001
2000
3010
0110
0000
,
0001
0100
0010
1000
0002
0013
0110
0000
,
1000
1000
0100
0010
1000
1000
0001
1000
,
1000
1000
0010
1000
1000
0000
1000
1000
,
1001
0001
0100
0001
0001
0001
1000
0001
,
0001
0001
0010
0001
0001
0000
0001
0001
,
0101
0202
0303
0000
1001
2002
3003
0000
,
1000
0000
0001
0010
0000
0000
1000
0000
1000
0000
0001
0010
0000
0000
1000
0000
,
1000
0000
0001
0010
0000
0000
1001
0000
1001
0000
0001
0010
0000
0000
0000
0000
,
0001
1000
0001
0100
0010
0100
0001
0000
0000
0000
0000
0000
0000
0000
1000
0100
,
1000
0001
0010
0100
1000
0001
0100
0000
0000
0000
0000
0000
0000
0000
0000
0000
,
0001
0000
1000
0010
0000
0000
0001
0000
0001
0000
1000
0010
0000
0000
0001
0000
,
0001
0000
1000
0010
0000
0000
1001
0000
1001
0000
1000
0010
0000
0000
0000
0000
,
1000
0001
1000
0100
0010
0100
1000
0000
0000
0000
0000
0000
0000
0000
0001
0100
,
0001
1000
0010
0100
0001
1000
0100
0000
0000
0000
0010
0000
0100
0010
0100
0010
,
0100
1000
0001
0100
0001
1000
0100
0010
,
0001
0001
1000
0100
1000
0001
0100
0010
,
1000
1000
0001
0100
0001
1000
0100
0010
,
0001
0000
0001
1000
0100
0000
0010
0001
0000
0001
0000
0000
1000
0100
1000
0100
,
1000
0000
0010
0010
0000
0100
0001
0000
0001
0000
0010
0100
0000
1100
0000
1000
,
0100
0010
0001
0100
0000
0001
0010
0000
0100
0000
0010
0100
0000
1100
0000
1000
,
0001
0100
0001
0100
0000
0010
1000
0000
0100
0000
1000
0001
0000
0101
0000
0100
,
0010
0100
0010
0100
0000
0001
1000
0000
0100
0000
0010
0001
1000
0010
0100
0001
,
0001
0000
0010
0010
0000
0100
1000
0000
1000
0000
0010
0100
0000
0101
0000
0001
,
0100
0010
1000
0100
0000
1000
0010
0000
0100
0000
0010
0100
0000
0101
0000
0001
,
1000
0100
1000
0100
0000
0010
0001
0000
0100
0000
0001
1000
0000
1100
0000
0100
,
0010
0100
0010
0100
0000
1000
0001
0000
0100
0000
0010
0000
1000
0000
1010
0000
;

//--------------- dance-single - Jenro (2021) ----------------
#NOTES:
     dance-single:
     Jenro (2021):
     Challenge:
     13:
     0,0,0,0,0:
0000
0000
0000
0000
,
0000
0000
0000
0000
,
0000
0000
0000
0000
,
0000
0000
0000
0000
,
0001
0100
0010
1000
0001
0000
1000
0100
0010
0001
1000
0000
0000
0000
0000
0000
,
0001
0100
0010
1000
0001
0000
1000
0100
0010
0001
1000
0000
0100
1000
0100
1000
,
0100
0100
0100
0000
0110
1000
0001
0001
0010
0100
0110
0000
1000
0001
0001
0001
,
1000
0001
1000
0001
0100
0000
0010
0100
0010
0100
0010
1000
0001
0100
0010
0100
,
0010
0010
0010
0000
0110
0001
1000
1000
0100
0010
0110
0000
0001
1000
1000
1000
,
0001
1000
0001
1000
0010
0000
0100
0010
0100
0010
0100
0001
1000
0010
0100
0010
,
1000
0100
0010
0100
0010
0001
0100
0001
1000
0010
0100
0001
1000
0100
1000
0001
,
0100
0010
1000
0001
0100
0001
1000
0100
1000
0010
0100
0001
1000
0001
0100
0010
,
1000
0001
1000
0100
0010
1000
0001
0100
0010
1000
0001
0000
1001
0001
0101
0001
,
0011
0100
0001
0100
0001
0010
0001
0010
0110
0100
0010
0100
0100
1000
0100
1000
,
1001
0100
0001
0100
0010
1000
0010
1000
0101
0100
1000
0100
0001
0100
1000
0000
,
1000
1000
0100
0100
1000
0010
0100
0010
1000
0001
0100
0001
0100
0010
1000
0001
,
0100
0001
0010
0100
0010
1000
0001
0100
0010
0001
0100
0010
1000
0001
0100
0100
,
0110
0010
1000
0001
1000
0100
1000
0001
0101
0001
1000
0010
1000
0100
0001
0100
,
0110
0100
0010
0100
0001
1000
0100
1000
1001
0100
0001
0100
0010
0100
0010
1000
,
0101
0010
0100
0001
0100
0001
0100
0010
0100
0010
0100
1000
0001
0100
0001
1000
,
1100
1000
0010
0100
0001
1000
0010
1000
0001
1000
0010
1000
0110
0010
0110
0010
,
0001
0100
0010
1000
0001
0100
0010
1000
0001
0100
0010
1000
0001
0100
0010
1000
,
1000
0100
0010
0001
1000
0100
0010
0001
1000
0100
0010
0001
1000
0100
0010
0001
,
0001
0100
0010
1000
0001
0100
0010
1000
0001
0100
0010
1000
0001
0100
0010
1000
,
1001
1000
1100
1000
1001
1000
1010
1000
1001
1000
1100
1000
1000
0100
0010
1000
,
0110
0000
0100
0101
0000
0001
0101
0000
0110
0000
1000
1100
0000
1010
0000
0010
,
0110
0010
0100
0001
1001
0100
0110
0000
1001
0000
0110
1001
0000
1001
0000
1000
,
0100
1000
0100
1000
0100
0001
0001
0000
0001
0000
0101
0101
0000
0101
0000
0001
,
0100
0001
0100
0001
0100
0001
1000
0000
1000
0000
1000
0100
1000
0100
1000
0010
,
0100
0101
0001
1010
0010
1000
1001
0000
0110
0000
0110
1001
0000
1001
0000
1100
,
0100
1100
0100
1010
0010
0100
0110
0000
0101
0000
0001
0011
0000
1100
0000
0001
,
1000
0001
0001
0001
0010
0101
0110
0000
1001
0000
1000
0101
0000
1010
0000
0010
,
0010
0010
0010
0010
0100
0100
0100
0000
0110
0000
1100
0000
0011
0000
0110
0000
;

//--------------- dance-double - Jenro (2021) ----------------
#NOTES:
     dance-double:
     Jenro (2021):
     Challenge:
     8:
     0,0,0,0,0:
00000000
00000000
00000000
00000000
,
00000000
00000000
00000000
00000000
,
00010000
00010000
00010000
00001000
00000100
00000020
00000030
00000000
,
00001000
00001000
00001000
00010000
01000000
00200000
00300000
00000000
,
00001000
00001000
00001000
00010000
00100000
02000000
03000000
00000000
,
00010000
00010000
00010000
00001000
00000010
00000200
00000300
00000000
,
00001000
00000100
00000001
00000100
00001000
00000100
00000002
00000003
,
00001000
00010000
01000000
10000000
01000000
00010000
02000000
03000000
,
00010000
00100000
10000000
00100000
00010000
00100000
20000000
30000000
,
00010000
00001000
00000010
00000001
00000010
00001000
00000020
00000030
,
00000100
00000100
00000100
00001000
00001000
00010000
00001000
00000000
,
00000001
00000100
00001000
00000010
00000001
00000100
00001000
00000010
,
00000001
00000001
00000001
00000001
00000001
00000001
00001002
00000000
,
00001003
00010000
00101000
00000000
00010000
00001000
00010010
00000000
,
00010000
00001000
01001000
00010000
00010100
00001000
00011000
00000000
,
00100000
00010000
00100000
00010000
00100000
01000000
10000000
00000000
00000000
00000000
00000000
00000000
00000000
00000000
10000000
00100000
,
10000000
00100000
10000000
00100000
01000000
00010000
01000000
00000000
00001000
00000000
00010000
00000000
00011000
00000000
00000000
00000000
,
00010000
00001000
00010010
00000000
00001000
00010000
00101000
00000000
,
00001000
00010000
00010100
00001000
01001000
00010000
00011000
00000000
,
00000010
00001000
00000010
00001000
00000010
00000100
00000001
00000000
00000000
00000000
00000000
00000000
00000000
00000000
00000001
00000010
,
00000001
00000010
00000001
00000010
00000100
00001000
00000100
00000000
00010000
00000000
00001000
00000000
00001000
00010000
00001000
00010000
,
00001000
00000010
00000001
00000010
00001000
00000010
00000002
00000003
,
00001000
00010000
00100000
10000000
00100000
00010000
00200000
00300000
,
00010000
01000000
10000000
01000000
00010000
01000000
20000000
30000000
,
00010000
00001000
00000100
00000001
00000100
00001000
00000200
00000300
,
00000010
00000000
00000000
00000100
00000000
00000000
00000110
00000000
00000110
00000000
00000000
00000000
00000000
00000000
00000000
00000001
,
00000000
00000000
00000000
00001000
00000000
00000000
00001001
00000000
00001001
00000000
00001001
00000000
00000000
00000000
00000000
00001000
,
00000000
00000000
00000000
00010000
00000000
00000000
00101000
00000000
00010010
00000000
00000000
00000000
00000000
00000000
00000000
00010000
,
00000000
00000000
00000000
00001000
00000000
00000000
00101000
00000000
00011000
00000000
00010100
00000000
00011000
00000000
00011000
00000000
,
00000000
00000000
00000000
00010000
01000000
00100000
00010000
00000000
00100000
00000000
00010000
00000000
00011000
00000000
00000000
00000000
,
00000000
00000000
00000000
00001000
00000100
00000010
00001000
00000000
00000010
00000000
00001000
00000000
00011000
00000000
00000000
00000000
,
00000000
00000000
00000000
00010000
00100000
01000000
00010000
00000000
01000000
00000000
00010000
00000000
00011000
00000000
00000000
00000000
,
00000000
00000000
00000000
00001000
00000010
00000100
00001000
00000000
00000100
00000000
00001000
00000000
00011000
00000000
00011000
00000000
;
