#TITLE:Yuoy!;
#SUBTITLE:;
#ARTIST:Q-York;
#TITLETRANSLIT:;
#SUBTITLETRANSLIT:;
#ARTISTTRANSLIT:;
#GENRE:;
#CREDIT:Jenro Jupitel (2024);
#MUSIC:Yuoy!.ogg;
#BANNER:Yuoy!-bn.png;
#BACKGROUND:Yuoy!-bg.png;
#CDTITLE:cdtitle.png;
#SAMPLESTART:62.499;
#SAMPLELENGTH:10.000;
#SELECTABLE:YES;
#OFFSET:0.000;
#BPMS:0.000=191.974
,2.000=95.987
,3.500=191.974
,4.000=95.987
,18.250=191.974
,20.000=95.987
,32.000=191.974
,36.000=95.987
,50.250=191.974
,52.000=95.987
,64.000=191.974
,68.000=95.987
,82.250=191.974
,84.000=95.987
,98.250=191.974
,99.500=95.987
,114.250=191.974
,116.000=95.987
,128.000=191.974
,132.000=95.987
,146.250=191.974
,148.000=95.987
,160.000=191.974
,164.000=95.987
;
#STOPS:0.000=0.078
,0.250=0.156
,0.750=0.078
,1.000=0.156
,1.500=0.078
,1.750=0.078
,3.500=0.156
,18.250=0.078
,18.500=0.078
,18.750=0.078
,19.000=0.156
,19.500=0.156
,32.000=0.078
,32.250=0.156
,32.750=0.078
,33.000=0.156
,33.500=0.078
,33.750=0.156
,34.250=0.078
,34.500=0.078
,34.750=0.078
,35.000=0.156
,35.500=0.156
,50.250=0.078
,50.500=0.078
,50.750=0.078
,51.000=0.156
,51.500=0.156
,64.000=0.078
,64.250=0.156
,64.750=0.078
,65.000=0.156
,65.500=0.078
,65.750=0.156
,66.250=0.078
,66.500=0.078
,66.750=0.078
,67.000=0.156
,67.500=0.156
,82.250=0.078
,82.500=0.078
,82.750=0.078
,83.000=0.156
,83.500=0.156
,98.250=0.078
,98.500=0.078
,98.750=0.078
,99.000=0.156
,114.250=0.078
,114.500=0.078
,114.750=0.078
,115.000=0.156
,115.500=0.156
,128.000=0.078
,128.250=0.156
,128.750=0.078
,129.000=0.156
,129.500=0.078
,129.750=0.156
,130.250=0.078
,130.500=0.078
,130.750=0.078
,131.000=0.156
,131.500=0.156
,146.250=0.078
,146.500=0.078
,146.750=0.078
,147.000=0.156
,147.500=0.156
,160.000=0.078
,160.250=0.156
,160.750=0.078
,161.000=0.156
,161.500=0.078
,161.750=0.156
,162.250=0.078
,162.500=0.078
,162.750=0.078
,163.000=0.156
,163.500=0.156
;
#DISPLAYBPM:96.000;
#BGCHANGES:0.000=Yuoy!.mp4=1.000=1=0=0=StretchNoLoop==CrossFade==,
99999.000=-nosongbg-=1.000=0=0=0=StretchNoLoop====
;
#FGCHANGES:;

//--------------- dance-single - Jenro Jupitel (2024) ----------------
#NOTES:
     dance-single:
     Jenro Jupitel (2024):
     Beginner:
     2:
     0,0,0,0,0:
0000
0000
0000
0000
,
0001
0000
0001
0001
,
0000
0000
0100
0100
,
0000
0000
1000
1000
,
0000
0010
0000
0010
,
0000
0000
1000
1000
,
0000
0000
1000
1000
,
0000
0000
1000
1000
,
0000
0000
0000
0101
,
0000
1000
0000
0100
,
0000
0001
0000
0100
,
0000
1000
0000
0100
,
0000
0001
0000
0001
,
0001
0000
0001
0001
,
0000
0010
0010
0010
,
0000
1000
0000
0001
,
0000
0010
0000
0100
,
0000
0100
0100
0100
,
0000
0001
0100
0100
,
0000
1000
0100
0100
,
0000
0001
0000
0010
,
0010
0000
1001
0000
,
0000
0000
1001
0000
,
0100
0100
0100
0100
,
0000
0001
0000
0000
,
1000
1000
0000
0000
,
1000
1000
0000
0000
,
0010
0010
0000
0000
,
0001
0000
0000
0000
,
0100
0100
0000
0000
,
0010
0010
0000
0000
,
1000
1001
0000
0000
,
0001
1001
0000
0000
,
1000
1000
0000
0000
,
0010
0010
0000
0000
,
0100
0100
0000
0000
,
0001
0000
0000
0000
,
0001
0001
0000
0000
,
0010
0010
0000
0000
,
0100
0100
0000
0000
,
1000
0000
0000
0000
;

//--------------- dance-single - Jenro Jupitel (2024) ----------------
#NOTES:
     dance-single:
     Jenro Jupitel (2024):
     Easy:
     6:
     0,0,0,0,0:
0000
0000
0000
0000
,
0001
0000
0001
0000
1000
0100
0001
0000
,
1000
0000
1000
0000
0001
0100
1000
0000
,
0011
0000
1100
0000
1000
0100
0001
0000
,
0011
0000
0001
0000
0010
1000
0101
0001
,
1010
0000
0001
0000
0001
0100
1000
0000
,
0001
0100
1000
0000
0001
0010
1000
0000
,
0001
0100
1000
0000
1000
0100
0001
0000
,
1000
0000
0010
0001
0000
0010
1000
0101
,
0100
0000
0010
0000
0010
1000
0100
0000
,
0001
0000
0100
0000
0010
0001
0100
0000
,
1000
0100
0001
0100
,
0001
0100
1000
0100
0001
0100
0001
0100
,
0010
0000
0100
0000
0100
0010
0001
0000
,
0010
0001
0100
0000
1000
0001
1100
0000
,
0001
1000
0101
0000
0100
0100
1100
0000
,
0010
0010
0000
0100
,
0101
0000
0100
0000
0010
0100
1000
0000
,
0010
0100
0001
0000
1000
0001
0100
0000
,
0001
1000
0100
0000
0001
0000
0010
0000
,
0010
0100
0001
0100
1000
0100
0100
0000
,
0100
1000
1000
0000
0010
0010
0001
0000
,
0100
0010
0001
0010
0100
0010
1000
0000
,
0100
0000
0001
0100
1000
0001
0100
0000
,
0010
1000
0100
0010
0001
0100
0100
0000
,
0001
0000
0001
0000
1000
0100
0001
0000
,
1000
0000
1000
0000
0001
0100
1000
0000
,
0011
0000
1100
0000
1000
0100
0001
0000
,
0011
0000
0001
0000
0010
1000
0101
0001
,
1010
0000
0001
0000
0001
0100
1000
0000
,
0001
0100
1000
0000
0001
0010
1000
0000
,
0001
0100
1000
0000
1000
0100
0001
0000
,
1000
0000
0010
0001
0000
0010
1000
0101
,
0100
0001
0001
0000
0010
0010
1000
0000
,
0100
0010
1000
0010
0100
0010
0001
0000
,
0010
1000
1000
0000
0100
0100
0001
0000
,
0010
0100
0001
0100
0010
0100
1000
0000
,
1000
0100
0001
1000
0100
0000
0001
0000
,
0001
0100
1000
0001
0100
0000
0001
0000
,
0010
0100
0001
0100
1000
0100
0100
0000
,
0100
0000
1000
0001
0000
0100
0010
0000
;

//--------------- dance-single - Jenro Jupitel (2024) ----------------
#NOTES:
     dance-single:
     Jenro Jupitel (2024):
     Medium:
     7:
     0,0,0,0,0:
0000
0000
0000
0000
,
0100
0001
0010
0100
1000
0010
0010
0000
,
0100
1000
0010
0100
0001
0010
0010
0000
,
0010
0001
0100
0010
1000
0100
0100
0000
,
0010
1100
0101
0100
,
0010
0100
0001
0100
1000
0100
0100
0000
,
0010
0100
1000
0100
0001
0100
0100
0000
,
0100
0010
0001
0010
1000
0010
0010
0000
,
0100
0000
0011
0000
0000
1100
0101
0000
,
0010
1000
0100
0000
0010
0001
0100
0000
,
0010
0001
0100
0000
0010
1000
0100
0000
,
0001
0010
1000
0000
0001
0010
1000
0000
,
0001
0100
1000
0000
0001
0100
1000
0000
,
0010
0001
0100
0000
0010
1000
0100
0000
,
0010
1000
0100
0000
0010
0001
0100
0000
,
1000
0010
0001
0000
1000
0010
0001
0000
,
0100
0000
1010
0000
0000
0101
1100
0000
,
0010
1000
0001
0000
0100
0010
0100
0000
,
0010
0001
0001
0000
0100
0100
1000
0000
,
0001
1000
0100
0000
0100
0010
0100
0000
,
0001
0010
0010
0000
1000
0100
0100
0000
,
0001
0010
0100
0010
0001
0010
0100
0000
,
0001
0010
1000
0000
1000
0100
0001
0000
,
1000
0010
0100
0010
1000
0010
0100
0000
,
1000
0010
0001
0000
0001
0000
1000
0000
,
0010
0100
0001
0100
1000
0100
0100
0000
,
0010
0100
1000
0100
0001
0100
0100
0000
,
0100
0010
0001
0010
1000
0010
0010
0000
,
0100
0000
0011
0000
0000
1100
0101
0000
,
0010
0100
0001
0100
1000
0100
0100
0000
,
0100
1000
1000
0010
0010
0001
0100
0000
,
0100
0010
0001
0010
0100
0010
1000
0000
,
0100
0000
0101
0000
0000
1100
0101
0000
,
1000
0001
0100
0000
0001
0010
0001
0000
,
0001
0001
0001
0100
0010
1000
1000
1000
,
0100
0000
0010
0000
0100
0100
0001
0000
,
0100
0010
1000
0001
0100
0100
0100
1010
,
0001
1000
0100
0000
1000
0010
1000
0000
,
1000
1000
1000
0100
0010
0001
0001
0001
,
0100
0000
0010
0000
0100
0100
1000
0000
,
0100
0000
0101
0000
0000
1100
0101
0001
;

//--------------- dance-single - Jenro Jupitel (2024) ----------------
#NOTES:
     dance-single:
     Jenro Jupitel (2024):
     Hard:
     14:
     0,0,0,0,0:
0000
0000
0000
0000
,
0010
0000
0000
1000
0001
0000
0100
0001
0000
1000
0100
0000
0021
0000
0031
0000
,
0010
0000
0000
0001
1000
0000
0100
1000
0000
0001
0100
0000
1020
0000
1030
0000
,
0101
0000
0000
1000
0001
0000
0010
0001
0000
1000
0010
0000
0201
0000
0301
0000
,
1100
0000
0000
0000
0001
1000
0000
0010
0000
1000
0010
1000
0100
0000
0011
0000
,
1000
0100
0010
0001
0010
0010
0000
0100
1000
0100
1000
0010
0100
0000
0011
0000
,
0001
0100
0010
1000
0010
0010
0000
0100
0001
0100
0001
0010
0100
0000
1010
0000
,
1000
0010
0100
0001
0100
0100
0000
0010
1000
0010
1000
0100
0010
0000
0101
0000
,
0001
0010
0000
1000
0100
0000
0100
0010
0000
0010
0001
0100
0010
0000
1100
0000
,
0001
0010
0100
1000
0100
0010
0001
0100
0100
0010
1000
0010
1000
0100
0000
0000
,
1000
0010
0100
0001
0100
0010
1000
0100
0100
0010
0001
0010
0001
0100
0000
0000
,
0000
0000
0010
1000
0010
0100
0001
0010
0010
0100
1000
0100
1000
0010
1000
0000
,
1000
0100
0010
0001
0010
0100
1000
0010
0010
0100
0001
0100
0001
0000
0011
0000
,
0100
1000
0100
0010
0001
0001
0000
0000
0001
0100
0010
1000
0010
0010
0000
0000
,
0100
0001
0100
0010
1000
1000
0100
0100
1000
0100
0010
0001
0010
0010
0001
0010
,
0100
1000
0010
0100
0001
0001
0010
0001
0001
0010
0100
1000
0100
0100
1000
0010
,
0010
1000
0000
0100
1000
0000
0001
1000
0000
0010
0100
0001
0100
0000
1010
0000
,
0000
0000
0001
1000
0001
1000
0100
1000
0001
0100
0010
1000
0100
1000
0000
0000
,
1000
0001
1000
0000
0100
0001
1000
0100
0010
0001
0100
0001
0010
0001
0000
0000
,
0000
0000
0001
1000
0010
1000
0001
0010
0100
1000
0010
1000
0010
0100
0001
0000
,
1000
0001
1000
0001
0010
0001
1000
0010
0100
0001
0010
0001
0010
0000
1100
0000
,
1000
0001
0100
0000
0010
1000
0100
0000
0011
0000
0010
0001
0100
0000
1010
0000
,
0001
0100
0010
0000
1000
0100
0010
0000
0100
0010
0100
0010
0100
0010
0001
0000
,
0001
0100
0010
0100
0010
1000
0100
0010
0100
0010
0001
1000
0010
0100
0002
0000
,
1003
0100
0010
0000
0100
1000
0001
1000
0100
0000
0000
0000
0011
0000
0000
0000
,
1010
0000
0000
1000
0001
0000
0100
0001
0000
1000
0100
0000
0021
0000
0031
0000
,
0010
0000
0000
0001
1000
0000
0100
1000
0000
0001
0100
0000
1020
0000
1030
0000
,
0101
0000
0000
1000
0001
0000
0010
0001
0000
1000
0010
0000
0201
0000
0301
0000
,
1100
0000
0000
0000
0001
1000
0000
0010
0000
1000
0010
1000
0100
0000
0011
0000
,
1000
0100
0010
0001
0010
0010
0000
0100
1000
0100
1000
0010
0100
0000
0011
0000
,
0001
0100
0010
1000
0010
0010
0000
0100
0001
0100
0001
0010
0100
0000
1010
0000
,
1000
0010
0100
0001
0100
0100
0000
0010
1000
0010
1000
0100
0010
0000
0101
0000
,
0001
0010
0000
1000
0100
0000
0100
0010
0000
0010
0001
0100
0010
0000
1100
0000
,
0100
0010
0001
0010
0100
0010
0001
0010
0100
0010
0001
0100
0010
1000
1000
0000
,
0100
0010
1000
0010
0100
0010
1000
0010
0100
0010
1000
0100
0010
0001
0001
0000
,
0010
0100
0001
0100
0010
0100
0001
0100
0010
0100
0001
0010
0100
1000
1000
0000
,
0001
0000
0000
0000
0000
0000
0000
0000
0000
1000
0010
0010
1000
0000
0101
0000
,
0001
0010
0100
1000
0010
0100
0001
0100
0010
1000
0100
0010
0001
0100
0001
0000
,
1000
0010
0100
0001
0010
0100
1000
0100
0010
0001
0100
0010
1000
0100
1000
0000
,
0001
0100
0010
1000
0100
0010
0001
0010
0100
1000
0010
0100
0001
0010
0001
0000
,
1000
0100
0000
0001
0100
0000
1000
0010
0000
0001
0010
0001
1000
0000
1100
0000
;
