#TITLE:Yugyugan Na;
#SUBTITLE:;
#ARTIST:P.O.T.;
#TITLETRANSLIT:;
#SUBTITLETRANSLIT:;
#ARTISTTRANSLIT:;
#GENRE:;
#CREDIT:Jenro Jupitel;
#MUSIC:Yugyugan Na.ogg;
#BANNER:yugyuganna-bn.png;
#BACKGROUND:yugyuganna-bg.png;
#CDTITLE:;
#SAMPLESTART:59.462;
#SAMPLELENGTH:16.658;
#SELECTABLE:YES;
#OFFSET:-0.117;
#BPMS:0.000=115.259;
#STOPS:;
#BGCHANGES:;
#FGCHANGES:;

//--------------- dance-single - Jenro Jupitel (2021) ----------------
#NOTES:
     dance-single:
     Jenro Jupitel (2021):
     Beginner:
     1:
     0,0,0,0,0:
0000
0000
0000
0000
,
0000
0000
0000
0000
,
0000
0000
0000
0000
,
0000
0000
0000
0000
,
0100
0000
0000
0000
,
1000
0000
0000
0000
,
0000
0010
0001
0010
,
0001
0000
0000
0000
,
0100
0000
0000
0000
,
0001
0000
0000
0000
,
0000
0010
1000
0010
,
1000
0000
0000
0000
,
2000
0000
3000
0000
,
0020
0030
0000
0000
,
0020
0000
0030
0000
,
0100
0000
0000
0000
,
0002
0000
0003
0000
,
0200
0300
0000
0000
,
0200
0000
0300
0000
,
0100
0000
0000
0000
,
0001
0000
0000
0000
,
1000
0000
1000
0000
,
0002
0000
0003
0000
,
0000
0000
0000
0000
,
0010
0000
0001
0000
,
0100
0000
1000
0000
,
0001
0000
0000
0000
,
0000
0000
0000
0000
,
0000
0000
0100
0100
,
0000
0000
1000
1000
,
0000
0000
0000
0010
,
0001
0010
0001
0000
,
0000
0000
0100
0100
,
0000
0000
0001
0001
,
0000
0000
0000
0010
,
1000
0010
1000
0000
,
0000
0000
0100
0100
,
1000
1000
0100
0100
,
0001
0001
0000
0010
,
1000
0010
0001
0000
,
0000
0000
0100
0100
,
0001
0001
0100
0100
,
1000
1000
0000
0010
,
0001
0010
1000
0000
;

//--------------- dance-single - Jenro Jupitel (2021) ----------------
#NOTES:
     dance-single:
     Jenro Jupitel (2021):
     Easy:
     3:
     0,0,0,0,0:
0000
0000
0000
0000
,
0000
0000
0000
0000
,
0000
0000
0000
0000
,
0000
0000
0000
0000
,
0100
0100
0000
0000
,
1000
1000
0000
0000
,
0000
0100
0001
0100
,
2000
3001
0000
0000
,
0100
0100
0000
0000
,
0001
0001
0000
0000
,
0000
0100
0001
0100
,
2000
3001
0000
0000
,
0200
0300
0002
0003
,
0020
0130
0020
0030
,
2000
0001
3100
0000
,
0010
0100
0010
0000
0000
0000
0000
0000
,
0200
0300
2000
3000
,
0020
0130
0020
0030
,
0002
1000
0103
0000
,
0010
0100
0010
0000
0100
0000
1001
0000
,
1000
0000
0001
0000
,
0100
0100
0100
0100
,
0001
0000
1000
0000
,
0010
0010
0010
0010
,
1000
1001
0000
0000
,
0100
0010
0100
0010
,
0100
0001
1000
0100
,
0001
0010
1000
0000
,
0000
0000
0100
0100
,
1000
1000
0100
0100
,
0010
0001
0100
0001
,
0100
1000
0200
0310
,
0000
0000
0100
0100
,
0001
0001
0100
0100
,
0010
1000
0100
1000
,
0100
0001
0200
0310
,
0000
0000
0200
1300
,
0200
0000
1300
0000
0001
0010
0001
0010
,
0002
0003
0000
0100
,
0100
0100
0100
1001
,
0000
0000
0000
0000
0100
0100
0100
0000
,
0001
0001
0001
0000
0100
0100
0100
0000
,
0001
0001
0001
0000
0000
0000
0100
0000
,
0001
0100
2000
0000
,
3000
0000
0000
0000
;

//--------------- dance-single - Jenro Jupitel (2021) ----------------
#NOTES:
     dance-single:
     Jenro Jupitel (2021):
     Medium:
     6:
     0,0,0,0,0:
0000
0000
0000
0000
,
0000
0000
0000
0000
,
0000
0000
0000
0000
,
0000
0000
0000
0000
,
0010
0001
0010
0100
,
0100
0001
0100
1000
,
0000
1000
0100
1000
0001
1000
0100
1000
,
0200
2000
3300
0000
,
0010
1000
0010
0100
,
0100
1000
0100
0001
,
0000
0001
0100
0001
1000
0001
0100
0001
,
0200
0002
0303
0000
,
0020
0030
0200
0300
,
2000
0000
0002
3003
,
0000
0100
0010
0110
0000
0000
0000
0000
,
0011
0110
0000
0000
,
0020
0030
0200
0300
,
0002
0000
2000
3003
,
0000
0100
0010
0110
0000
0000
0000
0000
,
1010
0110
0101
1001
,
2000
3000
0000
0000
,
0000
0000
0000
0000
,
0100
0010
0110
0000
0000
0000
0000
1001
,
0000
0000
0000
0000
,
0000
0000
0000
0000
,
0000
0000
0000
0000
,
0100
0010
0100
0010
0100
0010
0100
0010
,
0100
0000
0100
0010
1001
0000
0000
0000
,
0000
0000
0010
0001
,
0010
0100
0100
0001
,
0100
0000
1000
0000
0000
1000
0100
1000
,
0001
1000
0100
1000
0200
0000
2000
0000
,
3300
0000
0010
1000
,
0010
0100
0100
1000
,
0100
0000
0001
0000
0000
0001
0100
0001
,
1000
0001
0100
0001
0200
0000
0002
0000
,
0303
0000
0000
0000
1010
0010
0110
0100
,
0000
0001
0100
0000
1000
1000
0100
0100
,
2000
0000
3100
0000
0000
1000
0100
1000
,
0001
1000
0100
1000
0200
0000
2000
0000
,
3300
0000
0000
0000
0011
0010
0110
0100
,
0000
1000
0100
0000
0001
0001
0100
0100
,
0002
0000
0103
0000
0000
0001
0100
0001
,
1000
0001
0100
0001
0200
0000
0000
0000
,
0300
0000
0000
0000
;

//--------------- dance-single - Jenro Jupitel (2021) ----------------
#NOTES:
     dance-single:
     Jenro Jupitel (2021):
     Hard:
     8:
     0,0,0,0,0:
0000
0000
0000
0000
,
0000
0000
0000
0000
,
0000
0000
0000
0000
,
0000
0000
0000
0000
,
0001
0000
1001
0000
1000
0100
1100
0000
,
2000
0000
3010
0000
0100
0100
0001
0000
,
0000
1000
0100
0001
0100
1000
0100
0001
,
0100
0110
0000
0000
,
1000
0000
1001
0000
0001
0100
0101
0000
,
0002
0000
0013
0000
0100
0100
1000
0000
,
0000
0001
0100
1000
0100
0001
0100
1000
,
0100
0110
0000
0000
,
1000
1000
1000
0000
0001
0001
0001
0000
,
0100
0100
0100
0010
0010
0010
0110
0000
,
0000
1000
0001
1001
0000
0000
0000
0010
,
0010
0000
0001
0000
1000
0100
0010
0000
,
1000
0001
0100
0000
0001
0010
0100
0000
,
0001
1000
0100
0000
0010
0100
0001
0000
,
1000
1000
1000
0001
0001
0001
1001
0000
,
0110
0000
0000
1001
1001
0000
0011
0000
,
0101
0000
0000
1100
0000
0000
0000
0110
,
0000
0000
0100
0000
0000
0100
0000
0000
0100
1000
0100
1000
0010
0100
0010
0100
,
0002
0000
0010
0000
0100
0000
1003
1001
,
0000
0000
0100
0000
0000
0100
0000
0000
0200
0000
0000
0000
0310
0000
0000
0000
,
1000
0001
0101
0000
1000
1000
1000
1001
,
0000
0000
0100
0000
0000
0100
0000
0000
0100
1000
0010
0100
0001
1000
0100
1000
,
0001
0000
0000
0010
0000
0100
0000
1000
0000
0000
0000
0000
0000
0000
0000
0000
,
0001
0000
1000
0000
,
0000
0000
0000
0000
0001
0001
1001
0000
,
1000
0100
1100
0000
2000
0001
3010
0000
,
0100
0100
0001
0000
0000
1000
0100
0001
,
0100
1000
0100
0001
0100
0000
0110
0000
,
0000
0000
0000
0000
1000
1000
1001
0000
,
0001
0100
0101
0000
0002
1000
0013
0000
,
0100
0100
1000
0000
0000
0001
0100
1000
,
0100
0001
0100
1000
0100
0000
0110
0000
,
0000
0000
0000
0000
1000
1000
0100
0001
,
0001
0001
0100
1000
1000
1000
1000
1000
,
1000
1000
1000
0000
0000
0001
0100
1000
,
0100
0001
0100
1000
0100
0000
0110
0000
,
0000
0000
0000
0000
0001
0001
0100
1000
,
1000
1000
0100
0001
0001
0010
0001
0001
,
0001
0010
0001
0000
0000
1000
0100
0001
,
0100
1000
0100
0001
0200
0000
0000
0000
,
0300
0000
0000
0000
;

//--------------- dance-single - Jenro Jupitel (2021) ----------------
#NOTES:
     dance-single:
     Jenro Jupitel (2021):
     Challenge:
     11:
     0,0,0,0,0:
0000
0000
0000
0000
,
0000
0000
0000
0000
,
0000
0000
0000
0000
,
0000
0000
0000
0000
,
0001
0010
0001
0010
0000
0100
0000
0000
0000
0000
0000
0000
0000
0000
1000
0000
,
1000
0010
0000
0000
1100
0000
0000
0000
0001
0000
0000
0000
0001
0000
0000
0000
,
0000
0000
1000
0100
0010
0000
0001
0100
0010
0000
1000
0100
0010
0000
0001
0100
,
0010
1001
0000
0000
,
1000
0001
0100
0001
0000
1000
0000
0000
0000
0000
0000
0000
0000
0000
0001
0000
,
0101
1100
1000
1000
,
0000
0000
0001
1000
0010
0000
1000
0001
0100
0000
1000
0001
0010
0000
0001
1000
,
0100
0110
0000
0000
,
0011
0001
0100
0000
1100
1100
1001
0000
,
1010
1000
0100
0000
0101
0101
1001
0000
,
0000
1000
0001
0100
0000
0000
0000
0110
,
0110
0000
1000
0000
0001
0000
1000
0000
0001
0000
1000
0000
1000
0010
1000
0010
,
1000
0100
0110
0000
0001
0100
0110
0000
,
1000
1001
0011
0000
0001
1001
1010
0000
,
0010
0000
0100
0000
0010
0000
0100
0000
0010
0100
0010
0100
0010
0000
0000
0000
,
1001
0001
0100
0010
0100
1000
0100
0001
,
0100
1000
0001
0010
0001
0010
0001
1001
,
0000
0000
1010
0000
0000
0101
0000
0000
1000
0100
1000
0100
0010
0001
0010
0001
,
0200
0000
0020
0000
0300
0000
0130
1001
,
0000
0000
1000
0100
0010
0001
1000
0010
0100
0001
0100
0010
1000
0100
0010
0001
,
1000
1000
2002
0000
0000
3003
0000
0110
,
0000
0000
1000
0000
0000
0001
0000
0000
1000
0010
1000
0010
0100
0001
0100
0001
,
0000
0000
0000
1000
0000
0100
0000
0001
0000
0000
0000
0000
0000
0000
0000
0000
,
0010
0000
0000
0100
1001
0000
0000
0000
,
0000
0000
0000
0000
0000
0000
0000
0000
0001
0010
0001
0010
0000
0100
0000
0000
,
0000
0000
0000
0000
0000
0000
1000
0000
1000
0010
0000
0000
1100
0000
0000
0000
,
0001
0000
0000
0000
0001
0000
0000
0000
0000
0000
1000
0100
0010
0000
0001
0100
,
0010
0000
1000
0100
0010
0000
0001
0100
0010
0000
0000
0000
1001
0000
0000
0000
,
0000
0000
0000
0000
0000
0000
0000
0000
1000
0001
0100
0001
0000
1000
0000
0000
,
0000
0000
0000
0001
0101
0000
1100
0000
,
1000
0000
0000
0000
1000
0000
0000
0000
0000
0000
0001
1000
0010
0000
1000
0001
,
0100
0000
1000
0001
0010
0000
0001
1000
0100
0000
0000
0000
0110
0000
0000
0000
,
0000
0000
0000
0000
0000
0000
0000
0000
0001
0010
0001
0010
0001
0100
0001
0100
,
0000
0010
0000
0000
1010
0000
1000
0000
1000
0010
0000
0000
1000
0010
0000
0000
,
1000
0010
0000
0101
0000
0000
0000
0000
0000
0000
1000
0100
0010
0000
0001
0100
,
0010
0000
1000
0100
0010
0000
0001
0100
0010
0000
0000
0000
1001
0000
0000
0000
,
0000
0000
0000
0000
1000
0001
0100
0001
,
0000
1000
0000
0000
0000
0000
0001
0000
0101
0000
0110
0000
1100
0000
0000
0000
,
1000
0000
0000
0000
1000
0000
0000
0000
0000
0000
0001
1000
0010
0000
1000
0001
,
0100
0000
1000
0001
0010
0000
0001
1000
0200
0000
0000
0000
0300
0000
0000
0000
;

//--------------- dance-double - Jenro Jupitel (2021) ----------------
#NOTES:
     dance-double:
     Jenro Jupitel (2021):
     Challenge:
     9:
     0,0,0,0,0:
00000000
00000000
00000000
00000000
,
00000000
00000000
00000000
00000000
,
00000000
00000000
00000000
00000000
,
00000000
00000000
00000000
00000000
,
10000000
01000000
00010000
00000100
,
00001000
01000000
01000000
01000000
,
00000000
10000000
01000000
10000000
01000000
10000000
01000000
10000000
,
01000000
00110000
00010000
00010000
,
00000001
00000100
00001000
01000000
,
00010000
00000100
00000100
00000100
,
00000000
00000001
00000100
00000001
00000100
00000001
00000100
00000001
,
00000100
00001010
00000000
00000000
,
00000101
00000100
00000110
00000000
00000110
00000010
00001010
00000000
,
00001010
00010000
00011000
00000000
00011000
00001000
01001000
00000000
,
00000000
01000000
00100000
01100000
00000000
00000000
00000000
10010000
,
01100000
00000000
00000000
00000000
,
11000000
01000000
01100000
00000000
01100000
00100000
00110000
00000000
,
00110000
00001000
00011000
00000000
00011000
00010000
00010100
00000000
,
00000000
00000100
00000010
00000110
00000000
00000000
00000000
00001001
,
00000110
00000000
00000000
00001000
00001000
00000000
00010000
00000000
,
00011000
00000000
00000000
02000000
00000000
00000000
00000000
03100000
,
00000000
00000000
10000000
00000000
00000000
10000000
00000000
00000000
10000000
00000000
00000000
00000000
00000000
00000000
00000000
00000000
,
10010000
00000000
01100000
00000000
00000000
00000000
00000000
10010000
,
00000000
00000000
00010000
00000000
00000000
00010000
00000000
00000000
00010000
00000000
00000000
00000000
00000000
00000000
00000000
00000000
,
00100000
00010000
00011000
00000000
00000000
00000000
00010000
00010010
,
00000000
00000000
00001000
00000000
00000000
00001000
00000000
00000000
00001000
00000000
00000001
00000000
00000100
00000000
00000001
00000000
,
00001000
00000100
00000010
00000001
00000100
00000010
00001000
00000001
,
00000001
00000100
00000010
00000100
00000110
00000000
00000000
00000000
,
00000000
00000000
00000001
00000010
,
00001000
00100000
00010000
00000010
,
00000010
00000000
00000010
00000000
00000000
00000001
00000010
00000001
,
00000010
00000001
00000010
00000001
00000010
00000000
00001100
00000000
,
00001000
00001000
10000000
00100000
,
00010000
00000010
00001000
00100000
,
00100000
00000000
00100000
00000000
00000000
10000000
00100000
10000000
,
00100000
10000000
00100000
10000000
00100000
00000000
01010000
00000000
,
00000000
00000000
00000000
00000000
10000000
01000000
00100000
00010000
,
10000000
01000000
10010000
00000000
00010000
01000000
00010000
01000000
,
00010000
01000000
01010000
00000000
00010000
00100000
00001000
00010000
,
00000010
00001000
00010010
00001000
00100000
00010000
01000000
01000000
,
00100000
10000000
01000000
00000000
00100000
00001000
00000100
00001000
,
00000001
00000010
00001001
00000000
00001000
00000010
00001000
00000010
,
00001000
00000010
00001010
00000000
00001000
00000100
00010000
00001000
,
01000000
00010000
00001000
00010000
00000200
00000000
00000300
00000000
;
