#TITLE:What?;
#SUBTITLE:;
#ARTIST:SB19;
#TITLETRANSLIT:;
#SUBTITLETRANSLIT:;
#ARTISTTRANSLIT:;
#GENRE:Pop;
#CREDIT:Jenro Jupitel;
#MUSIC:What SB19.ogg;
#BANNER:what-bn.png;
#BACKGROUND:what-bg.png;
#CDTITLE:;
#SAMPLESTART:58.415;
#SAMPLELENGTH:20.000;
#SELECTABLE:YES;
#OFFSET:-0.088;
#BPMS:0.000=192.000
,46.000=159.000
,58.000=160.871
,59.000=147.074
,60.000=112.000
,131.000=56.000
,131.125=107.500
,131.938=192.000
,229.000=170.534
,229.500=204.561
,241.500=167.000
,243.000=112.000
,282.000=56.000
,284.500=58.000
,285.000=192.000
;
#STOPS:;
#BGCHANGES:;
#FGCHANGES:;

//--------------- dance-single - Jenro Jupitel (2021) ----------------
#NOTES:
     dance-single:
     Jenro Jupitel (2021):
     Beginner:
     6:
     0,0,0,0,0:
0000
0000
0000
0000
,
0000
0000
0000
0000
,
0000
0000
0000
0000
,
0000
0000
0000
0000
,
2000
0000
3100
0000
,
0002
0000
0103
0000
,
2000
3000
0002
0003
,
2000
0000
3010
0000
,
0002
0000
0013
0000
,
2000
0000
3010
0000
,
0002
0013
2000
3010
,
0001
0000
0200
0000
,
0000
0000
0000
0000
,
0000
0000
0000
0000
,
0000
0000
0000
0000
0000
0300
0000
0000
,
2001
3001
0100
1000
,
1010
0020
0130
0101
,
2000
3100
0002
0103
,
0020
1030
0100
1001
,
0001
0002
1003
0002
,
0013
2000
3001
0110
,
1002
0103
0001
1001
,
0210
0301
1000
0000
,
1000
2000
3002
0013
,
0100
0100
0200
0000
2300
0000
3010
0000
,
0100
0200
0302
0013
,
0010
0010
0020
0000
2030
0000
3100
0000
,
2000
3000
0020
0030
,
0020
0130
0020
0030
,
0102
1003
2010
3001
,
1000
0001
1100
1001
,
2000
3010
0002
0013
,
2000
3001
1001
0110
,
2000
0000
3100
0100
,
0002
0000
0103
0100
,
2000
3000
0002
0003
,
2000
0000
3010
0000
,
0002
0000
0013
0010
,
2000
0000
3010
0010
,
0002
0013
2000
3010
,
0001
0100
0110
0000
,
0200
0000
1300
0000
,
0200
0000
0301
0000
,
2000
3002
0203
0302
,
2003
3020
0130
0001
,
0102
0000
1003
0000
,
2001
0000
3010
0000
,
0001
0010
0001
0010
,
0002
0010
0103
0000
,
1000
0000
0000
0001
0000
1000
0000
0010
,
0000
0000
0011
0000
,
0001
0000
0000
1000
0000
0001
0000
0010
,
0000
0000
0011
0000
,
0200
0010
0301
0000
,
2000
3000
0022
0033
,
0010
0001
0010
0001
,
0010
0000
0022
0000
,
0000
0033
0000
0000
0000
0000
0000
0000
,
0000
0000
0000
0000
,
2000
0000
0000
0000
,
3000
0000
0000
0010
,
0010
0010
0010
0001
,
0010
0000
0100
0000
1000
0000
1000
1000
,
1000
0000
1000
1000
1000
0000
1001
0000
,
1001
0000
0100
0001
0100
0000
0100
0100
,
0010
0000
0100
0100
0010
0000
0100
0100
,
0010
0010
0100
0100
1000
0000
1000
0010
,
1000
0000
0100
0001
0100
1000
0010
0100
,
0010
0100
0010
0000
0101
0000
0200
0000
,
0301
0000
0200
0000
1300
0000
2000
3010
,
0002
0013
2000
3000
0000
0000
0000
0000
,
0000
2000
0000
3100
,
0100
0002
0003
0101
,
0000
2000
3000
0002
,
0003
2000
3010
0101
,
0000
0002
0003
1010
,
0000
2000
0000
3010
,
0010
0002
0013
2000
,
3010
0001
0000
0110
,
0000
0200
0000
1300
,
0000
0200
0000
0301
,
0000
2000
3002
0203
,
0302
2003
3020
0130
,
0110
0102
0000
1003
,
0010
2001
0000
3010
,
0100
0001
0010
0001
,
0010
0002
0010
0103
,
0000
0000
1000
0000
0000
0001
0000
1000
,
0000
0010
0000
0000
0000
0000
0011
0000
,
0000
0000
0001
0000
0000
1000
0000
0001
,
0000
0010
0000
0000
0000
0000
0011
0000
,
0000
0000
0200
0000
0000
0310
0000
1000
,
0000
0001
0000
0000
0000
0000
0022
0000
,
0033
0000
0010
0000
0000
0001
0000
0010
,
0000
0001
0000
0010
0000
0000
0022
0000
,
0000
0000
0000
0033
0000
0000
0000
0000
;

//--------------- dance-single - Jenro Jupitel (2021) ----------------
#NOTES:
     dance-single:
     Jenro Jupitel (2021):
     Easy:
     10:
     0,0,0,0,0:
0000
0000
0000
0000
,
0000
0000
0000
0000
,
0000
0000
0000
0000
,
0000
0000
0000
0000
,
0100
0000
0000
0001
,
0000
1000
0001
0000
,
0100
0000
0000
0001
,
0000
1000
0100
0001
,
0100
0000
0000
1000
,
0000
0001
0100
0000
,
0010
1000
0010
0001
,
0010
0000
0120
0000
,
0000
0000
0000
0000
,
0000
0000
0000
0000
,
0000
0000
0030
0000
,
1000
0100
0010
0000
1000
0100
0010
0000
,
1000
0100
0010
0100
0001
0001
0101
0000
,
0001
0010
0100
0000
0001
0010
0100
0000
,
0001
0001
1000
1000
0010
0100
1001
0000
,
1000
0100
1000
0001
0001
0100
0001
1000
,
0010
0100
0010
0010
1000
0001
1001
0000
,
0010
0000
0000
0100
0000
0000
0001
0000
1000
0000
0001
0000
0101
0000
0000
0000
,
1000
0000
0000
0100
0000
0000
1000
0000
0100
0000
0000
0000
1010
0000
0000
0000
,
0100
0100
0001
0001
1000
0200
0020
0330
,
0010
0010
1000
1000
0001
0020
0200
0330
,
0010
0001
0010
0010
0100
0200
2000
3300
,
0010
1000
0010
0001
0100
1000
0001
0101
,
2000
0000
3001
0000
0100
0001
2000
0000
,
3020
0000
2030
0000
3001
0010
0002
0000
,
0103
0100
0100
0001
1000
1000
1000
0001
,
0010
0010
0010
0001
0101
0000
1010
0000
,
1000
0100
0010
0001
1000
0100
0010
0001
,
0100
0000
0001
0000
1000
0001
1000
0001
1000
0000
0000
0000
00MM
0000
0000
0000
,
2010
0000
3001
0100
,
0102
0000
1003
0100
,
1000
0001
1000
0001
1000
0000
0010
0000
,
0120
0000
0130
0001
,
0012
0000
1003
0100
,
2100
0000
3001
0100
,
0001
1000
0001
1000
0001
0000
0010
0000
,
0120
0030
1001
0000
,
0020
0100
0130
0200
,
0320
0100
0100
0130
,
1000
0001
1000
0001
0100
0000
0001
0000
,
0010
0100
2000
3002
,
0103
1000
0020
0230
,
0301
0001
0020
0230
,
1300
0100
1010
0002
,
0103
1001
0110
0000
,
0100
0020
0000
0032
0000
2003
0000
3020
,
0000
0030
0000
0000
M1M1
0000
0000
0000
,
1000
0020
0000
0230
0000
0302
0000
0023
,
0000
0030
0000
0000
M11M
0000
0000
0000
,
0010
0200
0000
2300
0000
3002
0000
0023
,
0000
0030
0000
0000
1M1M
0000
0000
0000
,
1000
0020
0000
0230
0000
0302
0000
0023
,
0000
0130
0000
0000
M11M
0000
0000
0000
,
0000
0000
0000
0000
,
0000
0000
0000
0000
,
2000
0000
0000
0000
,
3000
0000
0000
0MM0
0000
0000
1000
0001
,
0100
0001
0010
0100
0010
0100
1000
0100
,
1000
0001
0100
0001
1000
0010
0100
0001
,
1000
0010
0100
0001
1000
0010
0200
0000
,
0301
0000
MM22
0000
0033
0000
0001
1000
,
0100
1000
0010
0100
0010
0100
0001
0100
,
0010
1000
0001
0100
0001
0001
2000
0010
,
3001
0010
0002
0010
1003
0100
2000
0100
,
3001
0100
2001
0000
3100
0000
0021
0000
,
0031
0000
0201
0000
0301
0000
0101
0001
,
0011
0001
0202
0000
0303
0000
0000
0000
,
0000
2100
0000
3001
,
0010
0012
0000
1003
,
0010
0000
1000
0001
1000
0001
1000
0000
,
0100
0210
0000
0310
,
0001
0102
0000
1003
,
0010
2010
0000
3001
,
0010
0000
0001
1000
0001
1000
0001
0000
,
0100
0210
0300
1001
,
0000
0200
0010
0310
,
0020
0230
0010
0010
,
0310
0000
1000
0001
1000
0001
0010
0000
,
0001
0100
0010
2000
,
3002
0013
1000
0200
,
0320
0031
0001
0200
,
0320
1030
0010
1100
,
0002
0013
1001
0110
,
0000
0000
0010
0200
0000
0302
0000
2003
,
0000
3200
0000
0300
0000
0000
MM11
0000
,
0000
0000
1000
0200
0000
0320
0000
0032
,
0000
0203
0000
0300
0000
0000
M11M
0000
,
0000
0000
0100
0020
0000
2030
0000
3002
,
0000
0203
0000
0300
0000
0000
11MM
0000
,
0000
0000
1000
0200
0000
0320
0000
0032
,
0000
0203
0000
0310
0000
0000
M11M
0000
;

//--------------- dance-single - Jenro Jupitel (2021) ----------------
#NOTES:
     dance-single:
     Jenro Jupitel (2021):
     Medium:
     12:
     0,0,0,0,0:
0000
0000
0000
0000
,
0000
0000
0000
0000
,
0000
0000
0000
0000
,
0000
0000
0000
0000
,
0002
0000
0013
0000
,
2000
0000
3010
0000
,
0002
0000
0013
0000
,
2000
0000
3010
0000
,
0002
0000
0013
0000
,
2000
0000
3010
0000
,
0002
0000
0013
0000
,
2000
0000
3010
0000
,
0000
0000
0000
0000
,
0000
0000
0000
0000
,
0000
0000
0000
0000
,
0010
0010
0010
0100
0001
1000
2000
0000
,
3100
0100
0100
0010
1000
0001
0002
0000
,
1003
0100
1000
0100
1000
1000
2100
0000
,
3001
0010
0001
0010
0001
0001
0102
0000
,
1003
0001
0010
0100
0001
1000
0010
0100
,
0010
1000
0010
0010
0100
0110
1002
0000
,
1003
0001
0101
0001
0011
0000
0001
1000
,
0011
1000
0101
0010
0110
0000
1MM1
0000
,
1000
0100
0010
0001
0000
0100
0000
0010
0000
1000
0000
0000
0102
0000
0000
0000
,
1003
0100
0010
0001
0000
0100
0000
0010
0000
1000
0000
0000
0102
0000
0000
0000
,
1003
0100
0010
0001
0000
0100
0000
0010
0000
1000
0000
0000
0012
0000
0000
0013
,
0100
0000
1000
0001
0000
0100
0000
0010
0000
1000
0000
0001
0100
0001
0100
0000
,
2000
0000
3001
0000
0101
0001
2000
0000
,
3020
0000
1030
0000
0011
0010
0002
0000
,
0103
0010
0100
0000
0100
0000
0001
0000
1000
0001
1000
0000
1000
0000
0001
0000
,
0010
0001
0010
0000
0010
0000
0001
0000
0001
1000
0000
0010
0000
1000
0000
0000
,
1000
0000
0100
0010
0000
0001
0010
0000
1000
0000
0100
0010
0000
0001
0010
0000
,
0100
0000
0001
1000
0000
0001
1000
0001
1000
0000
0000
0000
0MM0
0000
0000
0000
,
1000
0001
1000
0001
1000
0000
0010
0000
,
0100
0001
0100
0001
0100
0000
0010
0000
,
1000
0100
0010
0001
1000
0100
0010
0000
,
0001
0010
0001
0000
0100
0000
0100
0000
,
1000
0001
1000
0001
1000
0000
0100
0000
,
0010
0001
0010
0001
0010
0000
0100
0000
,
1000
0010
0100
0001
1000
0010
0100
0000
,
0001
0100
0001
0000
0220
0000
0330
0000
,
0001
1000
0001
1000
0001
0000
0100
0000
,
0010
1000
0010
1000
0010
0000
0100
0000
,
0001
0010
0100
1000
0001
0010
0100
0000
,
1000
0100
1000
0000
0010
0000
0100
0000
,
0001
1000
0001
1000
0001
0000
0010
0000
,
0100
1000
0100
1000
0100
0000
0010
0000
,
0001
0100
0010
1000
0001
0100
0010
0000
,
1000
0010
1000
0000
0100
0000
0100
0000
,
1000
0100
0010
0001
0010
0001
0100
0001
,
0000
0000
0000
0100
0001
0010
0000
0000
,
1000
0100
0010
0001
0010
0001
0100
0001
,
0000
0000
0000
0100
0001
0010
0000
0000
,
1000
0010
0100
0001
0100
0001
0010
0001
,
0000
0000
0000
0010
0001
0100
0000
0000
,
1000
0010
0100
0001
0100
0001
0010
0001
,
0000
0000
0000
0010
0001
0100
0000
0000
,
0000
0000
0000
0000
,
0000
0000
0000
0000
,
2M00
0000
0000
0M00
0000
0M00
0000
0000
,
3M00
0000
0000
0M00
0000
0000
1000
0001
,
0100
0001
1000
1000
0010
0010
0100
0001
,
0100
0000
0001
0000
1000
0000
0100
0000
1000
0000
0100
0000
1000
0000
0010
0100
,
0000
0001
0000
1000
0000
0100
0000
0001
0000
0010
0000
0200
0000
0000
0000
0000
,
0300
0000
2020
0000
3030
0000
0001
0001
,
0010
0010
0001
0001
0101
0001
0010
0010
,
0100
0100
0010
0110
0100
0100
1000
0001
,
0100
0010
0001
1000
0100
0010
2000
0000
,
0000
0000
0000
0000
3001
0000
0001
0000
0011
0000
0000
0000
1000
0000
0100
0010
,
0000
0001
0010
0000
1000
0000
0100
0010
0000
0001
0010
0000
0100
0000
0001
1000
,
0000
0001
1000
0001
1000
0000
0000
0000
0MM0
0000
0M00
0000
0MM0
0000
00M0
0000
,
0MM0
0000
0001
0100
0001
1000
0200
0000
,
0300
0000
1000
0100
1000
0001
0200
0000
,
0300
0000
0001
1000
0010
1000
0100
1000
,
0001
0000
0100
0001
0100
0010
0100
0100
,
0100
0000
0001
0010
0001
1000
0020
0000
,
0030
0000
1000
0010
1000
0001
0020
0000
,
0030
0000
0001
1000
0100
1000
0010
1000
,
0001
0000
0010
0001
0010
0000
0220
0000
,
0330
0000
1000
0001
0010
0100
0010
0001
,
0100
0000
0001
1000
0010
0100
0010
1000
,
0100
0000
0002
0010
0013
0200
1000
1300
,
0020
0000
0130
0001
0100
0010
1000
0100
,
0001
0000
0001
1000
0001
1000
0001
0000
,
0100
0000
0010
1000
0010
1000
0010
0000
,
0100
0000
0001
0010
0100
1000
0001
0010
,
0100
0000
1000
0100
2000
0000
0010
0000
,
3001
0000
1000
0010
0100
0001
0100
0001
,
0010
0002
0000
0003
0000
0010
0001
0100
,
0000
0000
1000
0010
0100
0001
0100
0001
,
0010
0002
0000
0003
0000
0010
0001
0100
,
0000
0000
1000
0010
0100
0001
0100
0001
,
0010
0002
0000
0003
0000
0100
0001
0010
,
0000
0000
1000
0010
0100
0001
0100
0001
,
0010
0002
0000
0103
0000
0100
0001
0020
,
0000
0000
0000
0000
0000
0030
0000
0000
;

//--------------- dance-single - Jenro Jupitel (2021) ----------------
#NOTES:
     dance-single:
     Jenro Jupitel (2021):
     Hard:
     14:
     0,0,0,0,0:
0000
0000
0000
0000
,
0000
0000
0000
0000
,
0000
0000
0000
0000
,
0000
0000
0000
0000
,
1000
0100
1000
0100
1000
0000
0001
0000
,
0001
0100
0001
0100
0001
0000
1000
0000
,
1000
0100
1000
0000
0001
0100
0001
0000
,
1000
0100
1000
0000
0001
0100
0001
0000
,
1000
0100
1000
0100
1000
0000
0001
0000
,
0001
0100
0001
0100
0001
0000
1000
0000
,
1000
0100
1000
0000
0001
0100
0001
0000
,
1000
0100
1000
0000
0002
0000
0000
0000
,
0000
0000
0000
0000
,
0000
0000
0000
0000
,
0003
0000
0000
0000
,
1000
0010
0100
0001
0000
0100
0001
0000
1000
0100
0010
0001
0000
1000
0100
0000
,
1000
0010
0100
0001
1000
0100
0010
0001
1000
0001
1000
0000
0110
0000
1001
0000
,
0010
0100
1000
0100
0000
1000
1000
0000
0010
0100
0001
0100
0000
0001
0001
0000
,
0010
0100
1000
0001
1000
0010
0100
0001
0100
0010
0100
0000
0220
0000
0330
0000
,
1000
0100
1000
0010
1000
0001
0010
0001
0100
0010
1000
0001
1000
0100
0010
0001
,
1000
0100
1000
0001
0010
0001
1000
0010
0100
0000
0001
0000
0001
0000
1000
0000
,
0010
1000
0010
1000
0001
0100
0010
0000
1001
0000
0110
0000
0001
0010
0001
1000
,
0100
0001
0100
0010
0000
0001
0000
0100
0010
1000
0001
0000
1001
0000
0000
0000
,
0001
0010
0001
1000
0010
1000
0001
0010
0001
1000
0100
0010
0001
1000
0010
1000
,
0001
0010
0100
1000
0010
0100
0001
1000
0100
0010
0001
1000
0001
0100
0010
1000
,
0001
0010
0001
1000
0010
0100
0001
1000
0100
1000
0001
0100
0010
1000
0001
1000
,
0100
0000
0100
0010
0000
0100
0000
0010
0000
0100
0000
0010
0100
0010
0100
0000
,
0100
0010
1000
0100
0010
0001
1000
0010
0100
0001
0100
0010
1000
0001
0010
0100
,
1000
0010
0100
0001
1000
0100
1000
0001
0100
0001
1000
0010
0100
0001
1000
0001
,
0010
0100
1000
0010
0100
0001
1000
0100
0010
0100
1000
0001
0100
0010
1000
0001
,
1000
0100
1000
0001
0100
0001
1000
0100
1000
0001
0010
0100
1000
0001
1000
0010
,
0100
0000
0001
0100
0000
0001
0100
0000
0110
0000
1000
0010
0000
1000
0010
0000
,
0110
0000
0001
0100
0000
0010
1000
0001
0100
0000
0000
0000
11MM
0000
0000
0000
,
1000
0010
0100
0001
0110
0000
1001
0000
,
1000
0001
0100
0010
1001
0000
0110
0000
,
0010
0001
1000
0010
1000
0001
0010
0001
,
1000
0100
0010
0001
1001
0001
0101
0000
,
1001
0100
1000
0100
0010
0001
0100
0001
,
0100
0010
1000
0001
0010
0100
1000
0010
,
0100
0001
1000
0100
1000
0001
0100
0001
,
1000
0100
0010
0001
2002
3003
1001
0000
,
1001
0000
1010
0001
0010
0001
1000
0000
,
1100
0001
0100
0010
1000
0001
0010
0000
,
0110
0100
1000
1000
0001
0001
0010
0001
,
1000
0100
0010
0001
1000
0001
0100
0010
,
1001
0001
0010
0001
0010
0100
1000
0000
,
1001
0010
0100
0001
1000
0100
0010
0001
,
0100
0010
1000
0100
1000
0001
0100
0001
,
1000
0100
0010
0001
0010
0001
1000
0010
,
0100
0001
1000
0100
1000
0001
0100
0010
,
0200
0000
0000
0301
0010
0100
0000
0000
,
0100
0001
1000
0100
1000
0001
0100
0010
,
0200
0000
0000
0301
0010
0100
0000
0000
,
0010
1000
0001
0010
0001
1000
0010
0100
,
0020
0000
0000
1030
0100
0010
0000
0000
,
0010
1000
0001
0010
0001
1000
0010
0100
,
0020
0000
0000
1030
0100
0020
0000
0000
,
0000
0030
0000
0000
,
0000
0000
0000
0000
,
200M
0000
0000
000M
0000
000M
0000
0000
,
300M
0000
0000
0000
0000
0000
0MM0
0000
0000
0000
0000
0000
1000
0000
0001
0010
,
0000
1000
0000
0100
0000
0100
0000
0010
0000
0001
0010
0100
1000
0010
0000
0100
,
0000
0100
0000
0001
0000
0001
0010
0000
0001
1000
0000
0000
0010
0100
0010
0100
,
0020
0000
0130
0000
0010
0100
0010
0100
0020
0000
0130
0000
0001
1000
0100
1000
,
0001
0100
0001
0000
2001
0000
0000
0000
3000
0000
0000
0000
0100
1000
0001
1000
,
0010
0000
1000
0000
0100
1000
0001
1000
0010
0000
1000
0000
0100
1000
0001
1000
,
0100
0000
0000
0000
1000
0000
0000
0000
0001
0000
0000
0000
1000
0000
0000
0000
0100
0000
0000
0000
1000
0000
0000
0000
0010
0000
0000
0000
1000
0000
0000
0000
0100
0000
0000
0000
1000
0000
0000
0000
0010
0000
0000
0000
0000
0000
0000
0001
0000
0000
0000
0000
0000
0000
0000
0100
0000
0000
0000
0000
0000
0000
0000
0001
,
0000
0000
0000
0000
0000
0000
0000
0100
0000
0000
0000
0000
0000
0000
0000
0001
0000
0000
0000
0000
0000
0000
0000
0001
0000
0000
0000
0000
0000
0000
0000
0010
0000
0000
0000
0000
0000
0000
0000
0001
0000
0000
0000
0000
0000
0000
0000
0010
0000
0000
0000
0000
0000
0000
0000
0010
0000
0000
0000
0000
0000
0000
0000
0010
,
0000
0000
0000
0000
0000
0000
0000
0100
0000
0000
0000
0000
0000
0000
0000
0000
0110
0000
0000
0000
0000
0000
0000
0000
0110
0000
0000
0000
0000
0000
0000
0000
1001
0000
0000
0000
0000
0000
0000
0000
0000
0000
0000
0000
0000
0000
0000
0000
1100
0000
0000
0000
0000
0000
0000
0000
0001
0000
0000
0000
0100
0000
0000
0000
,
0000
0001
0100
0000
0110
0000
1000
0010
0000
1000
0010
0000
0110
0000
0001
0100
,
0000
0010
1000
0001
0100
0000
0000
0000
00MM
0000
00M0
0000
00MM
0000
000M
0000
,
00MM
0000
0001
0010
0100
1000
0110
0000
,
1001
0000
0001
1000
0100
0010
1001
0000
,
0110
0000
0010
1000
0001
0010
0001
1000
,
0010
1000
0001
0100
0010
1000
1001
1000
,
0101
0000
1001
0100
0001
0100
0010
1000
,
0100
1000
0100
0010
0001
1000
0010
0100
,
0001
0010
0100
1000
0001
0100
0001
1000
,
0100
1000
0001
0100
0010
1000
2002
3003
,
1001
0000
1001
0000
0011
1000
0010
1000
,
0001
0000
0101
1000
0100
0010
0001
1000
,
0010
0000
0110
0100
0001
0001
1000
1000
,
0010
1000
0001
0100
0010
1000
0001
1000
,
0100
0010
1001
1000
0010
1000
0010
0100
,
0001
0000
1001
0010
0100
1000
0001
0100
,
0010
1000
0100
0010
0001
0100
0001
1000
,
0100
1000
0001
0100
0010
1000
0010
1000
,
0001
0010
0100
1000
0001
0100
0001
1000
,
0100
0010
0200
0000
0000
1300
0010
0100
,
0000
0000
0100
1000
0001
0100
0001
1000
,
0100
0010
0200
0000
0000
1300
0010
0100
,
0000
0000
0010
0001
1000
0010
1000
0001
,
0010
0100
0020
0000
0000
0031
0100
0010
,
0000
0000
1000
1001
0000
0011
0000
0110
,
0000
0011
0000
0110
0000
0100
1000
0020
,
0000
0000
0030
0000
;

//--------------- dance-double - Jenro Jupitel (2021) ----------------
#NOTES:
     dance-double:
     Jenro Jupitel (2021):
     Challenge:
     13:
     0,0,0,0,0:
00000000
00000000
00000000
00000000
,
00000000
00000000
00000000
00000000
,
00000000
00000000
00000000
00000000
,
00000000
00000000
00000000
00000000
,
00200000
00000000
00301000
00000000
,
00000020
00000000
00010030
00000000
,
00200000
00310000
00000020
00001030
,
00200000
00000000
00301000
00000000
,
00200000
00000000
00301000
00000000
,
00000020
00000000
00010030
00000000
,
00200000
00310000
00000020
00001030
,
00200000
00000000
00302000
00000000
,
00000000
00000000
00000000
00000000
,
00000000
00003000
00000000
00000000
,
00000000
00000000
00000000
00000000
,
00010000
00000100
00001000
00000010
00001000
00100000
00010000
01000000
,
00010000
00010000
00001000
00000100
00000101
00000000
00000110
00001100
,
00001000
00000100
00010000
00001000
00000000
00100000
00010000
00000000
01000000
00010000
01000000
00010000
00000000
00001000
00010000
00000000
,
00000100
00001000
00000010
00000100
00000001
00001000
00000100
00000010
00000001
00000000
00000001
00000000
00001001
00000000
00000000
00000000
,
00010000
00000100
00010000
00000100
00000000
00010000
00001000
00000000
00100000
00001000
00100000
00001000
00000000
00100000
00010000
00000000
,
10000000
01000000
10000000
01000000
00100000
00010000
00100000
00010000
01000000
00000000
01100000
00000000
00100000
00000000
01100000
00000000
,
10010000
00000000
00000000
01010000
00000000
00000000
00110000
00000000
00011000
00000000
00000000
00000000
00001000
00000000
00000010
00000000
,
00000001
00000000
00000010
00000000
00001000
00000000
00000010
00000000
00000001
00000010
00000001
00000000
00000011
00000000
00000000
00000000
,
00000001
00000100
00000010
00001000
00000000
00010000
00000000
01000000
00000000
10000000
00000000
00000000
20100000
00000000
00000000
00000000
,
30010000
00100000
01000000
10000000
00000000
00010000
00000000
00000100
00000000
00000001
00000000
00000000
00002010
00000000
00000000
00000000
,
00003001
00000010
00000100
00001000
00000000
00010000
00000000
01000000
00000000
10000000
00000000
00000000
21000000
00000000
00000000
31000000
,
00100000
00000000
00010000
00001000
00000000
00000010
00000000
00000100
00000000
00000001
00000000
00001000
00000010
00001000
00000010
00000000
,
00001010
00010000
00011000
00010000
01010000
00010000
10000000
10000000
,
00010000
00010000
00100000
00100000
00001000
00001000
00010000
00010000
,
00000100
00010000
00000100
00010000
00000100
00000000
00000100
00000000
00001000
00000000
00010000
00000000
00100000
00000000
00010000
00000000
,
00001000
00001000
01000000
01000000
01001000
00001000
01010000
01000000
,
01000000
00000000
00001000
01000000
00000000
00010000
01000000
00000000
00110000
00000000
00001000
00100000
00000000
00000010
00010000
00000000
,
00011000
00000000
00001000
01000000
00000000
00001000
00100000
00000100
00010000
00000000
00000000
00000000
00011000
00000000
00000000
00000000
,
10000000
00100000
01000000
00010000
01000000
00000000
00010000
00000000
,
10000000
00010000
01000000
00100000
10000000
00000000
01000000
00000000
,
00100000
00010000
00001000
00000010
00001000
00000001
00000010
00000000
,
00001000
00000100
00000010
00000001
00001000
00000001
00000100
00000000
,
00001000
00000100
00001000
01000000
00100000
00010000
01000000
00000000
,
01000000
00100000
10000000
00010000
00100000
01000000
10000000
00000000
,
01000000
00010000
00001000
00000100
00001000
00000001
00000100
00000001
,
00001000
00000100
00000010
00000000
00002002
00000000
00003003
00000000
,
00001000
00100000
00001000
00100000
00001000
00010000
00001000
00000000
,
00010000
00000010
00010000
00000010
00010000
00001000
00010000
00000000
,
01000000
00010000
10000000
10000000
00010000
00010000
00100000
00010000
,
10000000
01000000
00100000
00010000
10000000
00010000
01000000
00000000
,
00010000
00000100
00010000
00000100
00010000
00001000
00010000
00000000
,
00001000
01000000
00001000
01000000
00001000
00010000
00001000
00000000
,
00000010
00001000
00000001
00000001
00001000
00001000
00000100
00001000
,
00000001
00000010
00000100
00001000
00000001
00001000
00000010
00000000
,
00000100
00002000
00000000
00023000
00000000
20030000
00000000
30200000
,
00000000
00300000
00000000
00000000
M1M10000
00000000
00000000
00000000
,
00100000
00020000
00000000
00032000
00000000
00003002
00000000
00000203
,
00000000
00000300
00000000
00000000
00001M1M
00000000
00000000
00000000
,
00001000
00020000
00000000
02030000
00000000
03020000
00000000
00230000
,
00000000
00300000
00000000
00000000
1M1M0000
00000000
00000000
00000000
,
00010000
00002000
00000000
00003020
00000000
00002030
00000000
00003200
,
00000000
00000300
00000000
00000000
0000M1M1
00000000
00000000
00000000
,
00000000
00000000
00000000
00000000
,
00000000
00000000
00000000
00000000
,
00012000
00000000
00000000
00000000
,
00003000
00000000
00000000
00000000
00000000
00000000
00001000
00010000
,
01000000
00000000
00010000
00000000
00100000
00000000
00001000
00000000
01000000
00000000
00001000
00010000
00001000
00000000
00000100
00000000
,
00010000
00010000
01000000
00010000
00001000
00000010
00000100
00010000
,
00001000
00000000
00100000
00000000
01000000
00000000
00010000
00000000
00001000
00000000
00000100
00000010
00000100
00000000
00001000
00000000
,
00010000
00000000
MM220000
00000000
00330000
00000000
00010000
00001000
,
01000000
00001000
00010000
00001000
00010000
00000100
00010000
01000000
,
00001000
00010000
00010000
00100000
00001000
00010000
00001000
00100000
,
00010000
00100000
00010000
00000010
00001000
00000010
00001000
01000000
,
00010000
00000000
00000100
00000000
00001000
00000000
01000000
00000000
00001000
00000000
00010000
00000000
01000000
00000000
00001000
01000000
,
00000000
00010000
01000000
00000000
00110000
00000000
00001000
00100000
00000000
00000010
00010000
00000000
00011000
00000000
00001000
01000000
,
00000000
00001000
00100000
00000100
00010000
00000000
00000000
00000000
00000MM0
00000000
00000000
00000000
000MM000
00000000
00000000
00000000
,
0MM00000
00000000
00000001
00000100
00000010
00001000
00000010
00000000
,
00001000
00000000
00000001
00001000
00000010
00000100
00000001
00000000
,
00000010
00000000
00000100
00001000
00010000
01000000
00010000
10000000
,
01000000
00000000
00010000
00100000
01000000
10000000
00010000
10000000
,
00100000
00000000
00010000
00100000
00010000
00000010
00000100
00001000
,
00000010
00000000
00000010
00000100
00000001
00001000
00000100
00000010
,
00000001
00000000
00000010
00001000
00010000
00100000
00010000
10000000
,
00100000
10000000
00010000
00100000
01000000
00000000
20020000
00000000
,
30030000
00000000
00010000
00000100
00010000
00000100
00010000
00001000
,
00010000
00000000
00001000
01000000
00001000
01000000
00001000
00010000
,
00001000
00000000
00000010
00001000
00000001
00000001
00001000
00001000
,
00000100
00001000
00000001
00000010
00000100
00001000
00000001
00001000
,
00000010
00000000
00001000
00100000
00001000
00100000
00001000
00010000
,
00001000
00000000
00010000
00000010
00010000
00000010
00010000
00001000
,
00010000
00000000
01000000
00010000
10000000
10000000
00010000
00010000
,
00100000
00010000
10000000
01000000
00100000
00010000
10000000
00010000
,
01000000
00000000
00100000
00020000
00000000
00032000
00000000
00003002
,
00000000
00000203
00000000
00000300
00000000
00000000
00002020
00000000
,
00003030
00000000
00000100
00002000
00000000
00023000
00000000
20030000
,
00000000
30200000
00000000
00300000
00000000
00000000
02020000
00000000
,
03030000
00000000
00010000
00002000
00000000
00003020
00000000
00002030
,
00000000
00003200
00000000
00000300
00000000
00000000
00000202
00000000
,
00000303
00000000
00001000
00020000
00000000
02030000
00000000
03020000
,
00000000
00230000
00000000
00300000
00000000
00000000
20200000
00000000
,
00000000
00000000
30300000
00000000
;
