#TITLE:Wala Lang;
#SUBTITLE:;
#ARTIST:Edray Teodoro;
#TITLETRANSLIT:;
#SUBTITLETRANSLIT:;
#ARTISTTRANSLIT:;
#GENRE:;
#CREDIT:Jenro Jupitel (2024);
#MUSIC:Wala Lang.ogg;
#BANNER:Wala Lang-bn.png;
#BACKGROUND:Wala Lang-bg.png;
#CDTITLE:cdtitle.png;
#SAMPLESTART:76.933;
#SAMPLELENGTH:13.715;
#SELECTABLE:YES;
#OFFSET:-0.213;
#BPMS:0.000=69.995;
#STOPS:;
#BGCHANGES:-0.213=Wala Lang.mp4=1.000=1=0=0=StretchNoLoop==CrossFade==,
99999.000=-nosongbg-=1.000=0=0=0=StretchNoLoop====
;
#FGCHANGES:;

//--------------- dance-single - Jenro Jupitel (2024) ----------------
#NOTES:
     dance-single:
     Jenro Jupitel (2024):
     Beginner:
     1:
     0,0,0,0,0:
0000
0000
0000
0000
,
0000
0000
0000
0000
,
0010
0000
0001
0000
,
1000
0000
0100
0000
,
0100
0000
0001
0000
,
0001
0000
0010
0000
,
0001
0000
1000
0000
,
1000
0000
0100
0000
,
0010
0000
0001
0000
,
1000
0000
0100
0000
,
0100
0000
1000
0000
,
0001
0000
0010
0000
,
0010
0000
1000
0000
,
1000
0000
0100
0000
,
1000
1000
1000
0000
,
0001
0001
0010
0000
,
0100
0100
1000
0000
,
0001
0010
0010
0000
,
0010
0001
1000
0000
,
0100
0100
0001
0000
,
0001
0010
0001
0000
,
1000
1000
0100
0000
,
0010
0000
0001
1000
,
0100
0100
1000
0001
,
0010
0010
1000
1000
,
0100
0000
1000
1000
,
1000
0000
0001
0001
,
0010
0000
0100
0100
,
1000
0000
0001
0010
,
0010
0000
0010
0000
,
0001
0000
1000
0000
;

//--------------- dance-single - Jenro Jupitel (2024) ----------------
#NOTES:
     dance-single:
     Jenro Jupitel (2024):
     Easy:
     2:
     0,0,0,0,0:
0000
0000
0000
0000
,
0000
0000
0000
0000
,
0010
0000
1000
0100
,
0010
0001
0000
1000
,
0001
0100
0001
0010
,
1000
0000
0100
0000
,
0010
0000
0100
0001
,
0010
1000
0000
0001
,
0100
0100
1000
0010
,
0010
0001
1000
0001
,
0110
0000
0010
0001
,
1000
0001
0100
0010
,
1000
0000
0010
1000
,
0001
1000
0100
0010
,
0001
0100
0010
1000
,
0001
0010
0001
0100
,
1000
0000
0001
1000
,
0001
0000
0100
0000
,
1010
0000
0000
0000
,
0101
0000
0000
1000
,
0001
0100
0001
0010
,
1000
0000
0100
0000
,
0010
0000
0100
0001
,
0010
1000
0001
0001
,
0100
0100
1000
0010
,
0010
0001
1000
0001
,
0110
0000
0010
0001
,
1000
0001
0100
0010
,
1000
1001
0010
1000
,
0001
1000
0100
0010
,
0001
0100
0010
0000
,
1000
0000
0001
0000
;

//--------------- dance-single - Jenro Jupitel (2024) ----------------
#NOTES:
     dance-single:
     Jenro Jupitel (2024):
     Medium:
     3:
     0,0,0,0,0:
0000
0000
0000
0000
,
0000
0000
0000
0000
,
0000
0000
0200
0010
,
1300
0002
0103
2000
,
3020
0000
1030
0001
,
0200
0301
0010
0200
,
1300
0002
0010
0103
,
2000
0100
3001
0200
,
0010
0001
1300
0001
,
0002
0010
0100
1003
,
1001
0100
0020
0100
,
0031
2000
3010
0002
,
0203
0000
0301
1000
,
0020
1030
0100
0020
,
0031
2000
0100
3010
,
0002
0010
1003
0020
,
0100
1000
0031
1000
,
2000
0100
0010
3001
,
0102
0010
1000
0103
,
2100
0010
0001
3100
,
2001
0100
0010
3100
,
2100
3010
0100
0010
,
0022
0033
1000
1100
,
0010
0000
0110
0000
0001
1000
0001
0000
,
0101
0000
0011
0000
0100
0100
0100
0000
,
1010
0100
0010
0001
,
0100
1000
0001
1001
,
0100
0000
0010
0000
1000
1000
0001
0000
,
0001
0001
1000
0000
0100
0010
0001
0000
,
0100
0010
1000
0000
1000
0010
0001
0000
,
0001
0100
1000
0000
0001
0000
0000
0000
,
0100
0000
1000
0000
;

//--------------- dance-single - Jenro Jupitel (2024) ----------------
#NOTES:
     dance-single:
     Jenro Jupitel (2024):
     Hard:
     7:
     0,0,0,0,0:
0000
0000
0000
0000
,
0000
0000
0000
0000
,
0200
0000
0310
0000
0001
0010
1000
0000
,
0001
0100
1000
0000
1000
0100
0002
0000
,
0023
0000
0130
0000
0001
0011
0100
0000
,
2000
3001
0200
0000
0310
2000
3001
0000
,
1002
0000
1003
0000
0100
0010
0200
0000
,
1300
0001
0200
0000
0310
1000
0001
0010
,
0110
1000
1001
0100
0001
0100
0001
1000
,
0100
0010
0001
0002
0013
0000
0011
0000
,
1020
0000
0130
0000
0001
0100
1000
0001
,
0001
0010
1000
0001
1000
0010
0002
0000
,
0203
0000
0310
0000
0001
0101
0010
0001
,
2000
3001
0020
0100
0130
2000
3001
0100
,
1002
0000
1003
0010
0010
0100
0020
0100
,
1030
0001
0020
0100
0130
1000
0001
0100
,
0110
1000
1001
0010
0001
0010
0001
1000
,
0010
0100
0001
0002
0103
0010
0101
0000
,
1010
0001
0100
0010
0110
1000
1100
0001
,
0101
1000
0010
0001
2000
0001
3100
0110
,
0110
0010
1000
0001
0100
0001
0010
0100
,
1000
0100
0001
0001
1000
1000
0020
0000
,
0130
0000
0101
0000
0010
0101
0010
0101
,
0010
0101
1000
1100
0001
0100
1010
0100
,
1010
0001
1001
0000
0010
1100
0010
1100
,
0010
1100
0001
0000
2000
0100
0010
3001
,
0011
0100
1001
0100
0100
1010
0100
1010
,
0100
1010
0001
0011
1000
0010
0101
0010
,
0101
1000
1001
0010
0100
1000
0001
0100
,
0010
0100
0001
1000
0001
0001
0100
0010
,
1000
1000
0002
0000
0020
0000
0000
0000
,
0000
0000
0000
0000
0000
0033
0000
0000
;

//--------------- dance-single - Jenro Jupitel (2024) ----------------
#NOTES:
     dance-single:
     Jenro Jupitel (2024):
     Challenge:
     10:
     0,0,0,0,0:
0000
0000
0000
0000
,
0000
0000
0000
0000
,
0100
0000
0000
0000
0011
0000
0000
1000
1000
0000
0010
1000
0000
0000
0001
0100
,
0000
0000
0001
0010
0000
0100
0000
0001
0000
0000
1000
1000
0000
0001
0010
0000
,
0100
0000
0000
0000
1100
0000
0000
0001
0001
0000
0100
0001
0000
0000
1000
0010
,
0000
0000
1000
0100
0000
0010
0000
0000
1000
0000
0001
0001
0000
1000
0100
0000
,
0010
0000
0000
0000
1001
0000
0000
0001
0001
0000
0010
0010
0000
0000
1000
1000
,
0000
0001
0000
0001
0000
1000
1000
0000
0100
0000
0001
0000
0101
0000
1000
0000
,
1010
0100
0001
0100
0010
0000
0100
0001
0100
0000
0010
0000
0100
0001
0000
0000
,
0100
0001
0100
0010
1000
0010
1000
0100
1000
0100
0010
0001
0010
0001
0000
0000
,
0100
0000
0000
0000
0011
0000
0000
1000
1000
0000
0010
1000
0000
0001
0000
0100
,
0000
0001
0000
0010
0000
0100
0000
0000
0001
0000
1000
0000
1000
0001
0010
0000
,
0100
0000
0000
0000
1100
0000
0000
0001
0001
0000
0100
0001
0000
0000
1000
0010
,
0000
0000
1000
0100
0000
0010
0000
0000
1000
0000
0001
0001
0000
1000
0100
0000
,
0010
0000
0000
1000
0001
0000
0001
0001
0000
0000
0010
0010
0000
0000
0100
1000
,
0010
0000
0100
0001
1000
0100
1000
0100
0010
0000
1000
0100
1000
0100
0010
0000
,
1010
0000
0010
0000
0100
0010
0100
0000
,
0100
0000
0100
0010
1000
0000
0010
1000
0100
0000
0010
0001
0010
0000
0100
0000
,
1001
0000
0001
0010
0000
0001
0100
0000
1000
0000
0100
0000
0001
0000
1000
0000
,
0100
0010
0100
0000
0001
0000
0100
0000
0010
0100
0010
0000
1000
0000
0100
0000
,
0010
0001
1000
0100
0010
0001
0100
0101
,
0001
0001
0001
0000
0010
0000
1001
0000
0100
0000
0010
0000
1000
0000
0100
0010
,
0001
0000
0000
0000
0110
0000
0000
1000
0100
0000
0001
1000
0000
0001
0100
0000
,
1000
0001
0000
0100
0010
0010
0010
0000
1001
0000
0100
0000
1001
0010
0100
1000
,
0001
0100
0010
1000
0001
0001
0001
0001
0100
0000
1000
0001
0000
1000
0100
0000
,
0001
1000
0000
0000
0110
0000
0001
0100
0010
0100
0001
1000
0010
1000
0100
1000
,
0001
0000
0100
0000
0010
1000
0001
1000
0001
1000
0001
0010
0001
0000
1000
0000
0100
0000
0000
0000
0001
0000
1000
0000
0000
0000
0001
0000
0100
0000
0000
0000
,
1000
0001
0000
0010
0100
0000
1000
0100
0010
0100
1000
0001
0010
0001
0100
0001
,
1000
0100
0010
0001
1000
0000
1000
1000
1010
0000
0000
0000
1100
0000
0001
0100
,
0001
0000
0100
0000
0001
0100
0001
0100
0010
0000
1000
0100
1000
0100
1000
0100
0010
0000
0000
0000
0010
0000
0001
0000
0100
0000
0000
0000
0010
0000
1000
0000
,
0001
0000
0100
0010
0100
0010
0100
0010
0100
0000
0001
1000
0001
1000
0001
1000
0002
0000
0000
0000
0000
0000
0000
0000
0000
0000
0000
0000
0013
0000
0000
0000
,
0100
0000
2000
3000
;
