#TITLE:Tsinelas;
#SUBTITLE:;
#ARTIST:Enchi;
#TITLETRANSLIT:;
#SUBTITLETRANSLIT:;
#ARTISTTRANSLIT:;
#GENRE:;
#CREDIT:Jenro Jupitel (2024);
#MUSIC:Tsinelas.ogg;
#BANNER:Tsinelas-bn.png;
#BACKGROUND:Tsinelas-bg.png;
#CDTITLE:cdtitle.png;
#SAMPLESTART:44.123;
#SAMPLELENGTH:20.031;
#SELECTABLE:YES;
#OFFSET:-0.019;
#BPMS:0.000=109.500
,1.000=90.000
,9.000=90.543
,17.000=90.886
,25.000=91.105
,32.000=90.835
,41.000=92.254
,48.000=91.696
,55.000=46.364
,56.000=92.729
,57.000=89.021
,62.000=178.042
,64.000=92.789
,67.000=90.124
,74.000=89.424
,82.000=89.241
,87.000=89.759
,94.000=91.191
,99.000=90.059
,103.000=90.532
,107.000=89.888
,111.000=91.138
,112.000=92.138
,113.000=90.138
,114.000=91.138
,115.000=89.360
,116.000=90.360
,117.000=89.360
,118.000=90.186
,119.000=91.186
,120.000=90.186
,121.000=91.360
,122.000=90.360
,123.000=89.295
,124.000=90.295
,125.000=89.295
,126.000=91.151
,127.000=90.295
,128.000=89.295
,129.000=83.295
,130.000=89.295
;
#STOPS:62.000=0.337
,63.000=0.337
;
#DISPLAYBPM:90.000;
#BGCHANGES:;
#FGCHANGES:;

//--------------- dance-single - Jenro Jupitel (2024) ----------------
#NOTES:
     dance-single:
     Jenro Jupitel (2024):
     Beginner:
     3:
     0,0,0,0,0:
0000
0000
0000
0000
,
0000
0000
0000
0000
,
0000
0000
1000
0001
,
0100
0000
0001
0010
,
0000
0000
0001
1000
,
0100
0000
1000
0010
,
0000
0100
0000
0010
,
0000
0100
0001
1000
,
0010
0100
0001
1000
,
0100
0001
0010
1000
,
0001
0100
1000
0010
,
0100
0010
0001
1000
,
0001
0100
0000
0100
,
0000
0100
0000
1001
,
0100
0000
0100
0000
,
0100
0000
1000
0001
,
1000
0001
1000
0010
,
1000
0100
0010
0100
,
0001
1000
0010
0001
,
1000
0001
0100
0010
,
1000
0001
0100
1000
,
0001
0010
1000
0001
,
0100
0001
1000
0010
,
1000
0001
0100
0010
,
0100
1000
0001
0100
,
0010
1000
0100
0010
,
0001
0100
0010
1000
,
0001
0100
0010
0001
,
1000
0100
0001
1000
,
0010
0100
0010
1000
,
0001
0100
0001
1000
,
0010
0100
0010
1000
,
0001
0100
1000
0000
;

//--------------- dance-single - Jenro Jupitel (2024) ----------------
#NOTES:
     dance-single:
     Jenro Jupitel (2024):
     Easy:
     4:
     0,0,0,0,0:
0000
0000
0000
0000
,
0000
0000
0000
0000
,
0000
0000
0000
0000
0001
0010
0100
0000
,
0001
0000
0100
0000
1000
0010
0100
0000
,
1000
0000
0100
0000
0001
1000
0001
0000
,
0100
0000
0010
0000
1000
0001
1000
0000
,
0010
0100
0001
1000
,
0010
0100
0010
0001
,
1000
0100
0001
0000
0001
0100
1000
0000
,
0010
0001
1000
0001
,
1000
0010
0001
0000
1000
0000
0001
0000
,
0001
0100
1000
0000
0001
0000
1000
0000
,
0010
0000
0000
0010
0100
1000
0000
0001
,
0100
0010
0000
1000
0010
0100
0000
0000
,
1000
0100
0001
0000
0001
1000
0010
0000
,
0001
1000
0100
0001
,
0100
0010
0001
0100
0010
0000
1000
0000
,
0001
0100
0010
0001
,
1000
0000
0100
1000
0001
0000
0010
0000
,
0100
0000
0001
1000
0001
0000
0010
1000
,
0001
0000
0100
0010
1000
0000
0001
0000
,
0100
0000
0001
0100
0001
0000
0010
0000
,
1000
0000
0100
1000
0001
0000
0100
0000
,
0010
0000
0001
1000
0100
0000
0010
0000
,
0100
0000
0000
0000
1000
0001
1000
0100
,
0010
0001
0100
0000
0001
1000
0001
0100
,
0010
1000
0100
0000
0010
0100
0001
1000
,
0100
0010
0001
0000
0010
0001
1000
0100
,
0010
0100
0001
0000
1000
0001
1000
0001
,
1000
0010
0100
0010
0100
0001
0100
0001
,
1000
0010
0100
0001
1000
0100
0010
0001
,
0100
0010
1000
0001
1000
0100
0010
0001
,
0100
1000
0100
0010
0100
0000
0000
0000
;

//--------------- dance-single - Jenro Jupitel (2024) ----------------
#NOTES:
     dance-single:
     Jenro Jupitel (2024):
     Medium:
     5:
     0,0,0,0,0:
0000
0000
0000
0000
,
0000
0000
0000
0000
,
0000
0000
0000
0000
0010
0001
1000
0000
,
1100
0000
0010
0000
0100
0010
1000
0000
,
0101
0000
0010
0000
0001
1000
0100
0000
,
0110
0000
0001
0000
0100
0010
1001
0000
,
0110
0000
0010
0010
1000
0001
0100
0100
,
0001
1000
0010
0100
0001
1000
0001
0100
,
0010
0100
0001
1000
0001
1000
0010
0100
,
0010
0100
0001
1000
0100
0010
0001
1000
,
0001
0100
0010
1000
0001
1000
0100
0010
,
0001
1000
0001
0100
0010
1000
0100
0010
,
0001
0100
0010
1000
0010
1000
0001
0100
,
0001
0100
0010
1000
0001
0100
0010
0000
,
1000
0100
1000
0100
0010
0001
0010
0001
,
1000
0100
0010
0001
1000
0000
0100
0000
,
0001
0100
0001
1000
0010
0000
0100
1000
,
0100
0010
0010
0000
0001
0100
0001
0010
,
0010
1000
0001
1000
0100
0000
0010
0100
,
1000
0001
0100
0000
0010
0000
0100
0001
,
1000
0010
0100
0000
0001
1000
0100
0010
,
0100
0000
1000
0000
1000
0001
0100
0010
,
0100
0000
0001
0000
0010
0001
1000
0100
,
0010
0000
1000
0000
0001
0100
0010
0100
,
0001
1000
0001
0000
1000
0100
0010
0001
,
0100
0010
1000
0001
1000
0100
0010
0100
,
0010
0100
0010
0001
0001
0100
0010
1000
,
0001
1000
0100
0010
0100
0001
1000
0010
,
0100
0001
1000
0100
0010
0001
0010
0001
,
1000
0100
1000
0100
1000
0010
1000
0010
,
0100
0001
0100
0001
1000
0010
0100
0001
,
0010
0100
1000
0100
0010
0001
0010
0001
,
0100
0010
1000
0001
0100
0000
0000
0000
;

//--------------- dance-single - Jenro Jupitel (2024) ----------------
#NOTES:
     dance-single:
     Jenro Jupitel (2024):
     Hard:
     12:
     0,0,0,0,0:
0000
0000
0000
0000
,
0000
0000
0000
0000
,
0000
0000
0000
0000
0000
0000
0000
0000
0000
0001
1000
0000
1000
0000
0000
0100
,
0000
1000
0010
0000
0100
0000
0000
0010
0000
0100
0001
0000
1000
0000
0001
0100
,
0000
0010
1000
0000
1000
0000
0100
0010
0000
0010
0100
0000
0010
0000
0001
0100
,
0000
0100
0010
0000
1000
0000
0001
1000
0000
0100
0010
0000
0001
1000
0100
0010
,
0001
0100
0100
0010
1000
0000
0001
0100
0010
0000
0110
0000
0100
0000
0001
1000
,
0001
1000
0100
0010
0100
0000
0100
1000
0001
0000
0001
1000
0100
0010
0001
1000
,
0100
0000
1100
0000
1100
0000
0010
0100
0000
0100
0010
0000
0001
0000
0010
0100
,
0000
1000
0001
1000
0100
0000
0100
0010
0000
0010
0001
0000
0100
0000
0010
1000
,
0000
1000
0001
1000
0100
0000
0100
0010
0000
0010
0001
0000
0100
0000
0010
1000
,
0000
1000
0001
1000
0001
0000
0100
0010
0000
0010
1000
0001
0100
0010
0000
0010
,
1000
0001
1000
0000
1000
0000
0100
0010
0001
0100
0010
0000
1001
0000
0001
0100
,
0010
0100
0001
0000
1100
0000
0001
1000
0001
1000
0001
0000
0011
0000
0000
0000
,
0101
0000
0100
0010
1000
0100
0000
0000
1010
0000
1000
0010
0100
0001
0000
0000
,
0011
0000
0000
1001
0000
0000
1100
0000
0110
0000
0000
0000
0101
0000
0000
0000
,
1100
0000
0001
1000
0001
0100
0010
0000
1000
0000
0010
0000
0100
0000
0010
1000
,
0001
0000
0001
1000
0100
0000
0100
0010
0001
0000
0100
0001
1000
0000
0001
0010
,
0100
0000
0001
1000
0100
1000
0100
1000
0010
0000
0010
0100
0000
0100
0001
0000
,
0011
0001
0010
0100
1000
0000
1010
0000
0101
0000
0100
0010
0000
0010
1000
0000
,
1001
0000
0001
0100
0000
0100
0010
1000
0001
1000
0001
1000
0100
0010
0100
0010
,
0100
0000
0001
1000
0000
0100
0010
0100
0010
0000
0000
1000
0001
0000
1001
0000
,
0100
0000
0001
0010
0000
0010
0100
1000
0001
0000
0100
0010
0000
0010
1000
0000
,
0001
0000
0100
0010
0000
0010
0100
0010
1000
0000
0001
1000
0000
1000
0100
0000
,
0010
0001
0010
0100
1000
0001
0100
0000
1000
0100
1000
0100
1000
0010
0100
0001
,
0100
0001
0010
0001
0010
0001
1000
0000
0100
0010
0100
0010
0100
1000
0010
1000
,
0001
0100
0010
1000
0100
1000
0010
0000
0001
0100
0001
1000
0010
1000
0010
0100
,
0010
0100
0001
0010
0001
0100
0001
0000
0100
0010
1000
0001
1000
0001
1000
0100
,
0010
0100
1000
0001
1000
0001
0100
0000
1000
0100
0010
0001
1000
0100
0010
0000
,
1000
0100
0010
0001
1000
0100
0010
0000
1000
0100
0010
0001
1000
0100
0010
0100
,
1000
0001
0100
0010
1000
0001
0100
0000
0100
0010
1000
0001
1000
0001
1000
0100
,
0010
0100
1000
0001
0100
0010
1000
0100
0010
0001
0100
0010
1000
0001
1000
0100
,
0010
0001
0100
0010
1000
0001
1000
0000
1000
0000
0000
0000
0000
0000
0000
0000
;
