#TITLE:Triangulo;
#SUBTITLE:;
#ARTIST:Nadine Lustre, Sam Concepcion, and Nicole Omillo;
#TITLETRANSLIT:;
#SUBTITLETRANSLIT:;
#ARTISTTRANSLIT:;
#GENRE:;
#CREDIT:Jenro Jupitel (2024);
#MUSIC:Triangulo [B].ogg;
#BANNER:Triangulo [B]-bn.png;
#BACKGROUND:Triangulo [B]-bg.png;
#CDTITLE:cdtitle.png;
#SAMPLESTART:70.289;
#SAMPLELENGTH:29.275;
#SELECTABLE:YES;
#OFFSET:-0.028;
#BPMS:0.000=40.990
,40.000=81.980
,104.000=163.961
,200.000=40.990
;
#STOPS:;
#BGCHANGES:-0.028=Triangulo [B].mp4=1.000=1=0=0=StretchNoLoop==CrossFade==,
99999.000=-nosongbg-=1.000=0=0=0=StretchNoLoop====
;
#FGCHANGES:;

//--------------- dance-single - Jenro Jupitel (2024) ----------------
#NOTES:
     dance-single:
     Jenro Jupitel (2024):
     Beginner:
     2:
     0,0,0,0,0:
0000
0000
0000
0000
,
0000
0000
0000
0000
,
0010
0100
0000
0000
,
0100
0010
0000
0000
,
0100
0001
1000
0100
,
0000
0001
0100
0000
,
0010
0100
0000
0000
,
0100
0010
0000
0000
,
0001
0100
1000
0100
,
0001
0010
0100
0000
,
1000
0001
0100
0000
,
0100
0010
1000
0100
,
0001
0000
0001
0010
,
1000
0000
0001
0000
,
0010
0001
1000
0100
,
0010
0100
1000
0001
,
0010
1000
0001
0100
,
0010
0100
0001
1000
,
0100
0010
0002
0003
,
0010
0100
2000
3000
,
0100
0010
1000
0001
,
0010
0100
1000
0001
,
0100
0000
0100
0000
,
0010
0000
0010
0000
,
1000
0000
1000
0000
,
0001
0000
0001
0000
,
0010
0000
0001
0000
,
1000
0000
0100
0000
,
0010
0010
0100
0000
,
1000
1000
0001
0000
,
0010
0000
1000
0000
,
0001
0000
0100
0000
,
0010
0010
0100
0000
,
0001
0001
1000
0000
,
0100
0000
0010
0000
,
0002
0000
0003
0000
,
0010
0000
0100
0000
,
2000
0000
3000
0000
,
0100
0000
0010
0000
,
1000
0000
0001
0000
,
0010
0000
0100
0000
,
1000
0000
0001
0000
,
0200
0000
0300
0000
,
0200
0000
0300
0000
,
0020
0000
0030
0000
,
0020
0000
0030
0000
,
2000
0000
3000
0000
,
2000
0000
3000
0000
,
0002
0000
0003
0000
,
0002
0000
1003
0000
,
0100
0010
2000
0000
0000
0000
3000
0000
;

//--------------- dance-single - Jenro Jupitel (2024) ----------------
#NOTES:
     dance-single:
     Jenro Jupitel (2024):
     Easy:
     3:
     0,0,0,0,0:
0000
0000
0000
0000
,
0000
0000
0000
0000
,
0100
0100
0002
0000
0013
0100
0100
0010
,
0100
0100
2000
0000
3010
0100
0100
0010
,
0100
0001
1000
0100
1000
0001
0010
0100
,
1000
0001
0100
0000
,
0010
0010
2000
0000
3100
0010
0010
0100
,
0010
0010
0002
0000
0103
0010
0010
0100
,
0010
1000
0001
0010
0001
1000
0100
0010
,
0001
1000
0020
0000
,
0130
0100
1000
0100
,
0001
0100
0001
0000
1000
0100
1000
0000
,
0100
0100
0001
0100
,
2000
3001
0000
0000
,
0200
0310
2000
3001
,
0100
0001
0010
0000
0100
1000
0010
0000
,
0002
0013
2000
3010
,
0100
0001
0100
0000
1000
0100
1000
0000
,
0001
0010
0100
0000
1000
0010
0100
0000
,
0001
1000
0100
0000
1000
0001
0010
0000
,
0100
0100
0100
0000
1000
0000
0001
0000
,
2002
3003
0220
0330
,
2000
3010
0002
0013
,
2000
3001
0200
0310
,
0002
0103
2000
3100
,
0002
1003
0020
0130
,
0001
0001
0010
0100
,
2000
0000
3001
0000
,
0100
0001
0010
0000
,
0100
1000
0010
0000
,
0200
0000
0310
0000
,
0001
0000
1000
0000
,
1000
0001
0010
0000
,
0001
1000
0010
0000
,
0100
0100
0001
0000
,
0010
0000
0110
0000
,
0100
0100
1000
0000
,
0001
0000
0110
0000
,
2000
0000
3001
0000
,
0200
0000
0310
0000
,
0100
1000
0100
0000
,
0100
0001
0100
0000
,
2000
0000
0010
0000
,
3002
0000
0010
0000
,
2003
0000
0100
0000
,
3002
0000
0100
0000
,
2003
0000
0010
0000
,
3002
0000
0100
0000
,
2003
0000
0100
0000
,
3002
0000
0010
0000
,
0103
1000
0200
0000
0000
0000
0300
0000
;

//--------------- dance-single - Jenro Jupitel (2024) ----------------
#NOTES:
     dance-single:
     Jenro Jupitel (2024):
     Medium:
     10:
     0,0,0,0,0:
0000
0000
0000
0000
,
0000
0000
0000
0000
,
0002
0000
0000
0000
0000
0000
0000
0000
0003
0000
0000
0000
0000
0000
0000
0001
0000
1000
1000
1000
1000
1000
0000
0001
0000
1000
1000
1000
1000
1000
0000
0000
,
2000
0000
0000
0000
0000
0000
0000
0000
3000
0000
0000
0000
0000
0000
0000
1000
0000
0001
0001
0001
0001
0001
0000
1000
0000
0001
0001
0001
0001
0001
0000
0000
,
0110
0000
0000
0100
0100
0000
1000
0001
0000
0000
0000
0001
0100
0000
0100
0001
0000
0000
0000
0000
0010
0000
0100
0000
1000
0000
0100
0000
0001
0000
0100
0000
,
0000
0000
0000
0000
0000
0000
1000
0000
0000
0000
0000
0000
0000
0001
0001
0001
0001
0000
1000
0000
1000
0000
1000
0000
0000
0000
0000
0000
0000
0000
0000
0000
,
0020
0000
0000
0000
0000
0000
0000
0000
0030
0000
0000
0000
0000
0000
0000
0100
0000
0010
0010
0010
0010
0010
0000
0100
0000
0010
0010
0010
0010
0010
0000
0000
,
0020
0000
0000
0000
0000
0000
0000
0000
0030
0000
0000
0000
0000
0000
0000
0100
0000
0100
0100
0100
0100
0100
0000
0100
0000
0100
0100
0100
0100
0100
0000
0000
,
1001
0000
0000
1000
1000
0000
0100
0010
0000
0000
0000
0010
0001
0000
0001
0010
0000
0000
0000
0000
1000
0000
0001
0000
0100
0000
0001
0000
0010
0000
0001
0000
,
0000
0000
0000
0000
0000
0000
0001
0000
0000
0000
0000
0000
0000
0100
0100
0100
0100
0000
0010
0000
0010
0000
0010
0000
0000
0000
0000
0000
0000
0000
1000
0000
,
0001
0000
0000
0000
0100
0000
0000
0000
1000
0000
0000
0000
0100
0000
0000
0001
,
1000
0001
0000
0100
0000
0000
1000
0001
0000
0020
0000
0000
0130
0000
0001
2000
,
0000
3001
0002
1003
,
0010
0100
0001
1000
0100
0000
0010
0001
0000
0100
0000
1000
0000
0001
0001
0000
,
1000
0001
1000
0001
1000
0001
1000
0001
1000
0000
0001
1000
0000
0001
1000
1000
,
0000
0001
0001
0001
0001
0000
0000
1000
0000
0001
0001
0001
0001
0000
0000
0000
,
0100
0010
0100
0010
0100
0010
0100
0010
0100
0000
0010
0100
0000
0010
0100
0010
,
0000
0100
0100
0100
0100
0000
0000
0010
0000
0100
0100
0100
0100
0000
0000
0000
,
1000
0100
1000
0001
0010
0001
0100
0001
0000
1000
0000
0010
0000
1000
0000
1000
,
0001
0100
0001
1000
0010
1000
0100
1000
0000
0001
0000
0010
0000
0001
0000
0000
,
0100
0010
1000
0001
0100
0010
1000
0100
0010
0000
0001
0010
0000
0100
1000
0010
,
0000
0001
1000
0001
1000
0000
0000
0001
0000
0100
0010
0100
0010
0000
0000
0000
,
1000
0000
0001
0100
0000
0010
0000
1000
0000
0000
1000
0100
0000
0010
0000
0001
,
0000
0000
0001
0100
0000
0010
0000
1000
0000
0001
0000
0001
0000
0001
1000
0000
,
0001
0000
1000
0010
0000
0100
0000
0001
0000
0000
0001
0010
0000
0100
0000
1000
,
0000
0000
1000
0010
0000
0100
0000
0001
0000
1000
0000
1000
0000
1000
0001
0000
,
0010
0100
0010
0100
1000
0001
1000
0001
,
0100
0000
0010
0100
0000
1000
0001
0100
,
0000
0001
1000
0001
1000
0000
0000
0001
,
0000
0010
0100
0010
0100
0000
0000
0000
,
1000
0100
1000
0001
0010
0001
0100
0001
,
1000
0000
0010
1000
0000
0010
1000
0100
,
0000
0010
0001
0100
0001
0000
0000
1000
,
0000
0100
0010
0001
0100
0100
0001
0000
,
1000
0001
1000
0001
0100
0010
0100
0001
,
0000
1000
0000
0100
0000
0001
0000
0001
,
0100
0001
1000
0100
1000
0010
1000
0001
,
0000
0100
0000
1000
0000
0001
0000
0000
,
0010
0100
0010
0100
1000
0001
1000
0001
,
0100
0000
1000
0001
0000
0100
0010
1000
,
0000
0100
0100
0100
0100
0000
0000
0010
,
0000
0001
0001
0001
0001
0000
1000
0100
,
0000
0000
0000
0010
0000
0001
0000
0100
,
0000
0000
0000
0001
0000
1000
0000
0100
,
0000
0000
0000
0010
0000
1000
0000
0100
,
0000
0000
0001
1000
0000
1000
0100
0000
,
0001
0000
1000
0100
0000
0100
0000
1000
,
0000
0000
0001
0010
0000
0010
0000
0001
,
0000
0000
0100
0010
0000
0100
0000
0010
,
0000
0000
1000
0001
0000
0100
0010
0000
,
0001
0000
0000
0000
0100
0000
0000
0000
1000
0000
0000
0010
0000
0000
0001
0000
0000
0000
0000
0000
0000
0000
0000
0000
0000
0000
0000
0000
0000
0000
0000
0000
;

//--------------- dance-single - Jenro Jupitel (2024) ----------------
#NOTES:
     dance-single:
     Jenro Jupitel (2024):
     Hard:
     11:
     0,0,0,0,0:
0000
0000
0000
0000
,
0000
0000
0000
0000
0000
0000
0000
0000
0000
0000
0000
0000
0000
0000
0000
0000
0000
0000
0000
0000
0000
0000
0000
0000
0000
0000
0000
0000
0000
0000
0000
0010
,
0100
0000
1000
0001
0000
0100
0001
0100
0000
0010
0000
1000
0000
0000
0000
0100
0000
0100
1000
0100
1000
0100
0000
0010
0000
0001
0010
0001
0010
0001
0000
0000
,
1000
0000
0001
0100
0000
0000
1000
0100
0000
0000
0010
0100
0000
0000
0000
1000
0000
0010
0100
0010
0100
0010
0000
0001
0000
1000
0001
1000
0001
1000
0000
0000
,
0101
0000
0000
0010
0010
0000
1000
1000
0000
0000
0000
0001
0001
0000
0100
0100
0000
0000
0000
0000
1000
0000
0100
0000
0010
0000
0001
0000
0001
0000
0010
0000
,
0100
0000
0000
0000
0000
0000
1000
0000
0000
0000
0000
0000
0000
1000
0001
0100
0010
0000
0001
0000
0100
0000
1000
0000
0000
0000
0000
0000
0000
0000
0000
0100
,
0010
0000
0001
1000
0000
0010
1000
0010
0000
0100
0000
0001
0000
0000
0000
0010
0000
0010
0001
0010
0001
0010
0000
0100
0000
1000
0100
1000
0100
1000
0000
0000
,
0001
0000
1000
0010
0000
0000
0001
0010
0000
0000
0100
0010
0000
0000
0000
0001
0000
0100
0010
0100
0010
0100
0000
1000
0000
0001
1000
0001
1000
0001
0000
0000
,
1010
0000
0000
0100
0100
0000
0001
0001
0000
0000
0000
1000
1000
0000
0010
0010
0000
0000
0000
0000
0001
0000
0010
0000
0100
0000
1000
0000
1000
0000
0100
0000
,
0010
0000
0000
0000
0000
0000
0001
0000
0000
0000
0000
0000
0000
0001
1000
0010
0100
0000
1000
0000
0010
0000
0001
0000
0000
0000
0000
0000
0000
0000
0001
0000
,
0010
0100
1000
0100
1000
0010
0100
0010
,
0100
0001
0100
0001
0010
0100
0010
0100
,
1000
0001
0100
0010
1000
0100
0010
0001
,
2000
0000
0000
0000
3100
0000
0000
0001
0000
0010
0000
0100
0000
1000
1000
0000
,
0001
0010
0001
0010
0001
1000
0001
1000
0001
0000
0100
0001
0000
1000
0001
0100
,
0000
0001
0010
0100
1000
0000
0000
0001
0000
0001
0010
0100
1000
0000
0000
0000
,
1000
0100
1000
0100
1000
0001
1000
0001
1000
0000
0010
1000
0000
0001
1000
0010
,
0000
1000
0100
0010
0001
0000
0000
1000
0000
1000
0100
0010
0001
0000
0000
0000
,
0100
0010
0100
0010
0100
0010
1000
0010
0000
1000
0000
0001
0000
0100
0000
0010
,
1000
0010
1000
0010
1000
0010
0100
0001
0000
0100
0000
0010
0000
1000
0000
0000
,
0010
1000
0001
0100
0010
1000
0001
0100
0010
0000
1000
0001
0000
0100
0010
1000
,
0000
0010
1000
0010
1000
0000
0000
0010
0000
0100
0010
0100
0010
0000
0100
0020
,
0000
0000
0000
0000
0000
0000
0000
0000
1030
0000
0000
0000
0000
0000
0000
0100
,
0000
1000
0100
0010
0001
0000
0000
0100
0000
1000
0100
0010
0001
0000
1000
0001
,
0000
0000
0000
0000
0000
0000
0000
0000
1000
0000
0000
0000
0000
0000
0000
0001
,
0000
0100
0010
0100
0010
0000
0000
1000
0000
0100
0010
0100
0010
0000
0000
0000
,
0001
0010
0001
0010
0001
1000
0001
1000
,
0001
0000
0100
0001
0000
1000
0001
0100
,
0000
0001
0010
0100
1000
0000
0000
0001
,
0000
0001
0010
0100
1000
0000
0000
0000
,
1000
0100
1000
0100
1000
0001
1000
0001
,
1000
0000
0010
1000
0000
0001
1000
0010
,
0000
1000
0100
0010
0001
0000
0000
1000
,
0000
1000
0100
0010
0001
0000
0000
0000
,
0100
0010
0100
0010
0100
0010
1000
0010
,
0000
1000
0000
0001
0000
0100
0000
0010
,
1000
0010
1000
0010
1000
0010
0100
0001
,
0000
0100
0000
0010
0000
1000
0000
0000
,
0010
1000
0001
0100
0010
1000
0001
0100
,
0010
0000
1000
0001
0000
0100
0010
1000
,
0000
0010
1000
0010
1000
0000
0000
0010
,
0000
0100
0010
0100
0010
0000
0100
0010
,
0000
0000
0000
1000
0000
0000
0001
0000
,
1000
0000
0000
1000
0000
0000
0000
0100
,
0000
1000
0100
0010
0001
0000
0000
0100
,
0000
1000
0100
0010
0001
0000
1000
0001
,
0000
0000
0000
1000
0000
1000
0000
1000
,
0000
0000
0000
0001
0000
0001
0000
0001
,
0000
0100
0010
0100
0010
0000
0000
1000
,
0000
0100
0010
0100
0010
0000
0000
0000
,
0010
0000
0000
0000
0001
0000
0000
0000
0100
0000
0000
1000
0000
0000
0002
0000
0000
0000
0000
0000
0000
0000
0000
0000
0003
0000
0000
0000
0000
0000
0000
0000
;
