#TITLE:Triangulo;
#SUBTITLE:;
#ARTIST:Thyro, Yumi, and Jeric;
#TITLETRANSLIT:;
#SUBTITLETRANSLIT:;
#ARTISTTRANSLIT:;
#GENRE:;
#CREDIT:Jenro Jupitel (2024);
#MUSIC:Triangulo [A].ogg;
#BANNER:Triangulo [A]-bn.png;
#BACKGROUND:Triangulo [A]-bg.png;
#CDTITLE:cdtitle.png;
#SAMPLESTART:64.614;
#SAMPLELENGTH:21.333;
#SELECTABLE:YES;
#OFFSET:-0.614;
#BPMS:0.000=90.000
,96.000=180.000
,256.000=90.000
;
#STOPS:;
#BGCHANGES:-0.614=Triangulo [A].mp4=1.000=1=0=0=StretchNoLoop==CrossFade==,
99999.000=-nosongbg-=1.000=0=0=0=StretchNoLoop====
;
#FGCHANGES:;

//--------------- dance-single - Jenro Jupitel (2024) ----------------
#NOTES:
     dance-single:
     Jenro Jupitel (2024):
     Beginner:
     3:
     0,0,0,0,0:
0000
0000
0000
0000
,
0000
0000
0000
0000
,
0000
0000
0000
0000
,
0000
0000
0000
0000
,
1000
0000
0010
0000
,
0001
0000
0010
0000
,
0001
0000
0100
0000
,
1000
0000
0100
0000
,
0001
0000
0100
0000
,
0001
0000
0001
0000
,
1000
0000
0100
0000
,
1000
0000
1000
0000
,
0010
0000
0100
0000
,
0100
0000
1000
0000
,
0100
0000
0010
0000
,
0001
0000
0001
0000
,
1000
0000
0100
0000
,
0001
0000
0100
0000
,
1000
0000
0001
0000
,
0010
0000
0100
0000
,
1000
0000
1000
0000
,
0001
0000
0001
0000
,
0100
0000
0100
0000
,
0010
0010
0010
0000
,
0100
0000
0100
0000
,
1000
0000
1000
0000
,
0001
0000
0001
0000
,
0100
0000
0010
0000
,
0100
0000
0100
0000
,
0001
0000
0001
0000
,
1000
0000
1000
0000
,
0100
0000
0010
0000
,
0001
0000
0100
0000
,
1001
0000
0100
0000
,
1000
0000
0100
0000
,
1001
0000
0100
0000
,
0010
0000
0001
0000
,
0010
0000
0010
0000
,
0010
0000
1000
0000
,
0010
0000
0010
0000
,
1000
0000
0100
1000
,
1000
0000
0100
0001
,
0001
0000
0010
1000
,
1000
0000
0010
0001
,
0001
0000
0100
0001
,
1000
0000
0100
1000
,
0001
0000
0010
0001
,
1000
0000
0010
1000
,
0001
0000
1000
0000
,
0100
0000
0110
0000
,
1000
0000
0001
0000
,
0100
0000
0110
0000
,
0010
1000
0001
0100
,
0010
0001
1000
0100
,
1000
0000
0010
0000
,
0001
0000
0010
0000
,
0100
0000
0100
0000
,
1000
0000
1000
0000
,
0001
0000
0001
0000
,
0100
0000
0010
0000
,
0100
0000
0100
0000
,
0001
0000
0001
0000
,
1000
0000
1000
0000
,
0100
0000
0010
0000
,
0001
0100
1000
0100
,
0001
0000
0000
0000
;

//--------------- dance-single - Jenro Jupitel (2024) ----------------
#NOTES:
     dance-single:
     Jenro Jupitel (2024):
     Easy:
     4:
     0,0,0,0,0:
0000
0000
0000
0000
,
0000
0000
0000
0000
,
0000
0000
0000
0000
,
0000
0000
0000
0000
,
0100
0001
1000
0100
,
0010
0001
0010
0000
0100
1000
0100
0000
,
0010
1000
0001
0010
,
0100
0001
0100
0000
0010
1000
0010
0000
,
0100
0100
0000
0000
0001
0001
0000
0000
,
1000
1000
0000
0000
0100
0100
0000
0000
,
0010
1001
0100
0000
,
1000
0001
1000
0002
0000
0000
0003
0000
,
0010
0100
1000
0100
,
0010
0001
0100
0000
0010
1000
0100
0000
,
0100
0010
0001
0010
,
0100
1000
0010
0000
0100
0001
0010
0000
,
0010
0010
0010
0000
0001
0001
0001
0000
,
1000
1000
1000
0000
0010
0010
0010
0000
,
0100
0001
1000
0000
0100
1000
0001
0000
,
0010
0001
1000
0020
0000
0000
0000
0130
,
0001
1000
0001
1000
,
0001
1000
0001
0000
0001
1000
0001
0000
,
1000
0001
1000
0001
,
1000
0001
1000
0000
1000
0001
1000
0000
,
0010
1000
0001
0100
,
0010
0000
0000
0100
0000
0000
0010
0000
,
1000
0100
0001
0000
,
1000
0100
0001
0000
,
0100
0001
1000
0010
,
0100
0000
0000
0010
0000
0000
0100
0000
,
0001
0010
1000
0000
,
0001
0010
1000
0000
,
0001
0000
1000
0000
0010
0000
0000
0100
,
0000
0001
0000
0010
0000
0100
0000
0000
,
1000
0000
0001
0000
0100
0000
0000
0010
,
0000
1000
0000
0100
0000
0010
0000
0000
,
1000
0010
0100
0000
,
0001
0000
0000
0001
0000
0000
0001
0000
,
1000
0001
0010
0000
,
0001
1000
0010
0000
,
0010
1000
0001
0100
,
0010
0100
0010
0100
,
1000
0100
0001
1000
,
1000
0100
0001
1000
,
0100
0001
1000
0010
,
0100
0010
0100
0010
,
0001
0010
1000
0001
,
0001
0010
1000
0001
,
0001
0000
1000
0000
0010
0000
0000
0100
,
0000
0001
0000
0010
0000
0100
0000
0000
,
1000
0000
0001
0000
0100
0000
0000
0010
,
0000
1000
0000
0100
0000
0010
0000
0000
,
1000
0010
0100
0001
,
0001
1000
0001
1000
,
1000
0001
0010
0000
,
0001
1000
0010
0000
,
0100
0000
0000
0100
0000
0000
0100
0000
,
0001
0000
0000
0001
0000
0000
0001
0000
,
0010
0000
0000
0010
0000
0000
0010
0000
,
0100
0000
0000
0100
0000
0000
0100
0000
,
1000
0000
0000
1000
0000
0000
1000
0000
,
0001
0000
0000
0001
0000
0000
0001
0000
,
0001
0100
1000
0000
,
1000
0010
0001
0000
,
1000
0100
0001
0000
;

//--------------- dance-single - Jenro Jupitel (2024) ----------------
#NOTES:
     dance-single:
     Jenro Jupitel (2024):
     Medium:
     10:
     0,0,0,0,0:
0000
0000
0000
0000
,
0000
0000
0000
0000
,
0000
0000
0000
0000
,
0000
0000
0000
0000
,
0010
0100
0001
1000
,
0100
1000
1000
0000
0001
0001
0100
0000
,
1000
0001
0010
0100
,
0001
1000
1000
0000
0010
0010
0100
0000
,
1000
0100
0010
0001
1000
1000
0001
0000
,
1000
0100
0010
0001
1000
1000
0001
0000
,
0001
0100
0010
1000
0001
0001
1000
0000
,
0001
0001
1000
0020
0000
0000
0030
0000
,
0010
0010
1000
0000
0100
0100
0010
0000
,
1000
0001
0100
0000
0010
0001
1000
0000
,
1000
1000
0010
0000
0010
0010
0100
0000
,
0001
1000
0100
0000
0010
0001
1000
0000
,
0100
0100
0010
0000
1000
1000
0001
0000
,
0002
0010
0103
0000
2000
0010
3100
0000
,
0010
1000
0001
0200
0000
0000
0300
0000
,
0010
0110
0100
0001
2000
0000
3000
0000
,
0100
1100
0100
0010
,
0100
1100
0010
0001
,
0100
1100
0010
1000
,
0001
0000
0001
0000
0001
0000
0000
1001
0000
0000
0000
0000
0000
0000
0000
0000
,
1000
0010
1000
0010
0100
0001
0100
0001
,
0010
0000
0100
0010
0000
0100
0010
0000
,
0002
0100
1003
0000
,
2000
0100
3001
0000
,
0001
0010
0001
0010
0100
1000
0100
1000
,
0010
0000
0100
0010
0000
0100
0010
0000
,
2000
0100
3001
0000
,
0002
0100
1003
0000
,
0001
1000
0100
1000
0001
0100
0001
1000
,
0000
0010
0000
0010
0000
1000
0000
0100
,
0010
0001
0010
0100
0010
0001
0100
0010
,
0000
0100
0000
0100
0000
0010
0000
0000
,
1000
0001
1000
0001
0010
0100
0010
0100
,
0010
0000
0100
0010
0000
0001
1000
0100
,
0000
1000
0010
0100
0001
0000
0000
1000
,
0000
0001
0010
0100
2000
0000
0000
0000
,
3001
0010
0001
1000
0100
1000
0010
1000
,
0001
0000
0100
0001
0000
0010
0001
1000
,
0000
0100
1000
0100
1000
0000
0000
0001
,
0000
0100
0001
0100
0001
0000
0000
0000
,
1000
0010
1000
0001
0100
0001
0010
0001
,
1000
0000
0100
1000
0000
0010
1000
0001
,
0000
0100
0001
0100
0001
0000
0000
1000
,
0000
0100
1000
0100
1000
0000
0000
0000
,
0010
0100
0010
0100
0001
1000
0001
1000
,
0000
0100
0000
0010
0000
0001
0000
0001
,
0100
0010
1000
0100
0010
0001
0100
0010
,
0000
1000
0000
0001
0000
0100
0000
0001
,
0010
0100
1000
0001
0010
0100
1000
0010
,
0100
0000
0010
0100
0000
0010
0100
0001
,
0000
1000
0001
1000
0001
0000
0000
0010
,
0000
1000
0001
1000
0002
0000
0000
0000
,
0103
0000
0000
1010
0000
0000
0010
0000
,
0100
0000
0000
0101
0000
0000
0010
0000
,
0100
0000
0000
1100
0000
0000
0010
0000
,
0100
0000
0000
0011
0000
0000
0010
0000
,
1000
1000
1000
1000
0000
0000
0010
0000
,
0001
0001
0001
0001
0000
0000
0010
0000
,
0100
0100
0100
0100
0000
0000
0010
0000
,
0100
0100
0100
0100
0100
0100
0100
0100
,
0010
0000
0000
0000
0001
0000
0000
0000
1000
0000
0000
0100
0000
0000
0001
0000
;

//--------------- dance-single - Jenro Jupitel (2024) ----------------
#NOTES:
     dance-single:
     Jenro Jupitel (2024):
     Hard:
     12:
     0,0,0,0,0:
0000
0000
0000
0000
,
0000
0000
0000
0000
,
0000
0000
0000
0000
,
0000
0000
0000
0000
,
0010
0000
0000
0100
0000
0000
0000
0100
0010
0000
0000
0001
0000
0000
0000
0010
,
0000
0001
0010
0100
1000
1000
0000
0010
0000
1000
0010
0100
0001
0001
0000
0000
,
0100
0000
0000
0010
0000
0000
0000
0010
0100
0000
0000
1000
0000
0000
0000
0001
,
0000
1000
0010
0100
0001
0001
0000
1000
0000
0001
0100
0010
1000
1000
0000
0000
,
0100
0010
0100
0010
0000
0000
1000
0000
0001
0100
0001
0100
0000
0000
0001
0000
,
1000
0100
1000
0100
0000
0000
0001
0000
1000
0000
0010
0000
0100
0000
0001
0000
,
1000
0100
0010
0001
0000
0000
1000
0000
1000
0100
0010
0001
0000
0000
1000
0000
,
0002
1000
1000
0203
0000
0000
0300
0000
,
0001
0000
0000
0010
0000
0000
1100
0000
1000
0000
0000
0010
0000
0000
0100
0001
,
0000
0010
0100
0010
0001
1000
0000
0010
0000
0010
0100
0010
1000
0001
0000
0100
,
0001
0000
1000
0100
0000
0000
0010
0100
0000
0000
1000
0001
0000
0000
0000
0100
,
0000
0010
1000
0010
0100
0001
0000
0010
0000
0001
0010
0001
1000
0100
0000
0000
,
1000
0000
0000
1000
0000
0000
0101
0000
0001
0000
0000
0001
0000
0000
1100
0000
,
1000
0000
0000
1000
0000
0000
0011
0000
0001
0000
0000
0001
0000
0000
1010
0000
,
0200
0000
0000
0310
0000
0000
1001
0000
0200
0000
0000
0310
0000
0000
1001
0000
,
1000
0001
0010
0200
0000
0000
0000
1300
,
0001
0000
0000
0000
1000
0000
0000
0000
0001
0000
0000
0000
1000
0000
0000
0001
,
0100
0010
0000
1000
0000
1000
0100
0010
0000
0001
0000
1000
0000
0000
0010
0100
,
0001
0100
1000
0100
,
0001
0100
0010
0100
0001
0000
1000
0100
0000
0010
0000
0100
0000
1000
0001
0000
,
0001
0100
0001
1000
0001
0010
0001
1000
,
0100
0000
1000
0100
0000
1000
0100
0010
,
0000
0100
1000
0100
1000
0000
0100
0010
,
0000
1000
0010
1000
0010
0000
1001
0000
,
0001
1000
0100
1000
0010
0100
0001
0010
,
0001
0000
1000
0100
0000
0001
0100
0010
,
0000
0100
0010
0100
1000
0000
0100
0010
,
0000
0100
0010
0100
0001
0000
1001
0000
,
1000
0001
0100
0010
0100
0001
1000
0100
,
0000
0110
0000
0010
0000
1000
0000
0001
,
0100
0001
0010
0001
1000
0010
1000
0100
,
0000
1000
0000
1000
0000
0001
0000
0100
,
0010
1000
0001
0100
0001
0100
0001
0010
,
0001
0000
1000
0100
0000
0001
0100
0010
,
0000
0100
0001
0100
0001
0000
0000
0010
,
0000
0100
1000
0100
1000
0000
0000
0000
,
0001
0100
0001
1000
0001
0010
0001
1000
,
0100
1000
0100
1000
0100
1000
0100
0010
,
0000
0100
1000
0100
1000
0000
0110
0000
,
0001
1000
0010
1000
0010
0000
1001
0000
,
0001
1000
0100
1000
0010
0100
0001
0010
,
0001
0100
1000
0100
0001
0100
1000
0001
,
0000
0100
0010
0100
1000
0000
0000
0010
,
0000
0100
0010
0100
0001
0000
1000
0000
,
1000
0001
0100
0010
0100
0001
1000
0100
,
0000
0110
0000
0010
0000
1000
0000
0001
,
0100
0001
0010
0001
1000
0010
1000
0100
,
0000
1001
0000
1000
0000
0001
0000
0100
,
0010
1000
0001
0100
0001
0100
0001
0010
,
0001
0001
1000
0100
1000
0001
0100
0010
,
0000
0100
0001
0100
0001
0000
0000
0010
,
0000
0100
1000
0100
1000
0000
0000
0000
,
0001
1000
0010
0100
0000
0001
0100
0001
,
0100
0010
1000
0100
0000
1000
0100
1000
,
0100
0010
0001
0100
0000
0001
1000
0001
,
0100
0010
0100
0001
0000
1000
0100
0010
,
0001
0100
0010
1000
0000
0001
0100
0010
,
0100
0001
1000
0100
0000
1000
0010
0100
,
0010
0100
0001
0010
0000
0010
0100
1000
,
0010
1000
0100
0010
0001
0010
0001
0100
,
0001
0000
0000
0000
1000
0000
0000
0000
0100
0000
0000
0100
0000
0000
0001
0000
;
