#TITLE:The Spageti Song;
#SUBTITLE:;
#ARTIST:Sexbomb Girls;
#TITLETRANSLIT:;
#SUBTITLETRANSLIT:;
#ARTISTTRANSLIT:;
#GENRE:;
#CREDIT:Jenro Jupitel;
#MUSIC:The Spageti Song.ogg;
#BANNER:spageti-bn.png;
#BACKGROUND:spageti-bg.png;
#CDTITLE:;
#SAMPLESTART:36.813;
#SAMPLELENGTH:17.615;
#SELECTABLE:YES;
#OFFSET:-1.130;
#BPMS:0.000=132.838
,159.750=190.000
,160.000=132.838
;
#STOPS:;
#DISPLAYBPM:133.000;
#BGCHANGES:;
#FGCHANGES:;

//--------------- dance-single - Jenro Jupitel (2021) ----------------
#NOTES:
     dance-single:
     Jenro Jupitel (2021):
     Beginner:
     1:
     0,0,0,0,0:
0000
0000
0000
0000
,
0000
0000
0000
0000
,
0000
0000
0000
0000
,
0000
0000
0000
0000
,
0000
0000
0000
0000
,
0000
0000
0000
0000
,
0000
0000
0000
0000
,
0000
0000
0000
0000
,
0000
0000
0000
0000
,
0000
0000
0000
0000
,
0010
0000
1000
0000
,
0001
0000
0100
0000
,
1000
0000
0001
0000
,
0010
0000
0010
0000
,
0010
0000
0000
0000
,
0010
0000
0001
0000
,
1000
0000
0100
0000
,
0001
0000
1000
0000
,
0010
0000
0010
0000
,
0010
0000
0000
0000
,
0100
0000
1000
0000
,
0100
0000
0100
0000
,
0010
0000
0001
0000
,
0010
0000
0010
0000
,
0100
0000
1000
0000
,
0100
0000
0100
0000
,
0010
0000
0010
0000
,
0100
0000
0100
0000
,
0010
0000
0010
0000
,
0000
0000
0000
0000
,
0100
0000
0001
0000
,
0100
0000
0100
0000
,
0010
0000
1000
0000
,
0010
0000
0010
0000
,
0100
0000
0001
0000
,
0100
0000
0100
0000
,
0010
0000
0010
0000
,
0100
0000
0100
0000
,
0010
0000
0010
0000
,
0000
0000
0000
0000
,
0100
0000
1001
0000
,
0100
0000
0100
0000
,
0010
0000
1001
0000
,
0010
0000
0010
0000
,
0100
0000
1001
0000
,
0100
0000
0100
0000
,
0010
0000
1001
0000
,
0100
0000
1001
0000
,
0020
0030
0000
0000
;

//--------------- dance-single - Jenro Jupitel (2021) ----------------
#NOTES:
     dance-single:
     Jenro Jupitel (2021):
     Easy:
     7:
     0,0,0,0,0:
0000
0000
0000
0000
,
0000
0000
0000
0000
,
0000
0000
0000
0000
,
0000
0000
0000
0000
,
0000
0000
0000
0000
,
0000
0000
0000
0000
,
0000
0000
0000
0000
,
0000
0000
0000
0000
,
0000
0000
0000
0000
,
0000
0000
0000
0000
,
0010
0000
0001
0000
,
1000
0100
0001
0000
,
1000
0100
0001
0000
,
0002
0003
0000
0000
0002
0003
0000
0000
,
0002
0003
0000
0000
0000
0000
0000
0000
,
0010
0000
1000
0000
,
0001
0100
1000
0000
,
0001
0100
1000
0000
,
2000
3000
0000
0000
2000
3000
0000
0000
,
2000
3000
0000
0000
0000
0000
0110
0000
,
1001
0110
1001
0000
,
0000
0000
0000
0000
,
1001
0110
1001
0000
,
0000
0000
0000
0110
,
1001
0110
1001
0000
,
0000
0000
0000
0000
,
1001
0110
1001
0000
,
0100
0000
0100
0000
,
0010
1000
0001
0000
,
0000
0000
0000
0110
,
1001
0110
1001
0000
,
0000
0000
0000
0000
,
1001
0110
1001
0000
,
0000
0000
0000
0110
,
1001
0110
1001
0000
,
0000
0000
0000
0000
,
1001
0110
1001
0000
,
0100
0000
0010
0000
,
0010
1000
0001
1000
,
0001
0000
0000
0110
,
1001
0110
1001
0000
,
0000
0000
0000
0000
,
1001
0110
1001
0000
,
0000
0000
0000
0110
,
1001
0110
1001
0000
,
0000
0000
0000
0000
,
1001
0110
1001
0000
,
0100
0000
0100
0000
,
0010
0000
0000
0000
0000
0000
0000
0110
;

//--------------- dance-single - Jenro Jupitel (2021) ----------------
#NOTES:
     dance-single:
     Jenro Jupitel (2021):
     Medium:
     9:
     0,0,0,0,0:
0000
0000
0000
0000
,
0000
0000
0000
0000
,
0000
0000
0000
0000
,
0000
0000
0000
0000
,
0000
0000
0000
0000
,
0000
0000
0000
0000
,
0000
0000
0000
0000
,
0000
0000
0000
0000
,
0000
0000
0000
0000
,
0000
0000
0000
0000
,
1001
0000
0001
0000
1000
0000
0001
1000
,
0001
0000
1000
0000
0001
0000
1000
0001
,
1000
0001
1000
0002
,
1003
0002
1003
0002
,
1003
0000
0000
0000
,
0110
0000
0001
0000
1000
0000
0100
0010
,
0100
0000
1000
0000
0001
0000
0010
0100
,
0010
0001
1000
1001
,
0200
0310
0200
0310
,
0200
0300
0000
0110
,
1001
0000
0110
0000
1001
0000
0100
0100
,
0100
0000
0100
0100
0100
0000
0001
1000
,
1001
0000
0110
0000
1001
0000
0010
0010
,
0010
0000
0010
0010
0010
0000
0110
0000
,
1001
0000
0110
0000
1001
0000
0100
0100
,
0100
0000
0100
0100
0100
0000
1000
0001
,
1001
0110
1001
0110
,
0010
0000
0100
0100
0100
0000
0010
0010
,
0020
0000
0030
0000
0000
0000
0000
0001
,
0000
0000
0000
0110
,
1001
0000
0110
0000
1001
0000
0100
0100
,
0100
0010
0100
0100
0100
0000
0001
1000
,
1001
0000
0110
0000
1001
0000
0010
0010
,
0010
0100
0010
0010
0010
0000
0110
0000
,
1001
0000
0110
0000
1001
0000
0100
0100
,
0100
0010
0100
0100
0100
0000
1000
0001
,
1001
0000
0110
0000
1001
0000
0110
0010
,
0001
0100
0001
1000
0100
0000
1000
0001
,
0020
0000
0030
0000
0000
0000
0000
1001
,
0000
0000
0000
0110
,
1001
0000
0110
0000
1001
0000
0100
0001
,
0100
1000
0100
0001
0100
0000
0001
1000
,
1001
0000
0110
0000
1001
0000
0010
1000
,
0010
0001
0010
1000
0010
0000
0110
0000
,
1001
0000
0110
0000
1001
0000
0100
0001
,
0100
1000
0100
0001
0100
0000
1000
0001
,
1001
0000
0110
0000
1001
0000
0110
0010
,
0001
0010
0001
1000
0100
1000
0100
1000
,
0020
0000
0030
0000
0000
0000
0000
1001
;

//--------------- dance-single - Jenro Jupitel (2021) ----------------
#NOTES:
     dance-single:
     Jenro Jupitel (2021):
     Hard:
     11:
     0,0,0,0,0:
0000
0000
0000
0000
,
0000
0000
0000
0000
,
0000
0000
0000
0000
,
0000
0000
0000
0000
,
0000
0000
0000
0000
,
0000
0000
0000
0000
,
0000
0000
0000
0000
,
0000
0000
0000
0000
,
0000
0000
0000
0000
,
0000
0000
0000
0000
,
1001
0000
0110
0000
1001
0000
1000
0001
,
0100
0010
1000
0100
0100
0000
0001
1000
,
0010
0100
0001
0010
0010
0000
1100
0000
,
0101
1100
0101
1100
,
2001
0000
3001
0001
1000
0000
0000
0000
,
1001
0000
0110
0000
1001
0000
1000
0010
,
0100
0001
0001
0010
0010
0000
0001
0100
,
0010
1000
1000
0100
0100
0000
1100
0000
,
0101
1100
0101
1100
,
1001
0000
0000
0000
0000
0000
0100
0010
,
1001
1000
0110
0100
1001
0000
1000
0100
,
0100
1000
0100
0100
0100
0000
0100
0010
,
1001
0001
0110
0010
1001
0000
0001
0010
,
0010
0001
0010
0010
0010
0000
0100
0010
,
1001
1000
0110
0100
1001
0000
1000
0100
,
0001
0100
1000
0100
0001
0000
0010
0100
,
1001
0001
0110
0010
2002
3003
0010
0100
,
1001
1000
0110
0100
2002
3003
0110
0010
,
2002
0003
3001
0000
0001
1000
0000
0010
,
0000
0000
0000
0000
0000
0000
0100
0010
,
1001
1000
0110
0100
1001
0000
1000
0100
,
0100
1000
0100
0100
0100
0000
0100
0010
,
1001
0001
0110
0010
1001
0000
0001
0010
,
0010
0001
0010
0010
0010
0000
0100
0010
,
1001
1000
0110
0100
1001
0000
1000
0100
,
0001
0100
1000
0100
0001
0000
0010
0100
,
1001
0001
0110
0010
2002
3003
0010
0100
,
1001
1000
0110
0100
2002
3003
0110
0010
,
2002
0003
3001
0000
0001
1000
0000
0110
,
0000
0000
0000
0000
0000
0000
0100
0010
,
1001
1000
0110
0100
1001
0000
1000
0100
,
0100
1000
0100
0100
0100
0000
0100
0010
,
1001
0001
0110
0010
1001
0000
0001
0010
,
0010
0001
0010
0010
0010
0000
0100
0010
,
1001
1000
0110
0100
1001
0000
1000
0100
,
0001
0100
1000
0100
0001
0000
0010
0100
,
1001
0001
0110
0010
2002
3003
0010
0100
,
1001
1000
0110
0100
2002
3003
0110
0010
,
2002
0003
3001
0000
0001
1000
0000
0220
,
0000
0330
0000
0000
0000
0000
0000
0000
;

//--------------- dance-double - Jenro Jupitel (2021) ----------------
#NOTES:
     dance-double:
     Jenro Jupitel (2021):
     Challenge:
     12:
     0,0,0,0,0:
00000000
00000000
00000000
00000000
,
00000000
00000000
00000000
00000000
,
00000000
00000000
00000000
00000000
,
00000000
00000000
00000000
00000000
,
00000000
00000000
00000000
00000000
,
00000000
00000000
00000000
00000000
,
00000000
00000000
00000000
00000000
,
00000000
00000000
00000000
00000000
,
00000000
00000000
00000000
00000000
,
00000000
00000000
00000000
00000000
,
10010000
00000000
01100000
00000000
10010000
00000000
10000000
00010000
,
01000000
00100000
10000000
01000000
01000000
00000000
00010000
10000000
,
00100000
01000000
00010000
00100000
00100000
00000000
11000000
00000000
,
01010000
11000000
01010000
11000000
,
10010000
00000000
00100000
00001000
00010000
00000000
00001000
00000000
,
00001001
00000000
00000110
00000000
00001001
00000000
00000001
00000010
,
00000100
00001000
00001000
00000010
00000010
00000000
00001000
00000100
,
00000010
00000001
00000001
00000100
00000100
00000000
00000101
00000000
,
00001100
00000101
00001100
00000101
,
00001001
00000000
00000000
00000000
00000000
00000000
00000100
00000010
,
00001001
00000001
00000110
00000100
00001001
00000000
00000001
00000100
,
00000100
00000001
00000100
00000100
00000100
00000000
00000100
00000010
,
00001001
00001000
00000110
00000010
00001001
00000000
00001000
00000010
,
00000010
00001000
00000010
00000010
00000010
00000000
00000100
00000010
,
00001001
00000001
00000110
00000100
00001001
00000000
00000001
00000100
,
00001000
00000100
00000001
00000100
00001000
00000000
00000010
00000100
,
00001001
00001000
00000110
00000010
00002002
00003003
00000010
00000100
,
00001001
00000001
00000110
00000100
00002002
00003003
00000110
00000010
,
00002002
00003000
00001003
00000000
00001000
00000001
00000000
00000010
,
00000000
00000000
00000000
00000000
00000000
00000000
01000000
00100000
,
10010000
10000000
01100000
01000000
10010000
00000000
10000000
01000000
,
01000000
10000000
01000000
01000000
01000000
00000000
01000000
00100000
,
10010000
00010000
01100000
00100000
10010000
00000000
00010000
00100000
,
00100000
00010000
00100000
00100000
00100000
00000000
01000000
00100000
,
10010000
10000000
01100000
01000000
10010000
00000000
10000000
01000000
,
00010000
01000000
10000000
01000000
00010000
00000000
00100000
01000000
,
10010000
00010000
01100000
00100000
20020000
30030000
00100000
01000000
,
10010000
10000000
01100000
01000000
20020000
30030000
01100000
00100000
,
20020000
00030000
30010000
00000000
00010000
10000000
00000000
01100000
,
00000000
00000000
00000000
00000000
00000000
00000000
00000100
00000010
,
00001001
00000001
00000110
00000100
00001001
00000000
00000001
00000100
,
00000100
00000001
00000100
00001000
00010000
00000000
01000000
00100000
,
10010000
00010000
01100000
00100000
10010000
00000000
00010000
00100000
,
00100000
00010000
00100000
00010000
00001000
00000000
00000100
00000010
,
00001001
00000001
00000110
00000100
00001001
00000000
00000001
00000100
,
00001000
00000100
00001000
00010000
01000000
00000000
00100000
01000000
,
10010000
00010000
01100000
00100000
00202000
00303000
00010000
00000100
,
00001001
00000001
00000110
00000100
00022000
00033000
01100000
00100000
,
20020000
00030000
30010000
00000000
00100000
00001000
00000000
00022000
,
00000000
00033000
00000000
00000000
00000000
00000000
00000000
00000000
00000000
00000000
00000000
00000000
00000000
00000000
00000000
00000000
;
