#TITLE:Tayo'y Magsayawan;
#SUBTITLE:;
#ARTIST:Daisy Reyes;
#TITLETRANSLIT:;
#SUBTITLETRANSLIT:;
#ARTISTTRANSLIT:;
#GENRE:Dance;
#CREDIT:Jenro;
#MUSIC:Tayo'y Magsayawan.ogg;
#BANNER:TayoyMagsayawan-bn.jpg;
#BACKGROUND:TayoyMagsayawan-bg.jpg;
#CDTITLE:;
#SAMPLESTART:48.542;
#SAMPLELENGTH:23.412;
#SELECTABLE:YES;
#OFFSET:-1.962;
#BPMS:0.000=123.013;
#STOPS:;
#BGCHANGES:;
#FGCHANGES:;

//--------------- dance-single - Jenro (2021) ----------------
#NOTES:
     dance-single:
     Jenro (2021):
     Beginner:
     3:
     0,0,0,0,0:
0000
0000
0000
0000
,
0000
0000
0000
0000
,
0000
0000
0000
0000
,
0000
0000
0000
0000
,
0001
0000
1000
0000
,
0001
1000
0100
0000
,
1000
0000
0001
0000
,
1000
0001
0100
0000
,
0001
0000
1000
0000
,
0001
1000
0100
0000
,
1000
0000
0001
0000
,
1000
0001
0100
0000
,
0100
0000
0001
0000
,
0100
0000
1000
0000
,
0100
0000
0001
0000
,
0100
0000
1000
0000
,
0001
0000
0010
0000
,
1000
0000
0010
0000
,
0001
0000
0010
0000
,
1000
0000
0010
0000
,
2000
3000
0100
0000
,
0002
0003
0100
0000
,
1000
0000
0100
0000
,
0001
0000
0100
0000
,
0100
0100
0010
0000
,
1000
0001
0010
0000
,
0001
1000
0100
0001
,
0100
1000
0010
0000
,
0100
0100
0010
0000
,
0001
1000
0100
0000
,
0001
0010
1000
0010
,
0001
0010
1000
0000
,
1000
0000
0001
0000
,
2002
0000
0000
3003
0000
0000
0000
0000
,
0010
0010
0010
1000
,
2000
0000
0000
3000
0000
0000
0000
0000
,
1000
0000
0001
0000
,
0100
0000
0001
0000
,
0001
0000
1000
0000
,
0100
0000
1000
0000
,
0000
0100
0000
0010
,
0000
1000
0000
0010
,
0001
1000
0100
0001
,
0100
1000
0010
0000
,
0000
0100
0000
0010
,
0000
0001
0000
1000
,
0001
0010
1000
0010
,
2002
0000
0000
3003
,
1010
0000
0110
0000
,
0202
0000
0000
0303
0000
0000
0000
0000
,
0010
0001
0001
1000
,
2000
0000
0000
3000
0000
0000
0000
0000
,
0100
0100
0010
0010
,
1000
0000
0001
0000
0200
0300
0000
0000
,
0100
0100
0010
0010
,
0001
0000
1000
0000
0200
0300
0000
0000
,
0100
0100
0010
0010
,
1000
0000
0001
0000
0200
0300
0000
0000
,
0100
0100
0010
0010
,
0001
0000
1000
0000
0200
0300
0000
0000
,
0010
0000
0001
0000
,
0200
0000
0000
0300
0000
0000
0000
0000
,
0001
0001
0001
0000
;

//--------------- dance-single - Jenro (2021) ----------------
#NOTES:
     dance-single:
     Jenro (2021):
     Easy:
     5:
     0,0,0,0,0:
0000
0000
0000
0000
,
0000
0000
0000
0000
,
0000
0000
0000
0000
,
0000
0000
0000
0000
,
1000
0001
1000
0010
,
0001
1000
0001
0100
,
1000
0001
1000
0010
,
0001
1000
0001
0100
,
1000
0001
1000
0010
,
0001
1000
0001
0100
,
1000
0001
1000
0010
,
0001
1000
0001
0100
,
0200
0301
1000
0200
,
2300
3002
2003
3002
,
0203
0301
0200
0310
,
0200
0301
0200
0310
,
0020
1030
0001
0020
,
0032
2003
3002
2003
,
3020
1030
0020
0130
,
0020
1030
0020
0130
,
1000
1010
0002
0003
,
0001
0011
2000
3000
,
1000
1010
0001
0011
,
2000
3002
2003
3002
,
1003
0001
1000
0010
,
0001
1000
0001
0100
,
1000
1010
0001
0101
,
2000
3100
0002
0013
,
1000
0001
1000
0010
,
0001
1000
0001
0100
,
1000
1010
0001
0101
,
2000
3100
0002
0013
,
2020
3030
0000
0000
0220
0330
0000
0000
,
0102
1000
1000
1003
,
0011
0002
1000
1000
,
2003
3100
0002
0103
,
1000
0001
1000
0010
,
0001
1000
0001
0100
,
1000
0001
1000
0010
,
0001
1000
0001
0100
,
0200
0301
1000
0200
,
2300
3002
2003
3002
,
0203
0301
0200
0310
,
0200
0301
0200
0310
,
0020
1030
0001
0020
,
0032
2003
3002
2003
,
3020
1030
0020
0130
,
0020
1030
0020
0130
,
2020
3030
0000
0000
0220
0330
0000
0000
,
0102
1000
1000
1003
,
0011
0002
1000
1000
,
2003
0010
0010
3010
,
1000
0001
1000
0010
,
0001
1000
0001
0100
,
1000
1010
0001
0101
,
2000
3100
0002
0013
,
1000
0001
1000
0010
,
0001
1000
0001
0100
,
1000
1010
0001
0101
,
2000
3100
0002
0013
,
2020
3030
0000
0000
0220
0330
0000
0000
,
0102
1000
1000
1003
,
0011
0001
1000
0000
;

//--------------- dance-single - Jenro (2021) ----------------
#NOTES:
     dance-single:
     Jenro (2021):
     Medium:
     10:
     0,0,0,0,0:
0000
0000
0000
0000
,
0000
0000
0000
0000
,
0000
0000
0000
0000
,
0000
0000
0000
0000
,
1000
1000
0010
0000
0001
0010
0000
0001
,
1000
1000
0010
0000
0001
0100
1000
0100
,
0001
0001
0010
0000
1000
0010
0000
1000
,
0001
0001
0010
0001
0100
1000
0100
0001
,
1000
1000
0010
0000
0001
0010
0000
0001
,
1000
1000
0010
0000
0001
0100
1000
0100
,
0001
0001
0010
0000
1000
0010
0000
1000
,
0001
0001
0010
0001
0100
1000
0100
0001
,
0100
0100
0001
0000
1000
0100
0001
0000
,
0100
0100
0001
0000
1000
0100
0001
0000
,
0100
0001
0001
0000
1000
0001
0001
0000
,
0100
0001
0001
0000
1000
0001
0001
0000
,
0100
0100
1000
0000
0001
0100
1000
0000
,
0100
0100
1000
0000
0001
0100
1000
0000
,
0100
1000
1000
0000
0001
1000
1000
0000
,
0100
1000
1000
0000
0001
1000
1000
0000
,
0001
1000
0100
1000
0000
0010
0110
0000
,
0100
0001
0100
0001
0000
0010
0110
0000
,
0010
0010
0010
0010
0100
0100
1000
0001
,
1000
0100
0010
0001
1000
0100
0010
0001
,
1000
0100
1000
0100
1000
0100
1001
0000
,
1000
0100
1000
0100
1000
0100
1001
0000
,
0001
0100
1001
0000
0001
0100
1001
0000
,
0001
0100
1000
0100
0001
0100
1000
0000
,
0001
0100
0001
0100
0001
0100
1001
0000
,
0001
0100
0001
0100
0001
0100
1001
0000
,
1000
0100
1001
0000
1000
0100
1001
0000
,
1000
0100
0001
0100
1000
0100
0001
1000
,
0010
1000
1010
0000
0100
0010
0110
0000
,
0101
0001
0001
1000
0001
0001
0001
0000
,
0010
0010
0010
1000
1000
0001
1000
1000
,
1001
0100
0001
0000
1000
0001
0000
0110
,
0010
0001
0010
0001
1000
0100
1000
0100
,
0010
0001
0010
0001
1000
0100
1000
0100
,
0010
1000
0010
1000
0001
0100
0001
0100
,
0010
1000
0010
1000
0001
0100
0001
0100
,
0020
1030
0200
1300
,
0020
1030
0200
1300
,
0001
0100
0101
0000
1000
0100
1100
0000
,
0100
0100
0100
0100
0100
0100
0100
0000
,
0020
0031
0200
0301
,
0020
0031
0200
0301
,
1000
0100
1100
0000
0001
0100
0101
0000
,
0100
0100
0100
0100
0100
0100
0100
0001
,
0010
1000
1010
0000
0100
0010
0110
0000
,
0101
0001
0001
1000
0001
0001
0001
0000
,
0010
0010
0010
1000
1000
0001
1000
1000
,
1001
0100
0001
0000
1000
0001
0000
0110
,
0001
0100
0001
0100
0001
0100
1001
0000
,
0001
0100
0001
0100
0001
0100
1001
0000
,
1000
0100
1001
0000
1000
0100
1001
0000
,
1000
0100
0001
0100
1000
0100
0001
0000
,
1000
0100
1000
0100
1000
0100
1001
0000
,
1000
0100
1000
0100
1000
0100
1001
0000
,
0001
0100
1001
0000
0001
0100
1001
0000
,
0001
0100
1000
0100
0001
0100
1000
0001
,
0010
0011
0100
0110
,
1100
1000
1000
0000
1000
1000
1000
0000
,
0010
0010
0001
0000
;

//--------------- dance-single - Jenro (2021) ----------------
#NOTES:
     dance-single:
     Jenro (2021):
     Hard:
     13:
     0,0,0,0,0:
0000
0000
0000
0000
,
0000
0000
0000
0000
,
0000
0000
0000
0000
,
0000
0000
0000
0000
,
0100
0000
1000
0000
0010
0000
0000
0100
0001
0000
1000
0000
0010
1000
0010
0000
,
0100
0000
0001
0000
0010
0000
0000
0100
1000
0000
0001
0000
0010
0001
0010
0000
,
0010
0000
0001
0000
0100
0000
0000
0010
1000
0000
0001
0000
0100
0001
0100
0000
,
0010
0000
1000
0000
0100
0000
0000
0010
0001
0000
1000
0000
0100
1000
0100
0000
,
1000
0000
0001
0000
0100
0000
0000
0001
1000
0000
0010
0000
1000
0010
0100
0000
,
0010
0000
0010
0000
0100
0000
0000
0001
0100
0000
1000
0000
0001
1000
0010
0000
,
1000
0000
0001
0000
0010
0000
0000
0001
1000
0000
0100
0000
1000
0100
0010
0000
,
0100
0010
0100
0010
0100
1000
0001
1000
0100
0010
0100
0010
0100
1000
0001
1000
,
0001
0100
0010
1000
0001
0100
0010
1000
,
1000
0100
0010
0001
1000
0100
0010
0001
,
1000
1000
1001
0001
0001
0001
0101
0001
,
0001
0001
0011
0001
0001
0001
0101
0001
,
1000
0010
0100
0001
1000
0010
0100
0001
,
0001
0010
0100
1000
0001
0010
0100
1000
,
0001
0001
1001
1000
1000
1000
1010
1000
,
1000
1000
1100
1000
1000
1000
1010
1000
,
0010
0100
0001
0000
0100
0000
0010
0000
0100
0010
1000
0000
0001
0000
1000
0000
,
0100
0010
0001
0000
0010
0000
0100
0000
0010
0100
1000
0000
0001
0000
1000
0000
,
0010
0100
0001
0000
0100
0000
0010
0000
0100
0010
1000
0000
0001
0000
1000
0000
,
0100
0010
0100
0010
0100
1000
0001
1000
0100
0010
0100
0010
0100
1000
0001
1000
,
0010
0100
0110
0100
0001
0010
0110
0100
,
0100
0010
0110
0010
0001
0100
0110
0010
,
1000
1100
1001
0100
0001
0101
1001
0100
,
0010
0100
0010
0100
0010
0000
1001
0000
0010
0100
0010
0100
0010
0000
1001
0000
,
0100
0010
0110
0010
0001
0100
0110
0010
,
0010
0100
0110
0100
0001
0010
0110
0100
,
1000
1010
1001
0010
0001
0011
1001
0010
,
0100
0010
0100
0010
0100
1000
0001
1000
0100
0010
0100
0010
0100
1000
0001
1000
,
0100
0010
0001
1000
0100
1000
0010
0100
,
0010
0100
0001
1000
0010
1000
0100
0010
,
0010
0100
1000
0001
0010
0001
0100
0010
,
0100
0010
1000
0001
0100
0001
0010
0100
,
1000
0000
1000
0000
1000
1000
1000
1000
,
0001
0000
0001
0000
0001
0001
0001
0001
,
1000
0000
1000
0000
1000
1000
1000
1000
,
0001
1000
0001
1000
0001
0001
0001
0001
,
0002
0000
0103
0000
0010
0100
1000
0000
,
2000
0000
3100
0000
0010
0100
1000
0000
,
0102
0013
2100
3010
,
1002
1000
1003
0001
2001
0001
3001
1000
,
0002
0000
0013
0000
0100
0010
1000
0000
,
2000
0000
3010
0000
0100
0010
1000
0000
,
0012
0103
2010
3100
,
1000
0001
1000
0001
1000
0001
1000
0001
1000
0001
1000
0001
1000
0000
1000
0000
,
0100
0010
0001
1000
0100
1000
0010
0100
,
0010
0100
0001
1000
0010
1000
0100
0010
,
0010
0100
1000
0001
0010
0001
0100
0010
,
0100
0010
1000
0001
0100
0001
0010
0100
,
0010
0100
0110
0100
0001
0010
0110
0100
,
0100
0010
0110
0010
0001
0100
0110
0010
,
1000
1100
1001
0100
0001
0101
1001
0100
,
0010
0100
0010
0100
0010
0000
1001
0000
0010
0100
0010
0100
0010
0000
1001
0000
,
0100
0010
0110
0010
0001
0100
0110
0010
,
0010
0100
0110
0100
0001
0010
0110
0100
,
1000
1010
1001
0010
0001
0011
1001
0010
,
0100
0010
0100
0010
0100
1000
0001
1000
0100
0010
0100
0010
0100
1000
0001
1000
,
0100
0100
0100
0100
,
1000
0100
1000
0100
,
1000
0000
0000
0000
;

//--------------- dance-double - Jenro (2021) ----------------
#NOTES:
     dance-double:
     Jenro (2021):
     Challenge:
     9:
     0,0,0,0,0:
00000000
00000000
00000000
00000000
,
00000000
00000000
00000000
00000000
,
00000000
00000000
00000000
00000000
,
00000000
00000000
00000000
00000000
,
00001000
01000000
00100000
00000000
00010000
00001000
00010000
00001000
,
00010000
00000100
00000010
00000000
00001000
00010000
00001000
00010000
,
00001000
01000000
00100000
00000000
00010000
00001000
00010000
00001000
,
00010000
00000100
00000010
00000000
00001000
00010000
00001000
00010000
,
00001000
01000000
00001000
00000000
00010000
00000100
00000010
00000001
,
00000100
00001000
00000100
00000000
00001000
00010000
00001000
00001000
,
00010000
00000010
00010000
00000000
00001000
00100000
01000000
10000000
,
00100000
00010000
00100000
00000000
00010000
00001000
00010000
00010000
,
00002000
00000000
00103000
00010000
01000000
00000000
01100000
00000000
,
02000000
00000000
03010000
00100000
00001000
00000000
00011000
00000000
,
00020000
00000000
00030010
00001000
00000100
00000000
00000110
00000000
,
00000200
00000000
00001300
00000010
00010000
00000000
00011000
00000000
,
00001000
00010000
00001000
00100000
00000000
00001000
01000000
00000000
,
00010000
00001000
00010000
00000010
00000000
00010000
00000100
00000000
,
00010000
00001000
00101000
00000000
00001000
00010000
00010010
00000000
,
00010000
00001000
00101000
00000000
00001000
00010000
00010010
00000000
,
00001000
00100000
01000000
10000000
01000000
01000000
01000000
00000000
,
10000000
00100000
01000000
00010000
01000000
01000000
01000000
00000000
,
00010000
00000010
00000100
00000001
00000100
00000100
00000100
00000000
,
00000001
00000010
00000100
00001000
00000100
00000100
00000100
00000000
,
00010000
00001000
00010000
00100000
00000000
00001000
01000000
00000000
,
01000000
00010000
01000000
00010000
00000000
00001000
00010000
00000000
,
00001000
00010000
00000010
00000000
00010000
00001000
01000000
00000000
,
00001000
00010000
00001000
00010000
00001000
00010000
00001000
00000000
,
00001000
00010000
00001000
00000010
00000000
00010000
00000100
00000000
,
00000100
00001000
00000100
00001000
00000000
00010000
00001000
00000000
,
00010000
00001000
00100000
00000000
00001000
00010000
00000100
00000000
,
00010000
00001000
00010000
00001000
00010000
00001000
00010000
00000000
,
00110000
00001000
00011000
00010000
,
00010100
00000000
00000100
00000000
00010000
00001000
01000000
00000000
,
00100000
01000000
00010000
00000000
10000000
00100000
00010000
00000000
,
10000000
00100000
00010000
00100000
00010000
00100000
00001000
00000000
,
00010000
00010000
00001000
00001000
,
00010000
00010000
00001000
00001000
,
00010000
00010000
00001000
00001000
,
00010000
00001000
00010000
00001000
00010000
00001000
00010000
00001000
,
00001000
00010000
00001000
00000100
00000000
00010000
00000010
00000000
,
00000010
00001000
00000010
00001000
00000000
00010000
00001000
00000000
,
00010000
00001000
01000000
00000000
00001000
00010000
00000010
00000000
,
00010000
00001000
00010000
00001000
00010000
00001000
00010000
00000000
,
00010000
00001000
00010000
01000000
00000000
00001000
00100000
00000000
,
00100000
00010000
00100000
00010000
00000000
00001000
00010000
00000000
,
00001000
00010000
00000100
00000000
00010000
00001000
00100000
00000000
,
00001000
00010000
00001000
00010000
00001000
00010000
00001000
00000000
,
00001100
00010000
00011000
00001000
,
00101000
00000000
00100000
00000000
00001000
00010000
00000010
00000000
,
00000100
00000010
00001000
00000000
00000001
00000100
00001000
00000000
,
00000001
00000100
00001000
00000100
00001000
00000100
00010000
00000000
,
00010000
00001000
00010000
00100000
00000000
00001000
01000000
00000000
,
01000000
00010000
01000000
00010000
00000000
00001000
00010000
00000000
,
00001000
00010000
00000010
00000000
00010000
00001000
01000000
00000000
,
00001000
00010000
00001000
00010000
00001000
00010000
00001000
00000000
,
00001000
00010000
00001000
00000010
00000000
00010000
00000100
00000000
,
00000100
00001000
00000100
00001000
00000000
00010000
00001000
00000000
,
00010000
00001000
00100000
00000000
00001000
00010000
00000100
00000000
,
00010000
00001000
00010000
00001000
00010000
00001000
00010000
00000000
,
00110000
00001000
00011000
00010000
,
00010100
00000000
00000100
00000000
00010000
00001000
01000000
00000000
,
00100000
01000000
00010000
00000000
10000000
00000000
00000000
00000000
;
