#TITLE:Tala;
#SUBTITLE:;
#ARTIST:Sarah Geronimo;
#TITLETRANSLIT:;
#SUBTITLETRANSLIT:;
#ARTISTTRANSLIT:;
#GENRE:;
#CREDIT:;
#MUSIC:Tala.ogg;
#BANNER:Tala-bn.jpg;
#BACKGROUND:Tala-bg.jpg;
#CDTITLE:;
#SAMPLESTART:68.690;
#SAMPLELENGTH:19.590;
#SELECTABLE:YES;
#OFFSET:-0.123;
#BPMS:0.000=98.007;
#STOPS:;
#BGCHANGES:;
#FGCHANGES:;

//--------------- dance-single - Jenro (2021) ----------------
#NOTES:
     dance-single:
     Jenro (2021):
     Beginner:
     1:
     0,0,0,0,0:
0000
0000
0000
0000
,
0000
0000
0000
0000
,
0000
0000
0000
0000
,
0000
0000
0000
0000
,
0000
0002
0003
2000
,
3000
0002
0000
0003
,
2000
3000
0002
0003
,
0100
0100
0200
0300
,
1000
0000
0100
0000
,
1000
0000
0001
0000
,
0001
0000
0100
0000
,
0001
0000
1000
0000
,
0010
0000
1000
0000
,
0010
0000
0001
0000
,
0010
0000
0001
0000
,
0010
0000
1000
0000
,
1001
0000
0000
0000
,
0200
0000
0300
0000
,
0010
0000
0100
0000
,
0001
1000
0001
0000
,
0110
0000
0000
0000
,
1000
0000
1000
0000
,
0001
0000
0001
0000
,
0001
0000
0001
0000
,
1001
0000
0000
0000
,
0100
0000
0100
0000
,
0010
0000
0001
0000
,
0001
0000
0001
0000
,
1000
0000
0010
0000
,
0010
0000
0010
0000
,
2000
3000
0002
0003
,
0100
0100
0200
0300
,
0000
0002
0003
2000
,
3000
0002
0000
0003
,
2000
3000
0002
0003
,
0100
0100
0200
0300
,
0010
0000
0200
0000
,
0310
0000
0200
0000
,
0310
0000
0001
0000
,
0010
0000
1000
0000
,
0200
0000
0320
0000
,
2030
0000
3002
0000
,
1003
0000
0001
0000
,
0100
0000
0200
0000
,
0300
0000
0000
0000
;

//--------------- dance-single - Jenro (2021) ----------------
#NOTES:
     dance-single:
     Jenro (2021):
     Easy:
     3:
     0,0,0,0,0:
0000
0000
0000
0000
,
0000
0000
0000
0000
,
0000
0000
0000
0000
,
0000
0000
0000
0000
,
0000
0002
0013
2000
,
3010
0002
0020
0033
,
2000
3100
0002
0103
,
0010
1001
0200
0300
,
1000
0001
0100
0010
,
1000
1000
0001
0100
,
0001
1000
0100
0010
,
0001
0001
1000
0100
,
0010
0010
1000
0100
,
0010
0010
0001
0100
,
0010
0010
0001
0100
,
0010
0010
1000
0100
,
1001
0000
0000
0000
,
0200
0000
0300
0000
,
0020
0000
0230
0000
,
0301
1000
0001
0000
,
0110
0000
0000
0000
,
1000
1000
1000
1000
,
0001
0010
0001
0010
,
0001
0001
0001
0001
,
1001
0000
0000
0000
,
0100
0100
0100
0100
,
0010
1000
0001
0100
,
0001
0001
0001
0010
,
1000
0002
0013
2000
,
3010
0002
0020
0033
,
2000
3100
0002
0103
,
0010
1001
0200
0300
,
0000
0002
0013
2000
,
3010
0002
0020
0033
,
2000
3100
0002
0103
,
0010
1001
0200
0300
,
0010
1000
0200
0001
,
0310
1000
0200
0001
,
2300
3010
0002
0013
,
1000
0100
0001
0010
,
0200
0000
0320
0000
,
2030
0000
3002
0000
,
1003
0010
0001
0010
,
0100
0100
0100
0020
,
0030
0000
0000
0000
;

//--------------- dance-single - Jenro (2021) ----------------
#NOTES:
     dance-single:
     Jenro (2021):
     Medium:
     4:
     0,0,0,0,0:
0000
0000
0000
0000
,
0000
0000
0000
0000
,
0000
0000
0000
0000
,
0000
0000
0000
0000
,
0002
1000
0013
2000
,
3010
0002
0020
0033
,
0110
0100
0100
1001
,
0200
0310
0220
0330
,
1000
0001
0100
0001
,
2000
0010
3002
0010
,
2003
0100
0001
0100
,
3002
0100
1000
0100
,
2003
0010
3002
0010
,
2003
0100
0001
0010
,
3002
0100
1000
0010
,
1003
0010
1001
0100
,
2002
0000
3003
0000
,
0220
0000
0330
0000
,
0012
1003
2010
3001
,
0100
0010
0100
0010
0200
0000
0000
0000
,
0301
0000
0000
0000
,
1100
0101
1001
0020
,
0230
0000
0000
0300
,
0101
1100
0002
1003
,
0220
0000
0000
0330
,
1100
0101
1001
0010
,
1001
0000
1000
0000
0001
1000
0001
0000
,
1000
0001
0010
0100
,
1000
0010
1001
0010
,
1001
0100
1001
0100
,
1000
0010
0001
0100
,
2000
0100
0001
3010
,
1000
0010
1001
0100
,
1001
0010
1001
0100
,
0001
0010
1000
0100
,
0002
0100
1000
0013
,
0001
0000
0001
1000
0001
0000
1000
0000
,
0001
0000
0010
0010
0010
0000
0100
0000
,
0010
0100
0010
0100
,
0001
0100
0010
1000
,
0001
0100
0100
0100
,
0010
1000
1000
1000
,
0100
0010
0100
0001
,
1000
1100
0010
0220
,
0330
0000
0000
0000
;

//--------------- dance-single - Jenro (2021) ----------------
#NOTES:
     dance-single:
     Jenro (2021):
     Hard:
     5:
     0,0,0,0,0:
0000
0000
0000
0000
,
0000
0000
0000
0000
,
0000
0000
0000
0000
,
0000
0000
0000
0000
,
0000
2000
3010
0002
,
0013
2000
0001
3100
,
0020
0100
1030
0100
,
0020
0100
0031
0100
,
1000
0001
0020
0000
0130
0000
1000
0000
,
0100
0010
0002
0000
0103
0010
2000
0000
,
3001
0100
0002
0000
1000
0000
0103
0000
,
1000
0100
2000
0000
0001
0000
3100
0000
,
0010
0010
0010
0000
0100
0001
1000
0000
,
0100
0100
0100
0000
0010
1000
0001
0000
,
1000
0010
0100
0010
1000
0001
0010
0000
,
0001
0010
0100
0010
0001
1000
0010
0000
,
1002
0100
1000
0100
,
1003
1000
1000
0000
1000
1000
1000
0000
,
2001
0100
0001
0100
,
3001
0010
0001
1000
0200
0000
0310
0001
,
1001
0200
0000
0300
,
0010
0100
0010
0100
0001
1000
0001
1000
,
1010
0000
0000
0000
0100
0010
0010
0100
,
1000
0100
1000
0100
0010
0001
0010
0001
,
0011
0200
0000
0300
,
0010
0100
0010
0100
1000
0001
1000
0001
,
0011
0000
0000
0000
0100
0010
0010
0100
,
0001
0100
0001
0100
0010
1000
0010
1000
,
1010
2100
3010
0102
,
0013
0000
2100
0000
3001
0001
0100
0000
,
0010
1000
0001
1000
0010
0100
0001
1000
,
0100
0010
0100
0010
1000
0001
0001
1000
,
0001
1000
0000
0000
0102
0000
0000
0000
0013
0000
0000
0000
2100
0000
0000
0000
,
3010
0000
0102
0000
1003
1000
0100
0000
,
0010
0001
1000
0001
0010
0100
1000
0001
,
0100
0010
0100
0010
0001
1000
1000
0001
,
2000
0100
0001
0100
,
3002
0100
1000
0100
,
2003
0010
0001
0010
,
3002
0010
1000
0010
,
2003
3200
0320
0032
,
2003
3020
0230
0302
,
2003
0010
0001
3010
,
0002
0010
1000
0013
;

//--------------- dance-single - Jenro (2021) ----------------
#NOTES:
     dance-single:
     Jenro (2021):
     Challenge:
     11:
     0,0,0,0,0:
0000
0000
0000
0000
,
0000
0000
0000
0000
,
0000
0000
0000
0000
,
0000
0000
0000
0000
,
1000
0010
0100
0001
1000
0001
0001
0100
,
0001
0010
0100
1000
0001
1000
1000
0100
,
0010
0000
0000
0000
0000
0000
0100
0000
0000
0000
0000
0000
1000
0001
1000
0001
1000
0000
0000
0000
0010
0000
0100
0000
0000
0000
0000
0000
0001
0000
0000
0000
,
1000
0100
1000
0010
1000
0001
0100
0010
0110
0000
0000
1001
0000
0000
0011
0000
,
0001
0000
1000
0100
0010
0001
1000
0000
0010
0000
1000
0001
0100
0010
1000
0000
,
1000
0000
0001
0100
0010
1000
0001
0000
0010
0000
0001
1000
0100
0010
0001
0000
,
1000
0000
0100
1000
0100
1000
0100
0000
0001
0000
0100
0001
0100
0001
0100
0000
,
0010
0000
1000
0001
0100
0010
0010
0000
0010
0000
0001
1000
0100
0010
0010
0000
,
0010
0001
0010
0000
0100
1000
0100
0000
0010
1000
0001
0100
0010
1000
0100
0000
,
0010
1000
0010
0000
0100
0001
0100
0000
0010
0001
1000
0100
0010
0001
0100
0000
,
0010
1000
0001
0100
0010
1000
0100
0000
0010
0001
1000
0100
0010
0001
0100
0000
,
0100
0000
0000
0000
0000
0000
0001
0000
0000
1000
0000
0000
0001
0000
0000
0000
0010
0000
0000
0000
0100
0000
0000
0000
1000
0000
0000
0000
0001
0000
0000
0000
1000
0000
0000
0000
0100
0000
0000
0000
0001
0000
0000
0000
0010
0000
0000
0000
,
0110
0000
0000
0000
0010
0002
0000
0203
0000
0000
0000
0320
0000
2030
0000
3002
,
0000
0203
0000
0302
0000
2003
0000
3002
0000
0000
0013
0000
0000
0000
0000
0000
,
0100
0000
0000
0000
0100
0000
1000
0000
0000
0000
0000
0000
0010
1000
0010
1000
0010
0000
0000
0000
0001
0000
0100
0000
0000
0000
0000
0000
0010
0000
0000
0000
,
1000
0001
1000
0100
1000
0001
0010
0100
0110
0000
0000
0000
0000
0000
0011
0000
,
1001
0000
0100
0000
0010
0001
0010
0100
,
1001
0000
0100
0001
0100
0000
0100
0000
1010
0000
0010
1000
0010
0000
1000
0000
,
1001
0000
0000
0000
0000
0000
0000
0000
0100
0010
0100
0010
0100
0000
0010
0000
,
1001
0000
0000
1000
0100
0000
0001
0000
0011
0000
0000
0001
0010
0000
1100
0000
,
1001
0000
0000
0000
,
1000
0000
0001
0100
0010
0000
1000
0000
0001
0000
1000
0100
0010
0000
1000
0000
,
0001
0000
0000
0000
0000
0000
0000
0000
0010
0000
0000
0000
0000
0000
0000
0000
0100
0010
0100
0010
0100
0000
0000
0000
0010
0000
0000
0000
1001
0000
0000
0000
,
0000
0000
1000
0000
1001
0000
0001
0000
1000
0000
0000
0001
0000
0000
0100
0000
,
0010
1000
0000
0010
1000
0000
0010
0000
1000
0001
0000
1000
0001
0000
1000
0000
,
0001
0100
0000
0001
0100
0000
0001
0000
0100
0010
0000
0100
0010
0000
0100
0000
,
1000
0010
1000
0010
1000
0000
0001
0000
0100
0001
0100
0001
0100
0000
0001
0000
,
0010
0100
0010
0100
0010
0000
1000
0000
0001
0000
0000
0100
0000
0000
0010
0000
,
0001
1001
0000
0000
0001
0000
1000
0000
0001
0000
0010
0100
1000
0000
1000
0000
,
0001
0000
0100
0010
1000
0000
0001
0000
0100
0000
0001
0010
0001
0000
0100
0000
,
1000
0000
0000
0010
1000
0000
0001
0000
0100
0000
0000
0010
0100
0000
0001
0000
,
0100
0000
0000
0010
1000
0000
0001
0000
0100
0010
0000
1000
0000
0000
0001
0000
,
2000
0100
0100
0001
0001
0100
0100
0000
,
3002
0100
0100
1000
1000
0100
0100
0000
,
2003
0010
0010
0001
0001
0010
0010
0000
,
3002
0010
0010
1000
1000
0010
0010
0000
,
2003
0100
3200
0010
0320
0001
0032
0000
,
2003
0010
3020
0100
0230
0001
0302
0000
,
2003
0010
0010
0001
0001
0010
3010
0000
,
0002
0010
0010
1000
1000
0010
0013
0000
;

//--------------- dance-double - Jenro (2021) ----------------
#NOTES:
     dance-double:
     Jenro (2021):
     Challenge:
     5:
     0,0,0,0,0:
00000000
00000000
00000000
00000000
,
00000000
00000000
00000000
00000000
,
00000000
00000000
00000000
00000000
,
00000000
00000000
00000000
00000000
,
00000000
00002000
00103000
00020000
,
00030010
00020000
00001000
01030000
,
00200000
01000000
10300000
01000000
,
00200000
00000000
01000000
00000000
00310000
00001000
00011000
00000000
,
00001000
00010000
00200000
00000000
01300000
00000000
10000000
00000000
,
01000000
00100000
00020000
00000000
00030100
00000010
00002000
00000000
,
00003001
00000100
00020000
00000000
10000000
00000000
01030000
00000000
,
10000000
01000000
00002000
00000000
00000001
00000000
00003100
00000000
,
00010000
00001000
00100000
00000000
01000000
00001000
00010000
00000000
,
00001000
00010000
00000100
00000000
00000010
00010000
00001000
00000000
,
00001000
00100000
01000000
00100000
10000000
00001000
00100000
00000000
,
00010000
00000100
00000010
00000100
00010000
00000001
00000100
00000000
,
00021000
00000000
00000100
00000000
00001000
00001000
00030100
00000000
,
00010000
00001000
00001000
00000000
00001000
00010000
00010000
00000000
,
20010000
00000000
01000000
00000000
00010000
00010000
01000000
00000000
,
30010000
00100000
00010000
00001000
00000200
00000000
00000310
00001000
,
00011000
02000000
00000000
03000000
,
00100000
00000000
00000000
01000000
00100000
00000000
01000000
00000000
00010000
00000000
00000000
10000000
00010000
00000000
00100000
00000000
,
00101000
00000000
00000000
00000000
00010000
00000010
00000010
00000100
,
00010000
00000100
00001000
01000000
00100000
00010000
00100000
00010000
,
00110000
02000000
00000000
03000000
,
00100000
00000000
00000000
01000000
00100000
00000000
01000000
00000000
10000000
00000000
00000000
00001000
00010000
00000000
00001000
00000000
,
00110000
00000000
00000000
00000000
00000000
00000000
00000000
00000000
01000000
00100000
01000000
00000000
00100000
00000000
01000000
00000000
,
00001000
00000000
00010000
00000000
00001000
00000000
00010000
00000000
00001000
00000000
00000100
00000000
00001000
00000010
00001000
00000000
,
00001010
01002000
00103000
00020100
,
00030010
00000000
00000000
00000000
00012000
00000000
00000000
00000000
00013000
00010000
00000000
00100000
01000000
00000000
00000000
00000000
,
00100000
10000000
00010000
10000000
00100000
01000000
00010000
10000000
,
01000000
00100000
01000000
00100000
10000000
00010000
00010000
00001000
,
00010000
00010000
00000000
00000000
00020010
00000000
00000000
00000000
00030100
00000000
00000000
00000000
00102000
00000000
00000000
00000000
,
01003000
00000000
00021000
00000000
00031000
00001000
00000010
00000000
,
00000100
00000001
00001000
00000001
00000100
00000010
00001000
00000001
,
00000010
00000100
00000010
00000100
00000001
00001000
00001000
00000001
,
00001000
01000000
00001000
01000000
,
00020000
01000000
10000000
01000000
,
20030000
00100000
00010000
00100000
,
30002000
00000010
00010000
00000010
,
00023000
00032000
00203000
02300000
,
03002000
00023000
00030020
00000230
,
00002300
00100000
00010000
00103000
,
00020000
00000010
00001000
00030010
;
