#TITLE:Sumayaw (Sa Kanya-Kanyang Kwarto);
#SUBTITLE:;
#ARTIST:Earl Generao;
#TITLETRANSLIT:;
#SUBTITLETRANSLIT:;
#ARTISTTRANSLIT:;
#GENRE:Chill Pop;
#CREDIT:;
#MUSIC:Sumayaw.ogg;
#BANNER:Sumayaw-BN.jpg;
#BACKGROUND:Sumayaw-BG.jpg;
#CDTITLE:;
#SAMPLESTART:0.000;
#SAMPLELENGTH:0.000;
#SELECTABLE:YES;
#OFFSET:-0.193;
#BPMS:0.000=106.000;
#STOPS:;
#BGCHANGES:;
#FGCHANGES:;

//--------------- dance-single - Jenro (2021) ----------------
#NOTES:
     dance-single:
     Jenro (2021):
     Beginner:
     2:
     0,0,0,0,0:
0000
0000
0000
0000
,
0000
0000
0000
0000
,
0000
0000
0000
0000
,
0000
0000
0000
0000
,
0000
0000
1000
0000
,
0010
0000
0100
0000
,
0001
0000
1000
0000
,
0001
0000
1000
0000
,
0000
0000
0000
0000
,
0000
1000
0000
0010
,
0000
0100
0000
0001
,
0000
1000
0000
0100
,
0000
0001
0000
0100
,
0000
0001
0000
0100
,
0000
0010
0000
1000
,
0000
0100
0000
0001
,
0000
0100
0000
1000
,
0000
1000
0000
0100
,
0000
0010
0000
0001
,
0000
1000
0000
0100
,
0000
0001
0000
0100
,
0000
0001
0000
0010
,
0000
0100
0000
1000
,
0000
0001
0000
0100
,
0000
1000
0000
0100
,
0000
0001
0000
1000
,
0000
0001
0000
1000
,
0000
0001
0000
1000
,
0000
0001
0000
1000
,
1000
0000
1000
0000
,
0001
0000
1000
0000
,
0001
0000
1000
1000
,
1000
0000
0000
0000
,
0010
0000
0100
0000
,
0000
0010
0000
0001
,
0000
0100
0000
1000
,
0000
0010
0000
1000
,
0000
0100
0000
0001
,
0000
0010
0000
1000
,
0000
0100
0000
0001
,
0000
0010
0000
0001
,
0000
0100
0000
1000
,
0000
0001
0000
0001
,
0000
1000
0000
1000
,
0000
0001
0000
1000
,
0000
0001
0000
1000
,
1000
0000
1000
0000
,
0001
0000
1000
0000
,
0001
0000
1000
1000
,
1000
0000
0001
0000
,
1000
0000
0001
0000
,
1000
0000
0001
0000
,
1000
0000
0001
0001
,
0000
1000
0000
0001
,
0001
0000
1000
0000
,
0001
0000
1000
0000
,
0001
0000
1000
1000
,
1000
0000
0000
0000
;

//--------------- dance-single - Jenro (2021) ----------------
#NOTES:
     dance-single:
     Jenro (2021):
     Easy:
     4:
     0,0,0,0,0:
0000
0000
0000
0000
,
0000
0000
0000
0000
,
0000
0000
0000
0000
,
0000
0000
0000
0000
,
0000
0000
0010
0000
,
0100
0000
0001
1000
,
0010
0000
0100
0100
,
0001
0000
2000
3000
,
0000
0000
0000
0000
,
1010
0010
0100
0010
,
0001
1000
0100
0100
,
0011
0100
1000
0001
,
1000
1000
0010
0010
,
0101
0100
0010
0100
,
1000
0001
0010
0010
,
1100
0010
0001
1000
,
0001
0001
0100
0100
,
0001
0010
0001
1000
,
0100
1000
0010
0100
,
0110
0100
1001
0100
,
0010
0010
0010
0010
,
1000
0100
1000
0001
,
0010
0001
0100
0010
,
0110
0010
1001
0010
,
0100
0100
0100
0100
,
2000
3000
0001
0010
,
0200
0300
0002
0003
,
2000
3000
0001
0011
,
0001
0000
1000
1010
,
2000
3000
0001
0100
,
0020
0030
2000
3000
,
0002
0003
1000
1100
,
1000
0000
0000
0000
,
0100
0100
0000
0010
0010
0000
0000
0000
,
2000
0001
3100
0002
,
2003
0001
3010
0110
,
2002
3003
0010
0001
,
0200
0300
0010
1000
,
0200
0300
0001
0001
,
2000
3000
0010
0100
,
0200
0300
0001
1000
,
0100
0100
0000
0010
0010
0000
0000
0000
,
0002
0013
1000
0100
,
0020
0130
2000
3001
,
0002
1003
1000
1100
,
1000
0000
0001
0101
,
0002
0103
1000
0010
,
0200
0301
0002
1003
,
2000
3010
0001
0011
,
0001
0000
1000
0000
,
2000
3100
0001
0010
,
0200
0310
0002
1003
,
2000
3001
0001
0011
,
0001
0000
1000
1010
,
2000
3010
0001
0100
,
0020
1030
2000
3001
,
0002
0103
1000
1100
,
1000
0000
0002
0003
;

//--------------- dance-single - Jenro (2021) ----------------
#NOTES:
     dance-single:
     Jenro (2021):
     Medium:
     7:
     0,0,0,0,0:
0000
0000
0000
0000
,
0000
0000
0000
0000
,
0000
0000
0000
0000
,
0000
0000
0000
0000
,
0000
0000
0200
0300
,
0002
0003
2000
3000
,
0002
0003
0020
0100
,
2030
0000
0002
3003
,
0000
0000
0000
0000
,
1001
0000
1000
0001
0100
0000
0010
1000
,
0000
0000
1100
0000
0010
0001
0001
0010
,
0110
0000
0100
0000
1000
0001
1000
0200
,
0000
0310
0000
0000
0001
0001
0001
0000
,
1001
0000
1100
0000
1000
0010
0100
0002
,
0000
0000
0013
0000
0001
0001
1000
0001
,
0002
0000
0103
0000
0010
1000
0100
2000
,
0000
3001
0000
0000
1000
1000
1000
0100
,
0110
0000
0001
0000
0010
0001
1000
0100
,
0000
0000
1010
0000
0010
0010
0010
0100
,
1100
0000
0101
0000
1001
0000
0110
0002
,
0000
0000
0003
0000
1000
1000
1000
1000
,
1000
0000
0001
0000
0100
1000
0001
0020
,
0000
0000
0130
0000
1000
1000
0100
0100
,
0002
0103
2000
3100
,
0010
1001
0000
1001
0100
0000
0000
0000
,
2000
0000
3001
0010
0100
0001
0001
2000
,
0000
3010
0000
0200
0000
0301
1000
0010
,
1001
0000
0100
0000
0001
1000
1000
0002
,
0000
0000
0013
0000
0100
1000
0100
1000
,
1002
0000
0013
0100
0010
1000
1000
0002
,
0000
0103
0000
0020
0000
1030
0001
0100
,
1001
0000
0010
0000
1000
0001
0001
1000
,
0100
0000
0000
0000
,
0010
1001
0000
1001
0100
0000
0000
0000
,
1000
0100
0001
0100
1000
0000
0001
0001
,
0000
0000
0101
0000
0010
1000
0100
0001
,
0010
0000
0011
0000
1000
1000
0100
1000
,
2000
0000
0000
0000
3001
0000
0000
0100
0000
0000
0001
0000
0000
1000
0000
0000
,
0100
0000
0100
1000
0001
1000
0010
0100
,
0000
0001
0101
0000
1000
1000
1100
1001
,
0001
0000
0011
0000
0010
0100
0100
0000
,
0010
1001
0000
1001
0100
0000
0000
0000
,
0002
0000
1003
0100
0010
1000
1000
0002
,
0000
0103
0000
0020
0000
1030
0001
0100
,
1001
0000
0010
0000
1000
0001
0001
2000
,
0000
0000
3100
0000
0010
0001
0010
0001
,
2001
0000
3100
0010
0100
0001
0001
2000
,
0000
3010
0000
0200
0000
0301
1000
0010
,
1001
0000
0100
0000
0001
1000
1000
0001
,
0010
0000
0011
0000
0101
0000
1001
1000
,
1100
0000
1000
0000
0010
0100
0001
1000
,
0100
0010
0100
0001
1000
1001
0100
0010
,
0110
0000
1100
0000
0001
0100
0001
0010
,
0100
0000
1100
0000
0001
0100
0010
1000
,
0001
0000
1100
0000
1000
0010
0100
0001
,
1000
0001
0100
0010
1000
0001
0100
0010
,
0100
0100
0100
0100
0001
1000
0010
0100
,
0020
0000
0000
0230
0000
0000
0000
0000
,
0000
0000
0300
0000
;

//--------------- dance-single - Jenro (2021) ----------------
#NOTES:
     dance-single:
     Jenro (2021):
     Hard:
     10:
     0,0,0,0,0:
0000
0000
0000
0000
,
0000
0000
0000
0000
,
0000
0000
0000
0000
,
0000
0000
0000
0000
,
0100
0000
0000
0110
0000
0000
0000
0000
1000
0000
0000
0000
0001
0000
0100
0000
,
0000
1000
0000
0100
0000
0001
1000
0010
,
0100
0000
0001
0000
1000
0100
0010
0001
,
1000
0000
0000
0001
0000
0000
0100
0000
0000
0000
0010
0000
0000
0000
0000
0000
,
1000
0100
0000
0010
0100
0000
1000
0001
0000
0100
0010
0000
1000
0000
0001
0000
,
2002
3003
0100
0001
0100
0101
0100
0110
,
1000
0000
0100
0000
1000
0000
0100
0000
1000
0100
1000
0100
1000
0000
1001
0000
,
0002
0000
0000
0013
0000
0000
0000
0000
0100
0000
1001
0000
0001
0000
0110
0000
,
0010
0100
0010
0100
0001
1001
0101
0001
,
1001
0000
0010
0001
0010
0011
0010
0110
,
1000
0000
0010
0000
1000
0000
0010
0000
1000
0010
1000
0010
1000
0000
1001
0000
,
0002
0000
0000
0103
0000
0000
0000
0000
0010
0000
1000
0000
0001
0000
0010
0000
,
0100
0010
0100
0010
0001
1001
0011
0000
,
1001
0001
0001
0000
1000
0100
0001
0100
,
1000
0000
0101
0000
0001
0100
1000
0100
,
0001
0000
0000
0000
1100
0000
0000
0000
0010
0100
0010
0000
0010
0000
1001
0000
,
0010
0000
0100
0000
0000
1001
0010
0100
,
1001
0000
1000
0000
0001
0100
1000
0100
,
0000
1000
0010
0000
1000
0100
0001
0100
,
1000
0000
0010
0000
0001
0001
0011
0000
,
0001
1001
0000
1001
2000
0000
3100
0000
,
1000
0100
0010
0100
1000
0001
1000
0100
,
0001
0000
0010
0000
0100
0000
0010
0000
0001
0000
1000
0000
0001
0010
0001
0000
,
1000
0010
0100
0010
1000
0001
1000
0010
,
0001
0100
0010
0100
0001
1000
0001
0100
,
0110
0000
0000
1001
0000
0000
0000
0000
1000
0000
0001
0000
1000
0000
0100
0000
,
0001
0000
0010
0000
0100
0000
0010
0000
0001
0000
1000
0000
0001
0010
0001
0000
,
1000
0010
0100
0010
1000
0001
1000
0110
,
0001
0000
0000
0000
,
1001
1001
0000
1001
1001
0000
0000
0000
,
1000
0000
0010
0000
0100
0000
0001
0000
1000
0000
0010
1000
0010
0000
0001
0000
,
0100
0000
0001
0000
1000
0000
0100
0000
0010
0001
0010
0100
0010
0001
0010
0000
,
0011
0000
0000
0101
0000
0000
1000
0000
0100
0000
1000
0000
0001
0000
0001
0000
,
1000
0000
1000
0000
0100
0000
0010
0100
0000
0010
0001
0000
1000
0010
0000
0100
,
0010
1000
1000
0001
0100
1000
0100
0001
,
1000
0001
0100
1000
0100
0001
1000
1000
,
1001
0000
0000
0100
0000
0000
0000
0000
0010
0000
0110
0000
1000
0000
0000
0000
,
1001
0000
1001
0000
0000
0000
1001
0000
1001
0000
0001
1000
0010
0100
0001
1000
,
0100
0000
0110
0000
1000
0001
1000
0100
,
0001
0010
0100
0010
0001
1000
0001
0010
,
1010
0010
0100
0010
1000
0001
1000
0010
,
0001
0100
0010
0100
0001
1000
0001
0100
,
0110
0000
0000
1001
0000
0000
0000
0000
0001
0000
1000
0000
0001
0000
0010
0000
,
1000
0000
0100
0000
0010
0000
0100
0000
1000
0000
0001
0000
1000
0100
1000
0000
,
0001
0100
0010
0100
0001
1000
0001
0100
,
1000
0010
1000
0000
0100
0010
0100
0000
1000
0001
1000
0000
0010
0100
0010
0000
,
0110
0000
1001
0000
1000
0001
1000
0100
,
0001
0010
0100
0010
0001
1000
0001
0010
,
1000
0000
0010
0000
0100
0000
0010
0000
1000
0001
1000
0000
1000
0000
0010
0000
,
0001
0000
0100
0000
0010
0000
0100
0000
0001
1000
0001
0000
0001
0000
0100
0000
,
0110
0000
0000
1001
0000
0000
0000
0000
0001
0000
1000
0000
0001
0000
0010
0000
,
1000
0100
0010
0100
1000
0001
1000
0100
,
0001
0100
0010
0100
0001
1000
0001
0100
,
2000
0000
0000
0000
,
0000
3000
0000
0000
;

//--------------- dance-double - Jenro (2021) ----------------
#NOTES:
     dance-double:
     Jenro (2021):
     Challenge:
     10:
     0,0,0,0,0:
00000000
00000000
00000000
00000000
,
00000000
00000000
00000000
00000000
,
00000000
00000000
00000000
00000000
,
00000000
00000000
00000000
00000000
,
00000000
00000000
00000000
00000000
00001000
00000000
00010000
00100000
,
00000000
01000000
00000000
10000000
00000000
01000000
00100000
00010000
,
00001000
00000000
00000000
00000000
00000000
00000000
00000000
00001000
00010000
00000000
00000100
00000000
00001000
00000000
00010000
00000000
,
00002000
00000000
00000000
00013000
00000000
00000000
00110000
00000000
00000000
00000000
01100000
00000000
00000000
00000000
00000000
00000000
,
00001000
00010000
00000000
00001000
00010000
00000000
00001000
00010000
00000000
00001000
00010000
00000000
00011000
00000000
00010100
00000000
,
00101000
00000000
00100000
00001000
00010000
00000100
00010000
00001000
,
00000000
01000000
00001000
00000000
00010000
00000010
00001000
00000100
,
00001001
00000000
00011000
00000000
00001000
00100000
00010000
01000000
,
00000000
10000000
00000000
00000000
00010000
00101000
00010000
00101000
,
01000000
00000000
00000100
00010000
00001000
00100000
00001000
00010000
,
00000000
00000010
00010000
00000000
00001000
01000000
00010000
00100000
,
10010000
00000000
00011000
00000000
00010000
00000100
00001000
00000010
,
00000000
00000001
00000000
00000000
00001000
00010100
00001000
00010100
,
00000010
00000000
00010000
00000000
00010000
00001000
01000000
20000000
,
00000000
00000000
31000000
00000000
00100000
00010000
00011000
00010000
,
00200000
00000000
00301000
00000000
00010000
00001000
00000100
00000002
,
00000000
00000000
00000013
00000000
00000000
00001010
00011000
00011000
,
01020000
00000000
00031000
00000000
00001000
00010000
00000010
00000002
,
00000000
00000000
00000013
00000000
00000100
00001000
00011000
00001000
,
00000200
00000000
00010300
00000000
00001000
00010000
00100000
10000000
,
01100000
01100000
00000000
01010000
01010000
00000000
00002000
00000000
,
00013000
00000000
01000000
00100000
10000000
01000000
01000000
00100000
,
10000000
01000000
01000000
00100000
10000000
01000000
00010000
00001000
,
00000100
00000000
00010100
00000000
00011000
00100000
00011000
00100000
,
00000000
00000000
01010000
00000000
10000000
01000000
00010000
00001000
,
00011000
00000000
00000000
00011000
00000000
00000000
00000000
00000000
00000001
00000000
00000010
00000000
00000010
00000000
00000100
00000000
,
00000001
00000010
00000010
00000100
00000001
00000010
00001000
00010000
,
00100000
00000000
00101000
00000000
00011000
00000100
00011000
00000200
,
00000000
00000000
00000000
00000300
,
00011000
00011000
00000000
00011000
00011000
00000000
01000000
00000000
,
00100000
00010000
10000000
01000000
00100000
00010000
10000000
01000000
,
00100000
10000000
00010000
01000000
00100000
00100000
00100000
00100000
,
10010000
00000000
00011000
00000000
00001000
00000100
00000001
00000100
,
00001000
00000000
00000000
00000000
00011000
00000000
00100000
00001000
00000000
00100000
00001000
00000000
00100000
00001000
00000000
00100000
,
00002000
00000000
00013000
00000010
00000100
00001000
00000001
00000010
,
00000100
00000001
00001000
00000010
00000100
00000100
00000100
00000100
,
00001001
00000000
00011000
00000000
00010000
00100000
10000000
00100000
,
00010000
00011000
00000000
00011000
00010000
00200000
00000000
00000000
,
00301000
00000000
00000010
00000100
00000001
00000010
00000010
00000100
,
00000001
00000010
00000010
00000100
00000001
00000010
00001000
00010000
,
00100000
00000000
00101000
00000000
00011000
00000100
00011000
00000100
,
00000000
00000000
00001010
00000000
00000001
00000010
00001000
00010000
,
00011000
00000000
00000000
00011000
00000000
00000000
00000000
00000000
10000000
00000000
01000000
00000000
01000000
00000000
00100000
00000000
,
10000000
01000000
01000000
00100000
10000000
01000000
00010000
00001000
,
00000100
00000000
00010100
00000000
00011000
00100000
00011000
00100000
,
00001000
00010000
00001000
00000000
00001000
00010000
00001000
00000000
00010000
00001000
00010000
00000000
00010000
00001000
00010000
00000000
,
00011000
00000000
00000010
00000100
00000001
00000010
00000010
00000100
,
00000001
00000010
00000010
00000100
00000001
00000010
00001000
00010000
,
00100000
00000000
00101000
00000000
00011000
00000100
00011000
00000100
,
00000000
00000000
00001010
00000000
00000001
00000010
00001000
00010000
,
00011000
00000000
00000000
00011000
00000000
00000000
00000000
00000000
10000000
00000000
01000000
00000000
01000000
00000000
00100000
00000000
,
10000000
01000000
01000000
00100000
10000000
01000000
00010000
00001000
,
00000100
00000000
00010100
00000000
00011000
00100000
00011000
00100000
,
00002000
00000000
00000000
00000000
,
00003000
00000000
00000000
00000000
;
