#TITLE:Sugod;
#SUBTITLE:;
#ARTIST:Sandwich;
#TITLETRANSLIT:;
#SUBTITLETRANSLIT:;
#ARTISTTRANSLIT:;
#GENRE:;
#CREDIT:;
#MUSIC:Sugod.ogg;
#BANNER:sugod-bn.PNG;
#BACKGROUND:sugod-bg.PNG;
#CDTITLE:;
#SAMPLESTART:17.554;
#SAMPLELENGTH:12.000;
#SELECTABLE:YES;
#OFFSET:-0.397;
#BPMS:0.000=161.479
,80.000=159.000
,96.000=159.812
,112.000=161.332
,128.000=162.421
,143.500=160.000
,160.000=160.422
,176.000=159.072
,192.000=162.212
,208.000=161.479
,240.000=163.000
,264.000=163.223
;
#STOPS:;
#BGCHANGES:;
#FGCHANGES:;

//--------------- dance-single - John Earl De Juan ----------------
#NOTES:
     dance-single:
     John Earl De Juan:
     Beginner:
     2:
     0.195,0.264,0.082,0.145,0:
0000
0000
0000
0000
,
0000
0000
0000
0000
,
0000
0000
0000
0000
,
0000
0000
0000
0000
,
1000
0000
1000
0000
,
0001
0000
0001
0000
,
0010
0000
0010
0000
,
0100
0000
0100
0000
,
1000
0000
0100
0000
,
0001
0000
0100
0000
,
1000
0000
0100
0000
,
0001
0000
0010
0000
,
1001
0000
1001
0000
,
0010
0000
0010
0000
,
0100
0000
0100
0000
,
0001
0001
0001
0000
,
1000
0000
0001
0000
,
0010
0000
0010
0000
,
0100
0100
0000
0000
,
0100
0100
0000
0000
,
1000
0000
0010
0000
,
0001
0000
0100
0000
,
0010
0000
0100
0000
,
0020
0000
0000
0000
,
0030
0000
0100
0000
,
1000
0000
0010
0000
,
0001
0100
1000
0000
,
0200
0000
0000
0300
,
1001
0000
1001
0000
,
0010
0000
0100
0000
,
1001
0000
0010
0000
,
2000
0000
0000
3000
,
0001
0000
0001
0000
,
1000
1000
1000
0000
,
1000
0000
1000
0000
,
0001
0001
0001
0000
,
0020
0000
0000
0000
,
2030
0000
0000
3000
,
0002
0000
0000
0003
,
0200
0000
0000
0300
,
1000
0000
0010
0000
,
0001
0000
0100
0000
,
0010
0000
1000
0000
,
0010
0000
0001
0000
,
0100
0000
1001
0000
,
0010
0000
0100
0000
,
0010
0000
1001
0000
,
1000
0000
0001
0000
,
0000
0000
0100
0000
,
0000
0000
0100
0000
,
0010
0000
0000
0000
,
0010
0000
0000
0000
,
0010
0000
1000
0000
,
0010
0000
0001
0000
,
0100
0000
1000
0000
,
0100
0000
0001
0000
,
0002
0000
0000
0003
,
2000
0000
0000
3000
,
0002
0000
0000
0003
,
2000
0000
0000
0000
,
3010
0000
1000
0000
,
0010
0000
0001
0000
,
0100
0000
1000
0000
,
0100
0000
0001
0000
,
0020
0000
0000
0030
,
0200
0000
0000
0300
,
2000
0000
0000
3000
,
0002
0000
0000
0003
,
0100
0000
0100
0000
,
0010
0000
0010
0000
,
1000
0000
0001
0000
,
1000
0000
0001
0000
,
0200
0000
0300
0000
;

//--------------- dance-single - John Earl De Juan ----------------
#NOTES:
     dance-single:
     John Earl De Juan:
     Easy:
     5:
     0.287,0.362,0.073,0.136,0:
0000
0000
0000
0000
,
0000
0000
0000
0000
,
0000
0000
0000
0000
,
0000
0000
0000
0000
,
0010
0000
1000
0000
,
0100
0100
0100
0000
,
0001
0000
0010
0000
,
1000
1000
1000
0000
,
0010
0000
0001
0000
,
0010
0010
0010
0000
,
0001
0000
1000
0000
,
0010
0000
0020
0030
,
1000
0010
1000
0000
,
0001
0100
0001
0000
,
0010
0010
0100
0100
,
1001
0000
1001
0000
,
0010
0001
0010
0001
,
0010
1000
0010
1000
,
0010
0010
0010
0010
,
0100
0100
0100
0100
,
0001
0000
1000
0000
,
0001
0001
1000
1000
,
0010
0001
0100
1000
,
2000
0002
3000
0003
,
0100
0000
0100
0000
,
1000
0100
0001
0100
,
1000
0000
0010
0000
,
0020
0200
0030
0300
,
0100
0000
0001
0000
,
0010
0000
1000
0000
,
0001
0010
1000
0010
,
2000
0020
3000
0030
,
1000
1001
0010
0110
,
0002
0003
2000
3000
,
0010
0010
0010
0010
,
1000
0001
1000
0001
,
1000
1000
1000
2000
,
3001
0001
0001
0020
,
0130
0100
0100
0200
,
0300
1001
0000
1001
,
0010
0001
0010
0001
,
1000
0010
1000
0010
,
0100
0100
0010
0010
,
0010
0100
1000
0002
,
0003
0010
0000
1000
,
0000
0100
0100
0100
,
0000
0001
0000
0010
,
0000
1000
1000
1000
,
0000
0010
0000
0001
,
0000
0010
0010
0010
,
0001
1000
0010
0020
,
0000
0000
0000
0030
,
0100
0000
0010
0000
,
0001
0000
1000
0000
,
0010
0000
1000
0000
,
0100
0100
0100
0000
,
0001
0000
0001
0000
,
1000
0000
0010
0000
,
0001
0100
1000
0000
,
1000
0100
0001
0000
,
0010
0000
0110
0000
,
0001
0000
1001
0000
,
0100
0000
0010
0000
,
0001
0000
0100
0000
,
1000
1000
1000
0000
,
0001
0001
0001
0000
,
1000
0100
0001
0000
,
0001
0100
1000
0000
,
0100
0000
0001
0000
,
0010
0000
0010
0000
,
0001
0000
0100
0000
,
1000
0000
0001
0000
,
0020
0000
0030
0000
;

//--------------- dance-single - John Earl De Juan ----------------
#NOTES:
     dance-single:
     John Earl De Juan:
     Medium:
     10:
     0.532,0.558,0.8,0.273,0:
0000
0000
0000
0000
,
0000
0000
0000
0000
,
0000
0000
0000
0000
,
0000
0000
0000
0000
,
1000
1100
0001
0101
,
0010
0110
0100
1001
,
0001
0011
1000
1100
,
0001
0101
0010
0011
,
0010
1010
0100
0101
,
0010
0110
0001
1001
,
0010
1100
0010
0101
,
0010
1010
0110
1001
,
1000
0100
0001
0100
,
1000
0010
0001
0010
,
0110
0110
0100
0100
,
1001
1001
0010
0100
,
0010
0001
0010
1000
,
0100
0001
0100
1000
,
1100
1100
0001
0001
,
0101
0101
0010
1001
,
0010
1000
0100
0000
0100
0000
0100
0000
,
0010
0001
0100
0000
0100
0000
0100
0000
,
1000
0100
0001
0000
0001
0000
0001
0000
,
0022
0033
2200
3300
,
0010
0100
0010
0000
0100
0000
0100
0000
,
0100
0010
0100
0000
0010
0000
0010
0000
,
0001
0100
1000
0000
1000
0000
1000
0000
,
0220
0330
2002
3003
,
0002
0010
1000
0103
,
2000
0010
0001
3100
,
0100
0010
0001
0000
1000
0000
0010
0000
,
2020
3030
0202
0303
,
0001
0010
1000
0000
1000
0100
0001
0000
,
0001
0100
1000
0000
1000
0010
0001
0000
,
0010
0100
0100
0000
0100
0010
0010
0000
,
0202
0303
2002
3003
,
1000
1000
0011
1000
,
0001
0001
1100
0001
,
0010
0010
1100
0100
,
0100
0011
0200
0300
,
0100
0010
0110
0100
,
0001
1000
1001
0100
,
0001
0100
1100
0010
,
1000
0100
2002
3003
,
1000
1100
0001
0101
,
0010
0110
0100
1001
,
0001
0011
1000
1100
,
0001
0101
0010
0011
,
0010
1010
0100
0101
,
0010
0110
0001
1001
,
0010
1100
0010
0101
,
0010
1010
0110
1001
,
1000
0100
1000
0100
,
0001
0010
0001
0010
,
1100
1100
0101
0101
,
0110
0110
1001
1001
,
0010
0100
0010
0100
,
1000
0001
1000
0001
,
1100
0101
0011
1010
,
1010
0011
0101
1100
,
1000
0100
0010
0001
,
0001
0010
0100
1000
,
0010
0100
0010
0001
,
0100
0010
1000
1001
,
0010
0010
1000
0100
,
0010
0010
0001
0100
,
0110
1001
0110
1001
,
0100
0100
0100
0100
,
2000
3001
0002
1003
,
0020
0130
0010
0010
,
2100
3010
0012
1003
,
2001
3001
0020
0130
,
0220
0330
0000
0000
;

//--------------- dance-single - John Earl De Juan ----------------
#NOTES:
     dance-single:
     John Earl De Juan:
     Hard:
     11:
     0.6,0.558,0.236,0.2,0.018:
0000
0000
0000
0000
,
0000
0000
0000
0000
,
0000
0000
0000
0000
,
0000
0000
0000
0000
,
1000
1000
0001
0001
1000
1000
0000
1000
,
0000
1000
0001
1000
0010
0010
0000
0000
,
0010
0010
0100
0100
0010
0010
0000
1000
,
0000
0001
0010
0100
1000
0100
0000
0000
,
0100
0100
0001
0001
0010
0010
0000
0010
,
0000
0010
1000
0100
0010
1000
0000
0000
,
0001
0001
1000
1000
0100
0100
0000
0001
,
0000
0000
1000
0000
0010
0000
0001
0000
1000
0100
1000
0100
1000
0000
0000
0000
,
1000
0100
0000
0001
0000
0100
0000
1000
,
0100
0010
0001
0010
0100
1000
0000
0000
,
0001
0100
0000
0010
0000
1000
0000
0010
,
1000
0100
0010
0001
0100
0010
0000
0000
,
1000
0001
0000
0010
0000
1000
0000
0100
,
0001
0100
0001
1000
0100
0100
0000
0000
,
0010
1000
0000
0100
0000
0001
0000
0010
,
1000
0100
0001
0100
1000
0010
0000
0000
,
0010
0010
0010
0000
0100
0100
0100
0000
,
0001
0010
0011
0000
1000
0100
1100
0000
,
1000
0001
0100
0000
0001
1000
0100
0000
,
0002
0023
0230
2300
,
3001
0001
0001
0000
1000
1000
1000
0000
,
0010
0100
0110
0000
0001
1000
1001
0000
,
0010
0001
0100
0000
0010
1000
0100
0000
,
2000
3200
0320
0032
,
1003
0100
1000
0000
0001
0010
0001
0000
,
0001
0100
0001
0000
0010
1000
0010
0000
,
1000
0010
1010
0000
0001
0100
0101
0000
,
0002
0203
0320
2030
,
3010
0010
1000
0000
0100
0100
0001
0000
,
0001
0001
0010
0000
1000
1000
0100
0000
,
0010
0010
0100
0000
0100
0100
0010
0000
,
0020
0230
2300
3002
,
1003
0100
1000
0100
0010
0001
0010
0001
,
0100
0001
0100
0001
1000
0001
1001
0000
,
0010
0100
0010
0100
1000
0100
1000
0010
,
0001
0010
0001
0010
0100
1000
1100
0000
,
0010
1000
0100
0010
0001
0100
0010
1000
,
0100
0010
0001
0100
1000
0010
0101
0000
,
0010
0100
1000
0000
0010
0100
0001
0000
,
0010
0100
0010
0100
0001
1000
0001
0000
,
0010
0100
0010
0100
0001
0001
0000
0100
,
0000
0100
0001
1000
0010
0010
0000
0000
,
1000
0001
1000
0001
1000
0010
0000
0100
,
0000
0010
0100
0001
0010
1000
0000
0000
,
0010
0010
1000
1000
0100
0100
0000
0110
,
0000
0001
1000
0100
0010
0001
0000
0000
,
0001
1000
0001
1000
0010
0100
0000
0101
,
0000
0000
1000
0000
0100
0000
1000
0000
0001
0100
0001
0100
0001
0000
0000
0000
,
0010
0100
0000
1000
0000
0010
0000
0010
,
1000
0010
0100
0010
0001
1000
0000
0000
,
0001
0100
0000
0010
0000
1000
0000
0010
,
1000
0100
0010
0001
0100
0010
0000
0000
,
1000
0001
0000
0010
0000
1000
0000
0100
,
0001
0100
0001
1000
0100
0100
0000
0000
,
0010
1000
0000
0100
0000
0001
0000
0010
,
1000
0100
0001
0100
1000
0010
0000
0000
,
0010
0100
0000
1001
0000
0110
0000
0001
,
0100
1000
0100
0001
0100
1000
0000
0000
,
0100
0001
0000
1100
0000
0101
0000
0010
,
0100
0010
1000
0001
1000
0001
0000
0000
,
0001
1000
0000
1010
0000
0101
0000
0010
,
1000
0100
0010
0001
0100
0100
0000
0000
,
0010
0010
0010
0010
,
0100
0100
0100
0100
,
1000
2000
3001
0002
,
0013
1000
0100
0000
0010
0001
0100
0000
,
2000
0000
0001
0000
0001
0001
3001
0000
,
0002
0000
0010
0000
0100
0100
0103
0000
,
2002
3003
0000
0000
;

//--------------- dance-double - ----------------
#NOTES:
     dance-double:
     :
     Challenge:
     11:
     0,0,0,0,0:
00000000
00000000
00000000
00000000
,
00000000
00000000
00000000
00000000
,
00000000
00000000
00000000
00000000
,
00000000
00000000
00000000
00000000
,
00001000
00001000
00010000
00010000
00001000
00001000
00000000
00001000
,
00000000
00001000
00010000
00001000
00100000
00100000
00000000
00000000
,
00001000
00001000
00010000
00010000
00001000
00001000
00000000
00010000
,
00000000
00010000
00100000
01000000
10000000
01000000
00000000
00000000
,
01000000
01000000
00001000
00001000
00010000
00010000
00000000
00000010
,
00000000
00000010
00001000
00000100
00000010
00001000
00000000
00000000
,
00001000
00001000
00010000
00010000
01000000
01000000
00000000
00010000
,
00000000
00000000
10000000
00000000
00100000
00000000
00010000
00000000
10000000
01000000
10000000
01000000
10000000
00000000
00000000
00000000
,
10000000
01000000
00000000
00001000
00000000
00000100
00000000
00000001
,
00000100
00000010
00001000
00000100
00001000
00000100
00000000
00000000
,
00000001
00000010
00000000
00010000
00000000
00100000
00000000
10000000
,
00100000
01000000
00010000
00100000
00010000
00100000
00000000
00000000
,
10000000
00010000
00000000
00100000
00000000
10000000
00000000
01000000
,
00010000
01000000
00010000
00001000
00000100
00000100
00000000
00000000
,
00000001
00001000
00000000
00000100
00000000
00000001
00000000
00000010
,
00001000
00000010
00001000
00010000
00100000
00100000
00000000
00000000
,
00100000
00100000
00100000
00000000
01000000
01000000
01000000
00000000
,
00010000
00100000
00101000
00000000
00010000
00000100
00001100
00000000
,
00000001
00001000
00000010
00000000
00001000
00000001
00000010
00000000
,
00002000
00003200
00000320
00000032
,
00010003
00001000
00001000
00000000
00000001
00000001
00000001
00000000
,
00000100
00000010
00000110
00000000
00001000
00000001
00001001
00000000
,
00000100
00001000
00000010
00000000
00000100
00000001
00000010
00000000
,
00020000
00030020
00000230
00002300
,
00003001
00000100
00010000
00000000
00001000
00100000
00001000
00000000
,
00001000
01000000
00001000
00000000
00100000
00001000
00100000
00000000
,
10000000
00100000
10100000
00000000
00010000
01000000
01010000
00000000
,
00020000
02030000
03200000
20300000
,
30100000
00100000
10000000
00000000
01000000
01000000
00010000
00000000
,
00001000
00001000
00100000
00000000
00010000
00010000
00000100
00000000
,
00000100
00000100
00000010
00000000
00000010
00000010
00000100
00000000
,
00000200
00000320
00000032
00002003
,
00013000
01000000
10000000
01000000
00100000
00010000
00100000
00010000
,
01000000
00010000
01000000
00010000
10000000
00010000
00011000
00000000
,
00000100
00000010
00000100
00000010
00000001
00000010
00000001
00000100
,
00001000
00000100
00001000
00000100
00000010
00000001
00000011
00000000
,
00000010
00001000
01000000
00100000
00010000
01000000
00100000
10000000
,
01000000
00100000
00010000
01000000
10000000
00100000
01010000
00000000
,
00000100
00000010
00000001
00000000
00000100
00000010
00001000
00000000
,
00000100
00000010
00000100
00000010
00001000
00000001
00001000
00000000
,
00000010
00001000
00100000
01000000
00010000
00010000
00000000
01000000
,
00000000
01000000
00010000
10000000
00100000
00100000
00000000
00000000
,
00001000
00010000
00001000
00010000
10000000
00100000
00000000
01000000
,
00000000
00100000
01000000
00010000
00100000
10000000
00000000
00000000
,
00001000
00010000
10000000
10000000
01000000
01000000
00000000
01100000
,
00000000
00010000
10000000
01000000
00100000
00010000
00000000
00000000
,
00001000
00010000
00010000
10000000
00100000
01000000
00000000
01010000
,
00000000
00000000
10000000
00000000
01000000
00000000
10000000
00000000
00010000
01000000
00010000
01000000
00010000
00000000
00000000
00000000
,
00100000
01000000
00000000
10000000
00000000
00100000
00000000
00100000
,
10000000
00100000
01000000
00100000
00010000
10000000
00000000
00000000
,
00010000
01000000
00000000
00100000
00000000
10000000
00000000
00100000
,
10000000
01000000
00100000
00010000
01000000
00100000
00000000
00000000
,
00000001
00001000
00000000
00000100
00000000
00000001
00000000
00000010
,
00001000
00000010
00001000
00000001
00000010
00000010
00000000
00000000
,
00000100
00000001
00000000
00000010
00000000
00001000
00000000
00000100
,
00000001
00000010
00001000
00000010
00000001
00000100
00000000
00000000
,
00001000
01000000
00000000
10010000
00000000
01100000
00000000
00010000
,
01000000
10000000
01000000
00010000
01000000
00001000
00000000
00000000
,
00000010
00001000
00000000
00000011
00000000
00001010
00000000
00000100
,
00000010
00000100
00000001
00001000
00000001
00001000
00000000
00000000
,
00010000
10000000
00000000
10100000
00000000
01010000
00000000
00100000
,
10000000
01000000
00100000
00010000
01000000
01000000
00000000
00000000
,
00100000
00100000
00100000
00100000
,
01000000
01000000
01000000
01000000
,
10000000
20000000
30010000
00020000
,
00030010
00001000
00000100
00000000
00000010
00000001
00000100
00000000
,
00002000
00000000
00010000
00000000
00010000
00010000
00013000
00000000
,
00020000
00000000
00001000
00000000
00001000
00001000
00031000
00000000
,
00022000
00033000
00000000
00000000
;
