#TITLE:Stranger Love;
#SUBTITLE:;
#ARTIST:The Musical Ghost;
#TITLETRANSLIT:;
#SUBTITLETRANSLIT:;
#ARTISTTRANSLIT:;
#GENRE:Future Bass;
#CREDIT:????;
#MUSIC:Stranger Love.mp3;
#BANNER:StrangerLove-BN.jpg;
#BACKGROUND:StrangerLove-BG.jpg;
#CDTITLE:;
#SAMPLESTART:0.000;
#SAMPLELENGTH:0.000;
#SELECTABLE:YES;
#OFFSET:-0.070;
#BPMS:0.000=143.000;
#STOPS:;
#BGCHANGES:;
#FGCHANGES:;

//--------------- dance-single - ??????????????????? ----------------
#NOTES:
     dance-single:
     ???????????????????:
     Beginner:
     4:
     0,0,0,0,0:
0000
0000
0000
0000
,
0000
0000
0000
0000
,
0000
0000
0000
0000
,
0000
0000
0000
0000
,
0000
0000
0000
0000
,
0000
0000
0000
0000
,
0000
0000
0000
0000
,
0000
0000
0000
0000
,
0010
0000
0000
0000
,
0010
0000
0000
0000
,
0100
0000
0000
0000
,
0100
0000
0000
0000
,
0010
0000
0000
0000
,
1000
0000
0000
0000
,
1000
0000
0000
0000
,
0001
0000
0000
0000
,
1001
0000
0000
0000
,
0110
0000
0000
0000
,
1001
0000
0000
0000
,
0010
0000
0010
0000
,
0010
0000
0000
0000
,
0110
0000
0000
0000
,
1001
0000
0000
0000
,
0100
0000
0100
0000
,
0100
0000
0000
0000
,
0100
0000
0000
0000
,
0010
0000
0000
0000
,
0010
0000
0000
0000
,
0010
0000
0000
0000
,
1001
0000
0000
0000
,
1000
0000
1000
0000
,
1000
0000
0000
0000
,
0001
0000
0000
0000
,
0001
0000
0000
0000
,
0100
0000
0000
0000
,
0100
0000
0000
0000
,
0010
0000
0000
0000
,
0010
0000
0000
0000
,
1000
0000
0000
0000
,
1000
0000
0000
0000
,
0110
0000
0000
0000
,
1000
0000
0000
0000
,
0001
0000
0000
0000
,
1000
1000
1000
0000
,
0001
0000
0000
0000
,
0001
0000
0000
0000
,
0100
0000
0000
0000
,
0100
0000
0000
0000
,
0010
0000
0000
0100
,
0100
0000
0000
0001
,
0001
0000
0000
1000
,
1000
0000
0001
0000
,
1000
0000
0010
0010
,
0010
0000
0100
0100
,
0100
0000
0000
0000
,
0110
0000
1000
0000
,
1001
0000
0001
0000
,
0001
0000
1000
0000
,
1000
0000
0010
0000
,
0010
0000
0100
0000
,
0100
0000
0001
0000
,
1001
0000
1000
0000
,
1001
0000
0010
0000
,
0110
0000
0100
0000
,
0110
0000
0000
0000
,
1000
0000
0000
0000
,
1001
0000
0001
0000
,
0001
0000
0100
0000
,
0100
0000
0010
0000
,
1000
0000
1000
0000
,
0010
0010
0010
0010
,
0110
0000
0000
0000
;

//--------------- dance-single - ??????????????????? ----------------
#NOTES:
     dance-single:
     ???????????????????:
     Easy:
     7:
     0,0,0,0,0:
0000
0000
0000
0000
,
0000
0000
0000
0000
,
0000
0000
0000
0000
,
0000
0000
0000
0000
,
0000
0000
0000
0000
,
0000
0000
0000
0000
,
0000
0000
0000
0000
,
0000
0000
0000
0000
,
0000
0010
0000
0010
,
0000
0100
0000
0100
,
0000
0001
0000
0001
,
1000
0001
1000
0010
,
0010
1000
1000
0100
,
0100
0010
0010
0001
,
0001
1000
0010
1000
,
0100
0000
1001
0000
,
0020
0130
1000
0002
,
0203
0310
0010
0010
,
2000
3100
0000
0100
,
0020
0031
0100
0001
,
1001
1000
0000
1000
,
0020
0130
0001
1000
,
0200
0300
0000
0100
,
0010
0001
0010
0010
,
0001
0100
0100
0000
,
1000
0010
0010
0000
,
1001
0001
1000
0000
,
0110
1001
0110
0000
,
0000
0100
0100
0100
,
0010
0001
1000
0001
,
0100
0100
0100
0010
,
1001
0100
0110
0000
,
0020
0000
0000
0000
0000
0000
0000
0030
,
2000
0000
0000
0000
0000
0000
0000
3000
,
0002
0000
0000
0000
0000
0000
0000
0003
,
0200
0000
0000
0000
0000
0000
0000
0300
,
0020
0000
0000
0000
0000
0000
0000
0030
,
0200
0000
0000
0000
0000
0000
0000
0300
,
0002
0000
0000
0000
0000
0000
0000
0003
,
2000
0000
0000
0000
0000
0000
0000
3000
,
0000
0010
0010
0010
,
1001
0100
0100
0100
,
1001
0010
1000
0010
,
0100
0001
1000
0001
,
0110
1000
1000
1000
,
0110
0001
0001
0001
,
0110
1000
0000
0010
,
0000
0000
0000
0000
,
2002
3003
1000
1000
,
0220
0330
0010
0010
,
2000
3000
0100
0100
,
0020
0031
0001
0001
,
1001
0100
0010
0100
,
0020
1030
0100
0010
,
0002
1003
0001
0001
,
1001
0000
1001
0000
,
0010
0000
0100
0100
,
1001
0000
0001
0100
,
1001
0000
0100
0100
,
0110
1000
0001
0100
,
0020
0030
1000
1000
,
2002
3003
0001
0010
,
0220
0330
0100
0100
,
2002
3003
0220
0330
,
2000
0000
0000
0000
0000
0000
0000
3000
,
0200
0000
0000
0000
0000
0000
0000
0300
,
0020
0000
0000
0000
0000
0000
0000
0030
,
0002
0000
0000
0000
0000
0000
0000
0003
,
1000
0000
0000
1000
,
1001
0000
0000
0001
,
0110
0000
0010
0100
,
1001
0000
0000
0000
;

//--------------- dance-single - ??????????????????? ----------------
#NOTES:
     dance-single:
     ???????????????????:
     Medium:
     10:
     0,0,0,0,0:
0000
0000
0000
0000
,
0000
0000
0000
0000
,
0000
0000
0000
0000
,
0000
0000
0000
0000
,
0000
0000
0000
0000
,
0000
0000
0000
0000
,
0000
0000
0000
0000
,
0000
0000
0000
0000
,
0000
0000
0001
0000
0100
0010
0100
0000
,
0010
0000
1000
0000
0100
0010
0001
0001
,
0100
0000
0010
0000
1000
0001
1000
0000
,
0100
0000
0010
0000
0001
0100
0001
0010
,
0001
0000
1000
0000
0010
0100
0100
0000
,
0110
0000
1000
0000
1000
0001
0000
0001
,
0010
0101
0010
1010
,
1000
0010
0100
0001
1000
0001
0010
0100
,
2002
3003
0010
0000
0100
0010
0010
0000
,
0202
0303
0010
0000
1000
0001
0100
0010
,
0200
0000
0310
0000
1001
0100
0001
0000
,
0001
0100
1000
0000
0010
0100
0010
0000
,
0200
0000
0301
0010
0000
0100
0010
0000
,
0002
0000
1003
1000
0010
0010
0100
0100
,
0002
0000
1003
0001
0100
0000
0001
1000
,
0010
0110
1010
0011
,
1000
0000
0000
1000
0000
0000
1000
0000
0000
1000
0000
0000
1000
0000
0010
0000
,
1000
0000
0000
1000
0000
0000
1000
0000
0000
1000
0000
0000
1000
0000
0001
0000
,
0001
0000
0000
0001
0000
0000
0001
0000
0000
0001
0000
0000
0001
0000
0100
0000
,
0010
0000
0000
0010
0000
0000
0010
0000
0220
0000
0000
0330
2002
0000
0000
3003
,
0000
0001
0100
0000
1000
0000
0010
0000
,
1000
0000
0001
0000
0001
1000
0001
1000
,
0100
0010
0101
0010
,
1010
0000
1000
0100
1000
0000
0001
0010
,
0002
0000
0000
0000
,
0203
0000
0000
0000
,
0320
0000
0000
0000
,
0230
0000
0302
0000
,
2003
0100
0000
0010
,
3002
1000
0000
0010
,
0203
0001
0000
1000
,
0320
1000
0100
0100
,
0130
0000
0001
0000
0100
0001
0100
0000
,
0010
0000
1000
0000
0010
0100
0001
0010
,
0100
1100
0010
0011
,
1001
0000
0001
0010
0100
1000
0001
0010
,
0100
0000
1000
0000
1001
0000
0010
0010
,
0010
0000
1001
0000
1001
0000
0100
0100
,
0100
0010
1000
0001
,
0010
0000
0000
0000
,
2002
0000
0000
0000
0000
0000
3003
0000
0100
0000
0000
0100
0000
0000
0010
0000
,
0200
0000
0301
1000
0001
1000
0100
0010
,
0002
0000
0103
0010
0000
1000
0001
1000
,
0000
0001
0100
0001
0000
1000
0010
1000
,
0000
0000
0110
0000
0001
1000
0000
0010
,
0000
0100
0001
0100
0001
1000
0010
0100
,
0000
0001
0100
1000
0000
1000
0100
0001
,
0002
2003
3200
0320
,
0032
0000
0000
0000
1003
0000
0010
0000
0000
0010
0000
0000
0010
0000
0000
0000
,
0200
0000
0000
0000
0301
0000
1000
0000
0000
1000
0000
0000
1000
0000
0000
0000
,
2000
0000
0000
0000
3000
0000
0100
0000
0000
0100
0000
0000
0100
0000
0000
0000
,
0020
0000
0031
0010
0200
0000
1300
0100
,
0020
0000
0130
0010
0000
1001
0000
0110
,
0000
0010
1000
0010
0100
0010
1000
0100
,
2000
0000
3010
0100
0002
0000
1003
0010
,
0200
0000
0301
0000
1000
0001
1000
0001
,
0200
0010
0000
0010
,
0302
1000
0000
0010
,
2003
0100
0000
0100
,
3001
0010
0100
1000
,
0010
0010
1001
0000
,
0100
0000
0100
0000
0010
1000
0010
0000
,
0110
0001
0010
0002
,
0003
0000
0100
0010
1000
0001
0100
0020
,
0000
0000
0000
0000
,
0030
0000
0000
0000
;

//--------------- dance-single - ????????????????? ----------------
#NOTES:
     dance-single:
     ?????????????????:
     Hard:
     13:
     0,0,0,0,0:
0000
0000
0000
0000
,
0000
0000
0000
0000
,
0000
0000
0000
0000
,
0000
0000
0000
0000
,
0000
0000
0000
0000
,
0000
0000
0000
0000
,
0000
0000
0000
0000
,
0000
0000
0000
0000
,
0000
0000
0010
0000
0010
1000
2002
0000
,
3003
0000
1000
0000
0001
0100
0100
0010
,
0010
0000
0000
0000
1000
0001
0000
0010
0000
0000
0100
0000
0010
0001
0100
0000
,
0000
0000
0000
0000
0001
0000
1000
0010
1000
0000
0100
0000
0010
0000
0001
0000
,
0000
0000
1000
0000
0001
0100
0220
0000
,
0330
0000
0000
0000
0010
0000
0000
0100
0001
0000
0010
0001
0010
0000
0001
0000
,
0010
0000
0000
0000
0001
1000
0000
0010
0000
0000
0100
0000
0010
1000
0100
0000
,
0000
0000
0000
0000
0010
0000
0001
0000
0010
0000
0001
0000
0001
0010
0100
1000
,
0020
0000
0000
0000
0230
0000
0000
0000
0300
0000
0100
0000
0001
0010
0100
0000
,
2200
0300
3100
0000
1000
0010
0100
0001
,
0202
0300
0103
0001
1000
0001
0010
0100
,
2200
0000
0300
0000
3100
0000
0100
0000
1000
0000
0001
0000
0010
0001
0010
0001
,
0100
0000
0110
2000
0000
3020
0000
0130
,
0202
0000
0300
0000
0103
0000
0001
0010
0001
0000
0100
0000
0010
0000
0100
0000
,
0020
0000
1030
0200
0000
0000
0301
0100
,
2000
0010
3010
0100
0020
0000
0030
0000
,
1000
0000
0000
0001
0000
0000
0100
0000
0000
0010
0000
0000
0110
0000
0000
0000
,
0100
0000
0000
0010
0000
0000
1000
0000
0000
0100
0000
0000
0001
0000
0000
0000
,
0100
0000
0000
1000
0000
0000
0010
0000
0000
0010
0000
0000
0100
0000
0000
0000
,
0001
0000
0000
0010
0000
0000
0001
0000
0100
0000
0000
0000
0110
0000
0000
0000
,
2000
0000
3010
0100
0010
1000
0000
0100
,
0010
0000
0001
0000
0010
0000
0001
0010
0001
0000
0001
0000
0100
0000
1000
0000
,
0100
0000
0000
0010
0000
0000
0100
0000
0000
0000
0010
0000
1000
0000
0100
0000
,
0000
0000
0010
0000
0001
0000
0001
0000
0000
0000
0100
0000
0010
1000
0010
0000
,
0200
0010
0000
0010
,
0302
1000
0000
1000
,
2003
0001
0000
0001
,
3020
0000
0100
0000
0000
0000
0100
0130
,
0000
0010
0100
0010
0000
1000
0010
1000
,
0000
0100
0010
0001
0010
0100
1000
0001
,
0100
0000
0001
0000
0100
0001
0010
0000
,
0001
0010
0100
0010
0001
0100
1000
0100
,
0000
0000
0000
0000
0010
0100
0000
0010
0000
0000
1000
0000
2002
0000
0000
0000
,
3003
0000
0000
0000
1000
0000
0000
0001
0100
0000
0010
0000
0100
0000
0100
0000
,
0010
0000
0000
0000
1000
0001
0000
0010
0000
0000
0100
0000
0010
0001
0100
0000
,
0000
0000
0000
0000
0001
0000
1000
0010
1000
0000
0100
0000
0010
0000
0001
0000
,
0000
0000
0000
0000
1000
0001
0000
0001
0000
0000
0100
0000
0220
0000
0000
0000
,
0330
0000
0000
0000
0010
0000
0000
0100
0001
0000
0001
0000
0010
0001
0010
0001
,
0000
0000
0000
0000
0001
1000
0000
0010
0000
0000
0100
0000
0010
1000
0100
0000
,
0000
0000
0000
0000
1000
0001
1000
0001
1000
0100
1000
0100
0010
0001
0010
0001
,
0020
0000
0000
0000
0031
0000
0000
0000
0110
0000
0000
1100
0000
0000
1010
0000
,
0002
0000
0000
0000
0103
0000
0001
0010
0100
0000
1000
0000
0010
0000
1000
0000
,
0202
0300
0103
0001
1000
0001
0010
0100
,
2000
0000
0100
0000
3100
0000
2000
0000
0000
0000
3001
0000
0010
0001
0010
0001
,
0100
0000
0110
2000
0000
3020
0000
0130
,
0202
0000
0300
0000
0103
0000
0001
0010
0001
0000
0100
0000
0010
0000
0100
0000
,
0020
0000
1030
0200
0000
0000
0301
0100
,
2000
3010
0220
0330
,
0020
0000
0000
0000
0130
0000
0001
1000
0000
0001
1000
0000
0001
1000
0000
0000
,
2200
0000
0300
0000
3001
0000
0001
0100
0000
0001
0010
0000
0001
0010
0100
0010
,
0002
0000
1003
0020
0000
0030
1000
0001
,
0022
0000
0003
0000
0031
0000
0100
0000
0100
0000
0001
0000
0010
0001
0010
0001
,
0100
0000
1010
0010
0100
0020
0000
0130
,
0020
0000
0000
0000
1030
0000
0001
1000
0001
0000
0100
0000
0010
0000
0100
0000
,
2020
0030
3100
0100
0000
0000
0010
0002
,
0000
0000
0103
0000
0010
0000
1000
0000
0000
0000
0000
0000
0001
0010
0100
1000
,
0001
0000
0000
0001
0000
0000
0100
0000
0000
0010
0000
0000
0110
0000
0000
0000
,
0100
0000
0000
0010
0000
0000
1000
0000
0000
0100
0000
0000
0001
0000
0000
0000
,
0100
0000
0000
1000
0000
0000
0010
0000
0000
0010
0000
0000
0100
0000
0000
0000
,
0001
0000
0000
0010
0000
0000
0001
0000
0100
0000
0000
0000
0110
0000
0000
0000
,
2000
0010
3200
0010
,
2300
0001
3020
0100
,
0230
0001
0320
0100
,
0130
0000
1000
0010
0100
0010
1000
0200
,
0000
0000
0000
0000
,
0300
0000
0000
0000
;

//--------------- dance-double - ????????????????? ----------------
#NOTES:
     dance-double:
     ?????????????????:
     Challenge:
     13:
     0,0,0,0,0:
00000000
00000000
00000000
00000000
,
00000000
00000000
00000000
00000000
,
00000000
00000000
00000000
00000000
,
00000000
00000000
00000000
00000000
,
00000000
00000000
00000000
00000000
,
00000000
00000000
00000000
00000000
,
00000000
00000000
00000000
00000000
,
00000000
00000000
00000000
00000000
,
00000000
00000000
00100000
00000000
00100000
00001000
00022000
00000000
,
00033000
00000000
00001000
00000000
00010000
00001000
00001000
00100000
,
00100000
00000000
00000000
00000000
00001000
00010000
00000000
00001000
00000000
00000000
00000100
00000000
00010000
00001000
00000100
00000000
,
00000000
00000000
00000000
00000000
00001000
00000000
00010000
00000010
00010000
00000000
00000100
00000000
00001000
00000000
00010000
00000000
,
00000000
00000000
00001000
00000000
00010000
00001000
00022000
00000000
,
00033000
00000000
00000000
00000000
00100000
00000000
00000000
01000000
00010000
00000000
00100000
00010000
00100000
00000000
00010000
00000000
,
00100000
00000000
00000000
00000000
00001000
00010000
00000000
00000010
00000000
00000000
00000100
00000000
00000010
00001000
00000100
00000000
,
00000000
00000000
00000000
00000000
00100000
00000000
00001000
00000000
00100000
00000000
00001000
00000000
00000100
00010000
00001000
00010000
,
00200000
00000000
00000000
00000000
02300000
00000000
00000000
00000000
03000000
00000000
01000000
00000000
00001000
01000000
00010000
00000000
,
01020000
00000000
01030000
00000000
00001000
00010000
00001000
00010000
,
02020000
03000000
01030000
00010000
00001000
00010000
00100000
01000000
,
22000000
00000000
03000000
00000000
31000000
00000000
01000000
00000000
10000000
00000000
00010000
00000000
00100000
00010000
00100000
00010000
,
01000000
00000000
01100000
00002000
00000000
00203000
00000000
01300000
,
02020000
00000000
03000000
00000000
01030000
00000000
00010000
00100000
00010000
00000000
01000000
00000000
00100000
00000000
01000000
00000000
,
00200000
00000000
10300000
02000000
00000000
00000000
03010000
01000000
,
20000000
00100000
30100000
01000000
00200000
00000000
00300000
00000000
,
00010000
00000000
00000000
00001000
00000000
00000000
00000010
00000000
00000000
00000100
00000000
00000000
00000110
00000000
00000000
00000000
,
00000010
00000000
00000000
00000100
00000000
00000000
00000001
00000000
00000000
00000010
00000000
00000000
00001000
00000000
00000000
00000000
,
00000010
00000000
00000000
00000001
00000000
00000000
00000100
00000000
00000000
00000100
00000000
00000000
00000010
00000000
00000000
00000000
,
00001000
00000000
00000000
00000100
00000000
00000000
00001000
00000000
00000010
00000000
00000000
00000000
00000110
00000000
00000000
00000000
,
00000002
00000000
00001003
00010000
00001000
00010000
00000000
01000000
,
00100000
00000000
00010000
00000000
00100000
00000000
00010000
00100000
00010000
00000000
00010000
00000000
01000000
00000000
10000000
00000000
,
01000000
00000000
00000000
00100000
00000000
00000000
01000000
00000000
00000000
00000000
00100000
00000000
10000000
00000000
01000000
00000000
,
00000000
00000000
00100000
00000000
00010000
00000000
00010000
00000000
00000000
00000000
00001000
00000000
00000010
00001000
00000010
00000000
,
00000200
00010000
00000000
00010000
,
00020300
00001000
00000000
00001000
,
20030000
00010000
00000000
00010000
,
30200000
00000000
01000000
00000000
00000000
00000000
01000000
01300000
,
00000000
00100000
01000000
00100000
00000000
10000000
00100000
10000000
,
00000000
01000000
00100000
00010000
00100000
01000000
00001000
00010000
,
00000100
00000000
00010000
00000000
01000000
00010000
00100000
00000000
,
00010000
00000010
00000100
00000010
00010000
01000000
10000000
01000000
,
00000000
00000000
00000000
00000000
00100000
01000000
00000000
00100000
00000000
00000000
10000000
00000000
20020000
00000000
00000000
00000000
,
30030000
00000000
00000000
00000000
10000000
00000000
00000000
00010000
01000000
00000000
00100000
00000000
01000000
00000000
01000000
00000000
,
00100000
00000000
00000000
00000000
10000000
00010000
00000000
00100000
00000000
00000000
01000000
00000000
00100000
00010000
01000000
00000000
,
00000000
00000000
00000000
00000000
00010000
00000000
00001000
00100000
00001000
00000000
01000000
00000000
00100000
00000000
00010000
00000000
,
00000000
00000000
00000000
00000000
00001000
00010000
00000000
00010000
00000000
00000000
01000000
00000000
02200000
00000000
00000000
00000000
,
03300000
00000000
00000000
00000000
00100000
00000000
00000000
01000000
00010000
00000000
00010000
00000000
00100000
00010000
00100000
00010000
,
00000000
00000000
00000000
00000000
00010000
10000000
00000000
00100000
00000000
00000000
01000000
00000000
00100000
10000000
01000000
00000000
,
00000000
00000000
00000000
00000000
00010000
00001000
00010000
00001000
00010000
00000100
00010000
00000100
00100000
00010000
00100000
00010000
,
00200000
00000000
00000000
00000000
00310000
00000000
00000000
00000000
01100000
00000000
00000000
11000000
00000000
00000000
10100000
00000000
,
00020000
00000000
00000000
00000000
01030000
00000000
00010000
00100000
01000000
00000000
10000000
00000000
00100000
00000000
10000000
00000000
,
02020000
03000000
01030000
00010000
00001000
00010000
00100000
01000000
,
20000000
00000000
01000000
00000000
31000000
00000000
20000000
00000000
00000000
00000000
30010000
00000000
00100000
00010000
00100000
00010000
,
01000000
00000000
01100000
20000000
00000000
30200000
00000000
01300000
,
02020000
00000000
03000000
00000000
01030000
00000000
00010000
00100000
00010000
00000000
01000000
00000000
00100000
00000000
01000000
00000000
,
00200000
00000000
10300000
02000000
00000000
00000000
03010000
01000000
,
00002000
00103000
00022000
00033000
,
00000200
00000000
00000000
00000000
00000310
00000000
00001000
00000001
00000000
00001000
00000001
00000000
00001000
00000001
00000000
00000000
,
00000022
00000000
00000030
00000000
00001003
00000000
00001000
00000010
00000000
00001000
00000100
00000000
00001000
00000100
00000010
00000100
,
00002000
00000000
00003001
00000200
00000000
00000300
00000001
00001000
,
00002200
00000000
00003000
00000000
00010300
00000000
00000010
00000000
00000010
00000000
00001000
00000000
00000100
00001000
00000100
00001000
,
00000010
00000000
00000101
00000100
00000010
00000200
00000000
00000310
,
00000200
00000000
00000000
00000000
00000301
00000000
00001000
00000001
00001000
00000000
00000010
00000000
00000100
00000000
00000010
00000000
,
00000202
00000300
00000013
00000010
00000000
00000000
00000100
00020000
,
00000000
00000000
00030010
00000000
00000100
00000000
00000001
00000000
00000000
00000000
00000000
00000000
00001000
00000100
00000010
00000001
,
00001000
00000000
00000000
00001000
00000000
00000000
00000010
00000000
00000000
00000100
00000000
00000000
00000110
00000000
00000000
00000000
,
00000010
00000000
00000000
00000100
00000000
00000000
00000001
00000000
00000000
00000010
00000000
00000000
00001000
00000000
00000000
00000000
,
01000000
00000000
00000000
10000000
00000000
00000000
00100000
00000000
00000000
00100000
00000000
00000000
01000000
00000000
00000000
00000000
,
00010000
00000000
00000000
00100000
00000000
00000000
00010000
00000000
01000000
00000000
00000000
00000000
00011000
00000000
00000000
00000000
,
00000002
00000100
00000023
00000100
,
00000032
00001000
00000203
00000010
,
00000320
00001000
00000230
00000010
,
00000310
00000000
00000001
00000100
00000010
00000100
00000001
00000020
,
00000000
00000000
00000000
00000000
,
00000030
00000000
00000000
00000000
;
