#TITLE:Space Combat;
#SUBTITLE:;
#ARTIST:The Musical Ghost;
#TITLETRANSLIT:;
#SUBTITLETRANSLIT:;
#ARTISTTRANSLIT:;
#GENRE:;
#CREDIT:????????????????;
#MUSIC:Space Combat.ogg;
#BANNER:SpaceCombat-bn.png;
#BACKGROUND:SpaceCombat-bg.png;
#CDTITLE:;
#SAMPLESTART:92.222;
#SAMPLELENGTH:21.333;
#SELECTABLE:YES;
#OFFSET:-0.222;
#BPMS:0.000=180.000;
#STOPS:;
#BGCHANGES:;
#FGCHANGES:;

//--------------- dance-single - ?????????????? ----------------
#NOTES:
     dance-single:
     ??????????????:
     Beginner:
     6:
     0,0,0,0,0:
0000
0000
0000
0000
,
0000
0000
0000
0000
,
0000
0000
0000
0000
,
0000
0000
0000
0000
,
0000
0000
0000
0000
,
0010
0000
0000
0000
,
0100
0000
0000
0000
,
0010
0000
0000
0000
,
0100
0000
0000
0000
,
0001
0000
0001
0000
,
1000
0000
1000
0000
,
0001
0001
0001
0000
,
1000
1000
1000
0000
,
0110
0000
0000
0000
,
1001
0000
0000
0000
,
0001
0000
0000
0000
,
1000
0000
0000
0000
,
0010
0000
0010
0000
,
0100
0000
0100
0000
,
0020
0000
0000
0000
,
0030
0000
1000
0000
,
1001
0000
0001
0000
,
0001
0000
0100
0000
,
0100
0000
0010
0000
,
0010
0000
1000
0000
,
1000
0000
0001
0000
,
0100
0000
0010
0000
,
0100
0000
0010
0000
,
0200
0000
0000
0300
,
0010
0010
0000
0000
,
1001
0000
0000
0100
,
0100
0100
0000
0000
,
0110
0000
0000
0001
,
0001
0001
0000
0000
,
1001
0000
0000
0000
,
1000
0000
0001
0000
,
1000
0000
0001
0000
,
0100
0100
0000
0100
,
0000
0010
0000
0010
,
0000
1000
0000
1000
,
0000
1000
0000
1000
,
0000
0001
0000
0001
,
0000
0001
0000
0001
,
0000
0000
0000
0010
,
0010
0000
0000
0100
,
0100
0000
0020
0000
,
0030
0000
0200
0000
,
0300
0000
0002
0000
,
0003
0000
0002
0000
,
0003
0000
1000
0000
,
0000
0000
1000
0000
,
0000
0000
0001
0000
,
0000
0000
0001
0000
,
0001
0000
0000
0000
,
1000
0000
0000
0000
,
0010
0000
0000
0000
,
0010
0000
0000
0000
,
0100
0000
0000
0000
,
0100
0000
0000
0000
,
0010
0000
0000
0000
,
0010
0000
0000
0000
,
1000
0000
1000
0000
,
0001
0000
0001
0000
,
1000
0000
1000
0000
,
0010
0000
0010
0000
,
0100
0000
0100
0000
,
0010
0000
0010
0000
,
0100
0000
0100
0000
,
0020
0000
0000
0030
,
1001
0000
0000
0000
,
1001
0000
0000
0000
,
0110
0000
0000
0000
,
0110
0000
0000
0000
,
1001
0000
0000
0000
,
1000
0000
0000
0000
,
0001
0000
0000
0000
,
1000
1000
1000
0000
,
1000
0001
0000
0000
,
0000
0001
0000
0100
,
0000
0001
0000
0001
,
0000
0100
0000
0100
,
0000
0100
0000
0100
,
0000
0010
0000
0010
,
0000
0010
0000
0010
,
0000
1000
0000
0001
,
2000
0000
0000
3000
,
0002
0000
0000
0003
,
0001
0000
0000
0000
,
0200
0000
0000
0300
,
0010
0000
0000
0000
,
0020
0000
0000
0000
,
0030
0000
0010
0000
,
0010
0000
1000
0000
,
1000
0000
0001
0000
,
1000
0000
0001
0000
,
0100
0000
0010
0000
,
0100
0000
0010
0000
,
1000
1000
0001
0001
,
0100
0100
0010
0010
,
1000
1000
0001
0001
,
0100
0100
0010
0010
,
0000
0000
1000
0000
,
0000
0000
1000
0000
,
0000
0000
0001
0000
,
0000
0000
0001
0000
,
0000
0000
0100
0000
,
0000
0000
0100
0000
,
0000
0000
0010
0000
,
0000
0000
0010
0000
,
0100
0000
0000
0000
;

//--------------- dance-single - ????????????? ----------------
#NOTES:
     dance-single:
     ?????????????:
     Easy:
     10:
     0,0,0,0,0:
0000
0000
0000
0000
,
0000
0000
0000
0000
,
0000
0000
0000
0000
,
0000
0000
0000
0000
,
0000
0000
0000
0000
,
0020
0000
0000
0000
,
0230
0000
0000
0000
,
0302
0000
0000
1000
,
2003
0000
0000
0001
,
3002
0000
0000
0000
,
0203
0000
0000
0010
,
0310
1000
0100
0010
,
0001
1000
0001
1000
,
0020
0130
2000
3100
,
0002
0013
0200
0310
,
0002
0000
1003
0000
0001
1000
0001
1000
,
0000
1000
0001
0000
0100
0000
0110
0000
,
0020
1030
0002
0103
,
2000
3100
0200
0301
,
2002
0000
3003
0010
,
0010
0000
0000
0100
0000
0000
0010
0000
,
2000
0000
0000
3100
0000
0000
1001
0000
,
0002
0000
0000
0013
0000
0000
0110
0000
,
0110
0000
0000
1000
0000
0000
0010
0000
,
0100
0000
0010
0000
0100
0000
0010
0010
,
0010
1000
1000
0001
,
0001
0100
1000
0010
,
0001
1000
0010
0100
,
0002
0000
0000
0000
,
1003
0000
1001
0000
0010
0010
0010
0000
,
0110
0000
1001
0000
0100
0100
0100
0000
,
1000
0001
0010
0100
,
1000
0000
0001
0010
0001
0000
0100
0000
,
0010
0000
1001
0000
0100
0010
0100
0000
,
0010
0000
0100
0000
0001
1000
0001
0000
,
2000
0000
0000
3000
0200
0000
0000
0300
,
0020
0000
0000
0030
0002
0000
0013
0000
,
1001
1001
0010
1001
,
0100
1001
0010
1001
,
0100
1001
0010
1001
,
1000
1001
0001
1001
,
0000
0110
0100
0110
,
0010
0110
0100
0110
,
0001
0000
1000
0000
,
0001
0000
1000
0000
0010
0100
0010
0000
,
2000
3000
0002
0003
,
0100
0010
1000
0001
,
1000
0100
0001
1000
,
0100
0000
0001
0000
1000
1000
1000
0000
,
0001
0100
0010
0100
,
0001
1000
0010
1000
,
0100
0110
1001
0110
,
0000
0000
0001
0000
0100
0100
0100
0000
,
1001
0000
0100
0000
,
0010
0000
0100
0000
,
1001
0000
0010
0000
,
0100
0000
0000
0000
0010
0000
0000
1000
,
0001
0000
2000
0000
,
3002
0000
0203
0300
,
0110
0000
0002
0000
,
2003
0000
3020
0000
,
0130
0100
0010
0010
,
1000
1000
0001
0001
,
0100
0100
0010
0010
,
1000
1000
0100
0100
,
0010
0010
0001
0001
,
0100
0100
1000
1000
,
0010
0010
0010
0010
,
0010
0000
0010
0010
0020
0000
0000
0000
,
0130
1001
0010
1001
,
0100
0000
0010
0100
0000
0010
0100
0000
,
1001
1000
0100
1000
,
0010
0010
0010
0110
,
1001
1000
0010
0100
,
0001
0000
0100
0010
0000
0100
0001
0000
,
0010
0100
1000
1000
,
0002
2003
3020
0230
,
0301
0110
0010
1001
,
0100
1010
0100
0011
,
1000
0101
0001
1010
,
0001
0110
1000
0110
,
1001
0000
0001
0000
0100
0001
0100
0000
,
0010
0000
1000
0000
0100
0010
0100
0000
,
2000
3020
2030
3200
,
2300
3002
0203
0320
,
2030
0000
0000
3200
0000
0000
0310
0000
,
0002
0000
0000
1003
,
0020
0000
0000
0230
0000
0000
0301
0000
,
2002
0000
0000
0000
0000
0000
0000
3003
,
0020
0000
0000
0230
0000
0000
0310
0000
,
2000
0000
0000
3002
0000
0000
0203
0000
,
0320
0000
0000
0130
,
0220
0000
0000
0330
,
1000
0000
1000
0000
0001
0010
0001
0001
,
1000
0000
1000
0000
0001
0100
0001
0001
,
0100
0000
0100
0000
0010
1000
0010
1000
,
0020
0230
0302
0023
,
0130
0000
1001
0000
0010
0010
0010
0000
,
0110
0000
0110
0000
1000
0001
1000
0000
,
0001
0100
0001
0000
1000
0100
1000
0000
,
0010
0000
0010
0000
0100
0100
0100
0000
,
1001
0000
0010
0000
,
0100
0000
0010
0000
,
1001
0000
1000
0000
,
0001
0000
1000
0000
,
0110
0110
0110
0000
,
0001
0000
1000
0000
,
0010
0010
0100
0100
,
0001
0000
0001
0000
1000
0001
1000
0000
,
2002
0000
0000
0000
,
3003
0000
0000
0000
;

//--------------- dance-single - ??????????????? ----------------
#NOTES:
     dance-single:
     ???????????????:
     Medium:
     14:
     0,0,0,0,0:
0000
0000
0000
0000
,
0000
0000
0000
0000
,
0000
0000
0000
0000
,
0000
0000
0000
0000
,
0000
0000
0000
0000
,
2000
0000
0000
3002
0000
0000
0103
0000
,
0200
0000
0000
0000
0300
0010
1000
0010
,
0200
0000
0000
0320
0000
0000
1030
0001
,
2000
0000
3100
0110
,
0002
0000
0000
0203
0000
0000
0310
1000
,
0020
0000
0000
0130
,
0202
0303
2020
3030
0220
0330
2002
3003
,
0202
0000
0303
0000
0002
0000
0000
0003
2020
0000
0000
3030
2020
0000
3030
0000
,
0100
0000
0001
0100
0010
0000
0001
0100
,
0010
0000
1000
0000
0010
0100
0001
0000
,
0010
0100
0100
0000
1000
1000
0010
0001
,
0000
0101
0000
1100
0000
0110
1000
0001
,
0010
0000
0100
0010
1001
0000
0010
0001
,
0100
0000
0000
0001
0000
0000
0100
0000
0000
0010
0000
0000
1000
0000
1000
0000
,
2000
0000
0000
0000
0000
0000
3100
0001
,
2000
0000
0000
0000
0000
0000
3200
0000
0000
0000
0000
0000
0320
0000
0000
0030
,
0110
0000
0000
0000
0100
0000
0001
0000
0010
0000
0001
0000
0100
0000
0010
0100
,
0020
0000
0000
0000
1030
0000
0100
0000
0010
0000
0001
0000
0011
0000
0010
0100
,
2000
0000
3010
0100
0010
1000
0100
1000
,
0010
0000
0000
0000
1000
0000
1000
0000
0110
0000
0000
0010
0000
0000
1000
0010
,
1000
0000
0000
0000
0000
0000
0000
0000
0000
0000
0000
0000
0000
0000
0000
0000
0000
0000
0000
0000
0000
0000
0000
0000
0000
0000
0000
0000
0000
0000
0000
0000
0000
0000
0000
0000
0000
0000
0000
0000
0000
0000
0000
0000
0000
0000
0000
0000
1100
0000
0000
0000
0000
0000
0000
0000
0000
0000
0000
0000
0000
0000
0000
0000
0000
0000
0000
0000
0000
0000
0000
0000
0000
0000
0000
0000
0000
0000
0000
0000
0000
0000
0000
0000
0000
0000
0000
0000
0000
0000
0000
0000
0000
0000
0000
0000
1001
0000
0000
0000
0000
0000
0000
0000
0000
0000
0000
0000
0000
0000
0000
0000
0000
0000
0000
0000
0000
0000
0000
0000
0000
0000
0000
0000
0000
0000
0000
0000
0000
0000
0000
0000
0000
0000
0000
0000
0000
0000
0000
0000
0000
0000
0000
0000
1010
0000
0000
0000
0000
0000
0000
0000
0000
0000
0000
0000
0000
0000
0000
0000
0000
0000
0000
0000
0000
0000
0000
0000
0001
0000
0000
0000
0000
0000
0000
0000
0000
0000
0000
0000
0000
0000
0000
0000
0000
0000
0000
0000
0000
0000
0000
0101
,
0101
0000
0011
0000
1001
0000
1010
0001
,
1000
1000
0001
0010
0100
0100
0010
0010
,
0020
0000
0000
0000
0000
0000
0000
0000
0000
0000
0000
0000
0000
0000
0000
0030
,
1001
0000
0011
0000
0100
0010
0100
0010
,
0220
0000
0330
1000
1100
1000
1000
1000
,
0001
0010
1000
0000
0100
0100
1000
1000
,
0020
0000
0000
0000
0100
0000
0100
0030
0020
0000
0000
0000
0100
0000
0100
0030
,
0101
0000
0011
0000
0001
1000
0010
0100
,
0010
0000
1000
0001
1000
0000
0010
0000
0100
0000
0100
0000
0010
0000
0010
0000
,
2000
0000
3020
0000
0130
0100
0010
0001
,
1000
0000
0100
0000
0010
0000
1000
0000
0100
0000
0010
0000
0002
0000
0000
0003
,
1001
0000
1001
0000
1000
0100
1001
0100
,
2000
0000
3000
0010
0100
0001
0001
0001
,
0010
0000
0011
0000
0100
0001
0100
0001
,
0200
0000
0000
0000
0010
0000
0010
0300
0210
0000
0000
0000
0001
0000
0001
0300
,
0010
0000
1100
0000
0001
1000
0001
1000
,
0100
0100
0100
0000
0010
0001
0100
0001
,
1000
0000
0010
1000
0010
0000
1000
0000
0100
0000
0010
0000
0001
0000
1000
0000
,
0010
0100
0010
0000
1000
0001
1000
0000
0010
1000
0010
0000
2002
0000
0000
3003
,
0110
0000
0001
0100
0010
1000
1000
0100
,
0100
0000
0010
0000
0001
0000
0010
0000
0001
0000
0100
0000
0010
0100
0010
0000
,
1000
0001
0100
0010
1000
0001
0100
0100
,
0010
0010
0010
0010
0010
1000
0100
0000
,
1000
1000
0001
0001
1000
0010
0100
0010
,
1000
0100
0100
0010
0001
1000
0100
0010
,
0001
0100
0010
1000
1000
0010
0100
0001
,
0000
0000
1000
0000
0010
0000
1000
0000
0010
0100
0010
0100
0010
0000
0000
0000
,
1001
0000
1000
0100
0010
0001
0100
0100
,
0010
0000
0001
0100
0010
1000
0010
0200
,
0301
0000
1000
1000
0001
0001
0100
0100
,
0010
0010
0100
0100
,
1001
0000
1000
0010
1000
0001
0100
0001
,
1000
0001
0010
0100
,
0001
0000
1000
0001
1000
0001
1000
0001
,
1000
0000
0010
0000
0100
0000
0010
1000
,
0100
0010
0001
1000
,
0100
0000
1000
0000
0001
0100
0001
0000
,
0100
0010
1000
0001
,
1000
0000
0001
0100
0010
1000
0100
0000
,
1000
0001
0010
0001
0100
0010
1000
0010
,
0100
0001
1000
0001
0100
0010
1000
0100
,
0010
0010
0001
0001
1000
1000
0010
0010
,
0100
0000
0100
0000
0010
1000
0010
1000
0020
0000
0000
0000
0000
0000
0000
0030
,
2002
0000
0000
3003
1000
0000
0100
0000
1000
0000
0100
0000
0010
0000
0001
0000
,
0020
0000
0031
0020
0000
0130
0100
0100
,
2200
0000
0000
3300
0022
0000
0000
0033
0001
0000
0100
0000
0010
0000
1000
0000
,
0100
0000
0010
0000
0001
0000
0100
0000
0001
0000
1000
0000
0020
0000
0000
0030
,
0200
0000
0310
1000
0001
0000
0100
0001
,
0020
0000
0130
0020
0000
0100
0130
1000
,
0002
0000
2003
0000
3010
0100
0010
0100
,
0010
0010
1000
1000
0001
0001
0010
0010
,
0110
0000
0100
1000
0010
0100
0001
0010
,
0001
1000
0100
0010
0100
1000
0010
0100
,
0001
1000
0010
1000
0001
0100
0001
1000
,
0010
0000
0100
0000
0010
0000
1000
0000
0001
0000
0010
0000
0220
0000
0000
0330
,
2002
0000
0000
3003
0010
0000
1000
0000
0010
0000
0100
0000
0001
0000
0100
0000
,
0010
1000
0100
0010
0001
1000
0100
0010
,
0001
0000
0100
0001
0100
0000
0010
0000
1000
0100
1000
0000
0010
0000
0100
0000
,
0001
0100
0001
0100
0001
0000
1000
0000
0010
0000
0100
0000
0100
0000
0100
0000
,
0020
0000
1000
2030
0000
0000
3100
0100
,
0200
0000
0010
0000
0000
0010
0310
0001
,
2000
0000
0001
3002
0000
0000
0103
0001
,
2000
0010
0000
3020
,
0230
0000
0001
0302
0000
0000
0013
0001
,
0100
0000
0000
0010
0000
0000
1000
0000
0000
0100
0000
0000
0010
0000
0001
0000
,
0002
0000
0100
0000
0000
0100
0103
0010
,
0020
0000
0000
1030
0001
1000
0010
1000
,
0100
1000
0001
0010
0001
1000
0010
1000
,
0100
0010
0001
1000
0100
0010
0001
0001
,
0100
0010
1000
0010
0100
0001
0010
0010
,
0010
0100
1000
0001
0100
0010
1000
0001
,
0100
0000
0100
0000
0100
0000
0010
1000
0010
0000
0100
0001
0100
0000
0000
0000
,
0001
1000
0010
1000
1000
0001
0001
0000
,
0010
0001
0010
0100
1000
0100
1000
1000
,
0001
0000
0100
0000
0010
0000
1000
0000
0001
1000
0001
0000
1000
0001
1000
0000
,
0220
0000
0330
0000
0001
0100
0001
0100
,
0000
0010
0000
1000
0010
1000
0010
0000
,
2002
0000
3003
0001
0100
0001
0001
0010
,
0000
1000
0000
0100
0100
0100
0100
0000
,
0220
0000
0330
0000
0001
1000
0001
0020
,
0000
0031
0000
0100
0010
0001
0001
0000
,
1000
0001
1000
0000
0001
0100
0001
0000
,
1000
0100
0010
0001
1000
0100
0010
0000
,
2002
0000
0000
0000
,
3003
0000
0000
0000
;

//--------------- dance-single - ??????????????? ----------------
#NOTES:
     dance-single:
     ???????????????:
     Hard:
     16:
     0,0,0,0,0:
0000
0000
0000
0000
,
0000
0000
0000
0000
,
0000
0000
0000
0000
,
0000
0000
0000
0000
,
0000
0000
0000
0000
,
0020
0000
0000
2030
0000
0000
0100
0100
,
3200
0000
0000
0000
0000
0310
0001
0100
,
2000
0000
0000
3020
0000
0000
0031
0001
,
0002
0000
0000
0203
,
0320
0000
0000
2030
0000
0000
3010
1000
,
0200
0000
0000
0310
,
1100
0101
1010
0110
,
1001
0000
0011
0000
0001
0010
0100
0010
,
0002
0000
0000
0000
0000
0000
1003
0010
0200
0000
0000
0000
0000
0000
0310
0100
,
0020
0000
0000
0000
0000
0000
1030
0100
0020
0000
0000
0000
0000
0000
0031
0100
,
0020
0000
0000
0030
1000
0010
0100
0001
,
0000
0010
0001
1000
0100
0010
0110
0010
,
0002
0000
0000
0000
0000
0000
0013
0100
0020
0000
0000
0000
0000
0000
0130
0000
,
1000
0000
0000
0100
0000
0000
1010
0000
0000
0001
0000
0000
0100
0000
0010
0000
,
0220
0000
0000
0000
0000
0330
0010
1000
,
0200
0000
0000
0010
0000
0300
0011
0000
,
1001
1000
1000
0011
0001
0001
0110
0100
,
1010
0000
0010
0000
0010
0000
0101
0000
0100
0000
0100
0000
0010
1000
0010
1000
,
0010
1100
1000
0010
0110
0100
0010
0000
,
0100
0001
0000
0010
0001
0000
0100
0001
0000
0010
0001
0000
0010
0100
0010
0000
,
1001
0000
0100
0000
0010
0000
0100
0010
,
1001
0000
0001
0000
0100
0010
0100
0010
,
1000
0000
0100
0000
1000
0000
0100
0000
0010
0001
0010
0001
0010
0001
0010
0001
,
0010
0000
0000
0000
,
0100
0000
0100
0000
0011
0001
0001
0001
,
0020
0000
0030
0010
0110
0000
0100
0100
,
0010
0000
0011
0000
1010
1000
1000
1000
,
0200
0000
0300
0010
0011
0000
0001
0100
,
0010
0000
1010
0000
1100
0100
0100
0100
,
0010
0001
0100
0010
1010
0000
0011
1000
,
0010
0001
0010
0000
0010
0100
0001
0010
,
0010
0010
0011
0010
1010
0010
0110
0000
,
2000
0000
3001
0000
0110
0100
0110
0100
,
0102
0000
0013
0000
0101
0001
0101
0100
,
0010
1100
0010
0101
,
0010
0000
1100
0110
0011
0000
0010
0001
,
0010
0000
0110
0000
0010
0001
1000
0010
,
0100
0001
0010
1100
0100
0010
0001
1000
,
0010
0000
0100
0010
0100
0000
0001
0000
1000
0010
0100
0000
0010
0000
0100
0000
,
0001
0010
0100
1000
0001
0100
0010
0000
0010
0000
0110
0000
0010
0000
0000
0000
,
1100
0000
0000
0000
0010
0000
0001
0000
0010
0000
0100
0000
0010
0000
0000
1000
,
0010
0000
0000
0100
0001
0000
1000
0000
0100
0000
0010
0000
0001
0000
0000
0000
,
0010
0000
0001
0000
0100
0000
0010
0000
1000
0000
0001
0000
0100
0000
0010
1000
,
0010
1000
0010
1000
0010
1000
0010
1000
0010
0000
1000
0000
1100
0000
0000
0000
,
0001
0000
0000
0000
0100
0000
1000
0000
0100
0000
0010
0000
0100
0000
0000
0001
,
0100
0000
0000
0010
1000
0000
0010
0000
0100
0000
0010
0000
1010
0000
0000
0000
,
0100
0010
0001
0100
1000
0100
1000
0100
,
0000
0000
0001
0000
1000
0000
1000
0000
0001
0010
0100
0010
0001
0000
1000
0000
,
0101
0000
0001
0010
1000
0010
0100
0000
,
0110
0000
0001
0100
0010
1000
0010
0000
,
0101
0000
1010
0010
0100
0010
1100
0100
,
0011
0000
0001
0010
1000
0010
0011
0000
,
0020
0000
0031
1000
0001
1000
1100
0000
,
0020
0000
0130
0010
0100
0010
1000
0000
,
0200
0000
1300
0010
0100
0100
0001
0000
,
0010
0100
0100
0000
,
0010
0011
0100
1010
,
0010
0000
0101
0000
0010
1010
0010
1100
,
0010
0011
1010
0010
,
1001
0000
0000
0000
0010
0000
0100
0000
1000
0001
1000
0001
1000
0000
0100
0000
,
0010
0001
0010
0001
1000
0010
1000
0010
,
1100
0100
1000
1000
0010
0010
0100
0100
,
0001
0000
0001
0000
0010
0000
0001
0000
0100
0000
0100
0000
0010
0100
0010
0100
,
0010
0100
0010
0100
0010
0100
0010
0100
0020
0000
0000
0000
0000
0000
0000
0030
,
2000
0000
3010
0110
0100
1010
0100
0110
,
0010
0000
0011
0001
0010
0100
1010
0100
,
0020
0000
0000
0130
0110
0001
1000
0010
,
0100
0010
1010
0010
0010
0010
0011
0000
,
0110
0000
1001
0010
0100
1000
0100
0010
,
0012
0000
0000
0000
0103
0000
0001
0000
0000
0000
0010
0100
0010
0000
0100
0000
,
2100
0000
3010
0100
0020
0000
1030
0001
,
0010
0000
0100
0000
0010
0000
0001
0000
1000
0000
0001
0000
0010
0001
0010
0000
,
0011
0000
0000
0000
1000
0000
0001
0000
0100
0010
0100
0000
0010
0000
1000
0000
,
0010
0100
0001
0000
0010
0000
0100
1000
0100
0000
0010
0000
0001
0100
0010
0000
,
0110
0000
0000
0000
1000
0000
0010
0100
0010
0000
1000
0000
0100
1000
0001
0000
,
0010
0000
0001
0100
0010
0000
0010
1000
0100
1000
0010
0000
1010
0000
0000
0000
,
0101
0000
0000
0000
0010
0000
0100
0000
1000
0010
1000
0000
0100
0000
0010
0001
,
0010
0000
0100
0000
0010
0001
0100
0000
1000
0001
0100
0000
0001
0010
0100
0000
,
1000
0010
1000
0100
0100
1000
0001
0011
,
0010
0001
0100
0001
0010
0000
0100
0000
1000
0000
0001
0000
0100
0000
0010
0000
,
1000
0000
0001
0000
0100
0010
1000
0000
0100
0000
0100
0000
0010
0001
0100
0000
,
0010
0000
1000
0000
0010
0100
0010
0000
1000
0100
1000
0000
0001
0100
0001
0000
,
0010
0000
0011
0000
0001
0100
0010
0000
1000
0000
0010
0000
0100
0001
0100
0000
,
0001
0000
0010
0000
0100
0000
1000
0000
0010
1000
0010
1000
0001
0100
0001
0100
,
0010
0000
1000
0000
0100
1000
0001
0000
0100
0000
0010
0000
1000
0010
0100
0000
,
0001
0000
0010
0000
0001
0100
0001
0000
1000
0010
1000
0000
0010
0100
0010
0000
,
0100
0000
0001
0000
1000
0001
0100
0000
0010
0000
1000
0000
0100
0010
0001
0000
,
0010
0000
0001
0100
0010
0000
1000
0010
0100
0000
0010
0000
1000
0000
0001
0000
,
0010
0000
0001
0000
0100
0010
0100
0000
0010
0000
1000
0100
1000
0000
0001
0000
,
0100
0000
0010
1000
0100
0000
1000
0000
0001
0100
0010
0000
1000
0001
1000
0000
,
0100
0010
0001
0101
0010
1000
1010
0010
,
1000
0100
0001
0100
1000
0100
0001
0100
,
1000
0100
0010
0100
1000
0100
0010
0100
1000
0100
0010
0100
1000
0000
0000
0000
,
0010
0100
0001
0100
0010
0100
0001
0100
0010
0100
0001
0100
0010
0000
0000
0000
,
0010
1000
0010
1000
0000
0000
0001
0100
0001
0100
0000
0000
0001
1000
0001
1000
,
0001
0000
0100
0000
0000
0000
0101
0000
0000
0110
0000
0000
0101
0000
1000
0000
,
0020
0000
0000
0000
0000
0000
0130
0000
0001
0000
0100
0000
0010
0000
1000
0100
,
0010
0001
0000
0000
0100
0100
0010
0010
,
2020
0000
0000
3030
0100
0000
1000
0000
,
0002
0000
0003
0010
0011
0100
0010
0000
,
0101
0000
1001
0000
0022
0000
0033
0100
,
1000
0100
0000
0000
0010
0000
0001
0000
,
1000
0000
0010
0000
0100
0010
1000
0000
0001
0100
0010
0000
1000
0001
1000
0000
,
0010
0100
0001
0000
1000
0010
0100
0001
0010
0000
0100
0000
0110
0000
0000
0000
,
2002
0000
0000
0000
,
3003
0000
0000
0000
;

//--------------- dance-double - ??????????????? ----------------
#NOTES:
     dance-double:
     ???????????????:
     Challenge:
     16:
     0,0,0,0,0:
00000000
00000000
00000000
00000000
,
00000000
00000000
00000000
00000000
,
00000000
00000000
00000000
00000000
,
00000000
00000000
00000000
00000000
,
00000000
00000000
00000000
00000000
,
00002000
00000000
00000000
00203000
00000000
00000000
01000000
01000000
,
02300000
00000000
00000000
00000000
00000000
03100000
00010000
00000100
,
00002000
00000000
00000000
00203000
00000000
00000000
00310000
00010000
,
00020000
00000000
00000000
02030000
,
03200000
00000000
00000000
00302000
00000000
00000000
00003010
00000000
,
00000200
00000000
00000000
00000300
,
00001100
00000101
00001010
00000110
,
00001001
00000000
00000011
00000000
00000001
00000010
00000100
00000010
,
00000002
00000000
00000000
00000000
00000000
00000000
00001003
00000010
00000200
00000000
00000000
00000000
00000000
00000000
00010300
00001000
,
00020000
00000000
00000000
00000000
00000000
00000000
00031000
01000000
00200000
00000000
00000000
00000000
00000000
00000000
00310000
01000000
,
00200000
00000000
00000000
00300000
10000000
00100000
01000000
00010000
,
00000000
00100000
00010000
10000000
01000000
00100000
01100000
00100000
,
00020000
00000000
00000000
00000000
00000000
00000000
00031000
00010000
00002000
00000000
00000000
00000000
00000000
00000000
00003100
00000000
,
00001000
00000000
00000000
00000100
00000000
00000000
00001010
00000000
00000000
00000001
00000000
00000000
00000100
00000000
00000010
00000000
,
00000220
00000000
00000000
00000000
00000000
00000330
00001000
00100000
,
02000000
00000000
00000000
00100000
00000000
03000000
00110000
00000000
,
00011000
00001000
00001000
00110000
00010000
00010000
01100000
01000000
,
00101000
00000000
00100000
00000000
00100000
00000000
00010100
00000000
00000100
00000000
00000100
00000000
00000010
00010000
00000010
00010000
,
00000010
00010100
00001000
00100000
01100000
01000000
00100000
00000000
,
01000000
00010000
00000000
00010000
00000010
00000000
00000100
00010000
00000000
00001000
00010000
00000000
00001000
00010000
00001000
00000000
,
00011000
00000000
00010000
00000000
00001000
00000000
00010000
00000010
,
00011000
00000000
00100000
00000000
01000000
00100000
01000000
00100000
,
10000000
00000000
01000000
00000000
10000000
00000000
01000000
00000000
00100000
00010000
00100000
00010000
00100000
00010000
00100000
00010000
,
00100000
00000000
00000000
00000000
,
01000000
00000000
01000000
00000000
00110000
00010000
00010000
00010000
,
00200000
00000000
00300000
00010000
00011000
00000000
00000010
00000010
,
00000100
00000000
00001100
00000000
00000101
00000001
00000001
00000001
,
00000020
00000000
00000030
00000100
00001100
00000000
00010000
01000000
,
00100000
00000000
10100000
00000000
11000000
01000000
01000000
01000000
,
00100000
00010000
01000000
00100000
10100000
00000000
00110000
00100000
,
00100000
00010000
00100000
00000000
00100000
00000100
00001000
00010000
,
00010000
00010000
00101000
00100000
10100000
00100000
01100000
00000000
,
20000000
00000000
30010000
00000000
01100000
01000000
01100000
01000000
,
01020000
00000000
00130000
00000000
01010000
00010000
01010000
01000000
,
00100000
11000000
00100000
01010000
,
00100000
00000000
11000000
01100000
00110000
00000000
00100000
00000100
,
00010000
00000000
00000110
00000000
00000100
00001000
00000001
00000100
,
00000010
00001000
00000100
00000011
00000010
00000100
00001000
00000001
,
00000100
00000000
00010000
00001000
00010000
00000000
00010000
00000000
00001000
00100000
00000100
00000000
00000010
00000000
00000100
00000000
,
00001000
00100000
01000000
00001000
00010000
01000000
00100000
00000000
00100000
00000000
01100000
00000000
00100000
00000000
00000000
00000000
,
00010010
00000000
00000000
00000000
00000100
00000000
00001000
00000000
00000100
00000000
00000010
00000000
00000100
00000000
00000000
00000001
,
00000100
00000000
00000000
00000010
00001000
00000000
00000001
00000000
00000010
00000000
00000100
00000000
00001000
00000000
00000000
00000000
,
00000100
00000000
00001000
00000000
00000010
00000000
00000100
00000000
00000001
00000000
00001000
00000000
00000010
00000000
00000100
00000001
,
00000100
00000001
00000100
00000001
00000100
00000001
00000100
00000001
00000100
00000000
00000001
00000000
00000011
00000000
00000000
00000000
,
00010000
00000000
00000000
00000000
01000000
00000000
10000000
00000000
01000000
00000000
00100000
00000000
01000000
00000000
00000000
00010000
,
01000000
00000000
00000000
00100000
10000000
00000000
00100000
00000000
01000000
00000000
00100000
00000000
10100000
00000000
00000000
00000000
,
01000000
00100000
00010000
01000000
10000000
01000000
10000000
01000000
,
00000000
00000000
00010000
00000000
10000000
00000000
10000000
00000000
00010000
00100000
01000000
00100000
00010000
00000000
10000000
00000000
,
00011000
00000000
00001000
00000100
00000001
00000100
00000010
00000000
,
00000110
00000000
00001000
00000010
00000100
00000001
00000100
00000000
,
00001010
00000000
00011000
00100000
01000000
00100000
11000000
01000000
,
00110000
00000000
00010000
00100000
10000000
00100000
00110000
00000000
,
00002000
00000000
00013000
00000001
00001000
00000001
00000011
00000000
,
00000200
00000000
00000310
00001000
00000100
00000100
00000100
00000000
,
00002000
00000000
00013000
00100000
01000000
01000000
00010000
00000000
,
00100000
01000000
01000000
00000000
,
00100000
00110000
01000000
10100000
,
00100000
00000000
01010000
00000000
00100000
10100000
00100000
11000000
,
00100000
00110000
10100000
00100000
,
10010000
00000000
00000000
00000000
00100000
00000000
01000000
00000000
10000000
00010000
10000000
00010000
10000000
00000000
01000000
00000000
,
00100000
00010000
00000010
00010000
00001000
00100000
00001000
00000010
,
00010100
01000000
00001000
00001000
00100000
00100000
00010000
00000100
,
00010000
00000000
00010000
00000000
00001000
00000000
00001000
00000000
00001000
01000000
00001000
01000000
00001000
01000000
00001000
01000000
,
00001000
01000000
00001000
01000000
00001000
01000000
00001000
01000000
00001000
00000000
00000000
00000000
00000000
00000000
00000000
00000000
,
20000000
00000000
30100000
01100000
01000000
10100000
01000000
01100000
,
00100000
00000000
00110000
00010000
00100000
01000000
10100000
01000000
,
00200000
00000000
00000000
01300000
01100000
00010000
10000000
00100000
,
01000000
00100000
10100000
00100000
00100000
00100000
00110000
00000000
,
00011000
00000000
00001001
00000100
00000010
00000001
00000010
00000100
,
00002100
00000000
00000000
00000000
00003010
00000000
00001000
00000000
00000000
00000000
00000100
00000010
00000100
00000000
00000010
00000000
,
00000012
00000000
00000103
00000010
00000200
00000000
00000301
00001000
,
00000100
00000000
00000010
00000000
00000100
00000000
00001000
00000000
00000001
00000000
00001000
00000000
00000100
00001000
00000100
00000000
,
00001100
00000000
00000000
00000000
00001000
00000000
00010000
00000000
01000000
00100000
01000000
00000000
00100000
00000000
10000000
00000000
,
00100000
01000000
00010000
00000000
00100000
00000000
01000000
10000000
01000000
00000000
00100000
00000000
00010000
01000000
00100000
00000000
,
01100000
00000000
00000000
00000000
10000000
00000000
00100000
01000000
00100000
00000000
10000000
00000000
01000000
10000000
00010000
00000000
,
00100000
00000000
00010000
01000000
00100000
00000000
00100000
10000000
01000000
10000000
00100000
00000000
10100000
00000000
00000000
00000000
,
00011000
00000000
00000000
00000000
00000100
00000000
00000010
00000000
00000001
00000100
00000001
00000000
00000010
00000000
00000100
00001000
,
00000100
00000000
00000010
00000000
00000100
00001000
00000010
00000000
00000001
00001000
00000010
00000000
00001000
00000100
00000010
00000000
,
00000001
00000100
00000001
00000010
00000010
00000001
00001000
00001100
,
00000100
00001000
00000010
00001000
00000100
00000000
00000010
00000000
00000001
00000000
00001000
00000000
00000010
00000000
00000100
00000000
,
00001000
00000000
00010000
00000000
01000000
00010000
00001000
00000000
01000000
00000000
01000000
00000000
00100000
00001000
00010000
00000000
,
00100000
00000000
00001000
00000000
00010000
00100000
00010000
00000000
00001000
00000100
00001000
00000000
00010000
01000000
00010000
00000000
,
00000010
00000000
00001010
00000000
00001000
00010000
00100000
00000000
00001000
00000000
00100000
00000000
01000000
00010000
01000000
00000000
,
00010000
00000000
00000010
00000000
00000100
00000000
00001000
00000000
00001000
00010000
00001000
00010000
00100000
00001000
00100000
00001000
,
00100000
00000000
00001000
00000000
01000000
00010000
00001000
00000000
01000000
00000000
00100000
00000000
00001000
00100000
00010000
00000000
,
00001000
00000000
00000010
00000000
00001000
00000100
00001000
00000000
00010000
00001000
00010000
00000000
00001000
00100000
00001000
00000000
,
01000000
00000000
00010000
00000000
10000000
00010000
01000000
00000000
00100000
00000000
10000000
00000000
01000000
00100000
00010000
00000000
,
00100000
00000000
00010000
01000000
00100000
00000000
10000000
00100000
01000000
00000000
00100000
00000000
10000000
00000000
00010000
00000000
,
00100000
00000000
00001000
00000000
00100000
00010000
00100000
00000000
00100000
00000000
00010000
00001000
00010000
00000000
00001000
00000000
,
00000100
00000000
00000010
00001000
00000100
00000000
00001000
00000000
00010001
00000100
00000010
00000000
00001000
00000001
00001000
00000000
,
00010000
00000000
00010000
00010100
00100000
00101000
00000010
00001000
,
00001000
01000000
00010000
01000000
00001000
01000000
00010000
01000000
,
10000000
01000000
00100000
01000000
10000000
01000000
00100000
01000000
10000000
01000000
00100000
01000000
10000000
00000000
00000000
00000000
,
00100000
01000000
00010000
01000000
00100000
01000000
00010000
01000000
00100000
01000000
00010000
01000000
00100000
00000000
00000000
00000000
,
00100000
10000000
00100000
10000000
00000000
00000000
00010000
01000000
00010000
01000000
00000000
00000000
00010000
10000000
00010000
10000000
,
00010000
00000000
01000000
00000000
00000000
00000000
01010000
00000000
00000000
01100000
00000000
00000000
01010000
00000000
00001000
00000000
,
00000200
00000000
00000000
00000000
00000000
00000000
00000310
00000000
00001000
00000000
00000010
00000000
00000100
00000000
00000001
00000010
,
00000100
00000000
00000000
00001000
00000000
00000000
00000000
00000000
00000010
00000000
00000010
00000000
00000100
00000000
00000100
00000000
,
00000202
00000000
00000000
00000303
00010000
00000000
00001000
00000000
,
00020000
00000000
00030000
00000100
00001100
00000010
00000100
00000000
,
00010010
00000000
00001001
00000000
00002200
00000000
00003300
00000010
,
00000001
00000000
00000000
00000010
00000000
00000000
00000000
00000000
00000100
00000000
00000000
00000000
00010000
00000000
00000000
00000000
,
00000001
00000000
00000100
00000000
00000010
00000100
00000001
00000000
00001000
00000010
00000100
00000000
00000001
00001000
00000001
00000000
,
00000100
00000010
00001000
00000000
00000001
00000100
00000010
00001000
00000100
00000000
00000010
00000000
00000110
00000000
00000000
00000000
,
00002002
00000000
00000000
00000000
,
00003003
00000000
00000000
00000000
;
