#TITLE:Shake It Off;
#SUBTITLE:;
#ARTIST:Gary Valenciano;
#TITLETRANSLIT:;
#SUBTITLETRANSLIT:;
#ARTISTTRANSLIT:;
#GENRE:;
#CREDIT:John Earl De Juan;
#MUSIC:Shake it Off.ogg;
#BANNER:Shake It Off-bn.png;
#BACKGROUND:Shake It Off-bg.png;
#CDTITLE:;
#SAMPLESTART:100.033;
#SAMPLELENGTH:12.986;
#SELECTABLE:YES;
#OFFSET:-0.133;
#BPMS:0.000=133.988;
#STOPS:;
#BGCHANGES:;
#FGCHANGES:;

//--------------- dance-single - John Earl De Juan ----------------
#NOTES:
     dance-single:
     John Earl De Juan:
     Beginner:
     1:
     0.123,0.167,0.061,0,0:
0000
0000
0000
0000
,
0000
0000
0000
0000
,
0000
0000
0000
0000
,
0000
0000
0000
0000
,
1000
0000
0000
0000
,
0001
0000
0000
0000
,
1000
0000
0000
0000
,
0001
0000
0000
0000
,
0010
0000
0000
0000
,
0100
0000
0000
0000
,
0001
0000
0000
0000
,
0001
0000
0000
0000
,
0010
0000
0000
0000
,
0100
0000
0000
0000
,
1000
0000
1000
0000
,
0001
0000
0001
0000
,
0100
0000
0000
0000
,
0010
0000
0000
0000
,
0001
0000
0001
0000
,
1000
0000
1000
0000
,
0100
0100
0000
0000
,
0010
0010
0000
0000
,
0001
0001
0000
0000
,
1001
0000
0000
0000
,
0110
0000
0000
0000
,
0110
0000
0000
0000
,
0001
0000
1000
0000
,
0010
0000
0100
0000
,
0001
0001
0000
0000
,
1000
1000
0000
0000
,
0100
0000
0000
0000
,
0100
0000
0000
0000
,
1000
1000
0000
0000
,
0001
0001
0000
0000
,
0010
0000
0000
0000
,
0010
0000
0000
0000
,
0001
0000
0000
0000
,
1000
0000
0000
0000
,
0001
0001
0001
0000
,
1000
0000
1000
0000
,
0010
0000
0010
0000
,
0100
0000
0100
0000
,
0001
0000
0000
0000
,
1001
0000
0000
0000
,
0100
0000
0100
0000
,
0010
0000
0010
0000
,
0001
0000
0001
0000
,
1000
0000
1000
0000
,
0010
0000
0001
0000
,
1000
0000
0100
0000
,
0100
0100
0000
0000
,
0100
0100
0000
0000
,
1000
0000
0000
0000
,
0001
0000
0000
0000
,
0110
0000
0000
0000
,
1001
0000
0000
0000
,
1000
1000
0000
0000
,
0010
0010
0000
0000
,
0100
0000
0000
0000
,
0100
0000
0000
0000
,
0001
0001
0000
0000
,
0100
0100
0000
0000
,
0010
0000
0000
0000
,
0010
0000
0010
0000
,
1001
0000
0000
0000
;

//--------------- dance-single - John Earl De Juan ----------------
#NOTES:
     dance-single:
     John Earl De Juan:
     Easy:
     4:
     0.27,0.306,0.148,0.043,0:
0000
0000
0000
0000
,
0000
0000
0000
0000
,
0000
0000
0000
0000
,
0000
0000
0000
0000
,
1000
0000
1000
0000
,
1000
1000
1000
1000
,
0001
0000
0001
0000
,
0001
0001
0001
0001
,
0010
0000
0010
0000
,
0010
0010
0010
0010
,
0100
0000
0100
0000
,
0100
0100
0100
0100
,
1000
0100
0010
0001
,
0001
0110
1000
1001
,
0100
0010
1000
0001
,
0200
0000
0010
0310
,
1000
1000
0100
1000
,
0001
0001
0100
0001
,
0110
0000
1001
0000
,
0010
0100
0010
0100
,
0001
0100
1000
0000
,
0001
0010
1000
0000
,
0100
0100
0010
0000
,
0001
0001
1000
0000
,
0001
1001
1000
0000
,
0010
0110
0100
0000
,
0100
0001
0010
1000
,
0010
0001
0100
1000
,
0001
0001
0010
0100
,
1000
1000
0100
0010
,
1001
0000
0100
0000
,
1001
0000
0010
0000
,
0100
0100
1000
0010
,
0100
0100
0001
0010
,
1000
0000
0110
0000
,
0001
0000
0110
0000
,
1000
0001
1000
0001
,
0010
0100
0010
0100
,
1000
1000
0001
0001
,
1000
0010
0001
0010
,
0100
0000
0100
0100
,
0010
0000
0001
0001
,
1000
1000
1000
1000
,
2002
0000
0000
3003
,
1000
0000
0001
0000
,
0010
0100
0001
1000
,
0001
0000
1000
0000
,
0001
1000
0010
0100
,
0001
0010
0010
0001
,
1000
0100
0100
1000
,
0002
0000
2003
0000
,
3100
0100
0100
0100
,
1000
0100
0100
0100
,
0001
0100
0100
0100
,
1001
0000
0110
0000
,
0001
0001
1000
1000
,
0001
0001
0010
0100
,
1000
1000
0100
0010
,
1001
0000
0100
0000
,
1001
0000
0010
0000
,
0100
0100
1000
0010
,
0100
0100
0001
0010
,
1000
0000
0110
0000
,
0001
0000
0110
0000
,
0100
0000
0000
0000
;

//--------------- dance-single - John Earl De Juan ----------------
#NOTES:
     dance-single:
     John Earl De Juan:
     Medium:
     7:
     0.364,0.417,0.2,0.07,0:
0000
0000
0000
0000
,
0000
0000
0000
0000
,
0000
0000
0000
0000
,
0000
0000
0000
0000
,
1000
0001
1000
1000
,
0001
1000
0001
0001
,
0010
0100
0010
0010
,
0100
0000
0010
0000
0100
0010
0100
0000
,
1000
0100
0010
0010
,
0001
0100
0010
0010
,
0001
1000
0100
0010
,
0001
1000
0001
1000
0001
1000
0001
0000
,
1000
1100
0001
0101
,
0010
0000
0100
0000
0001
1000
0100
0000
,
0001
0100
0001
0100
,
1000
0100
1000
0100
,
0010
0000
0010
0000
0100
0001
0100
0000
,
0010
0000
0010
0000
1000
0100
1000
0000
,
0001
1000
0001
0000
1000
0001
1000
0000
,
0110
1100
0101
1001
,
1000
0000
0100
0000
0001
0001
0001
0000
,
0001
0000
0100
0000
1000
1000
1000
0000
,
0010
0000
0100
0000
0010
0010
0010
0000
,
1001
0100
0001
1000
,
1100
0000
1000
0000
0100
1000
0001
0000
,
0101
0000
0010
0000
0010
1000
0001
0000
,
0001
0101
1000
1010
,
0001
0000
0001
0000
0010
0100
1000
0000
,
0010
0000
0010
0000
0010
1000
1000
0000
,
0100
0000
0100
0000
0001
0001
0100
0000
,
1002
0000
1003
0000
,
2000
0000
3001
0000
,
0010
0000
0010
0000
1000
0100
0100
0000
,
0001
0000
0001
0000
1000
0010
0010
0000
,
0210
0000
0310
0000
,
0120
0000
0130
0000
,
1000
0000
1000
0000
0010
0001
0010
0000
,
0001
0000
0001
0000
0010
1000
0010
0000
,
0100
0000
0100
0000
0010
0100
0010
0000
,
0001
1000
0100
0000
1000
0001
0100
0000
,
0001
0000
0001
0000
0100
1000
0010
0000
,
1000
0000
1000
0000
0010
0100
0001
0000
,
0001
1000
0100
0010
,
0100
0000
0001
0000
1000
0001
0110
0000
,
2000
0010
0010
3010
,
1001
0000
0000
0000
,
0002
0100
0100
0103
,
1001
0000
0000
0000
,
1000
1100
0001
0101
,
0001
1010
1000
0011
,
0001
0010
0100
1000
,
1000
0000
0100
0000
0100
0010
0001
0000
,
1000
0000
1000
0000
0010
0010
0010
0000
,
0100
0100
0100
0000
0001
0000
1001
0000
,
1000
0000
0100
0000
0001
1000
0100
0000
,
0001
0100
0001
0100
0010
1000
0010
0000
,
0010
0000
0010
0000
0010
1000
1000
0000
,
0100
0000
0100
0000
0001
0001
0100
0000
,
1002
0000
1003
0000
,
2000
0000
3001
0000
,
0001
0000
0001
0000
0100
1000
0010
0000
,
1000
0000
1000
0000
0010
0100
0001
0000
,
0001
1000
0100
0010
,
0100
0000
0001
0000
1000
0001
0100
0000
,
0010
0000
0000
0001
;

//--------------- dance-single - John Earl De Juan ----------------
#NOTES:
     dance-single:
     John Earl De Juan:
     Hard:
     9:
     0.463,0.473,0.183,0.087,0.022:
0000
0000
0000
0000
,
0000
0000
0000
0000
,
0000
0000
0000
0000
,
0000
0000
0000
0000
,
0010
0000
1000
0000
0000
0001
0100
0000
,
0010
0001
1000
0000
0100
0010
0001
0000
,
0010
0001
0100
0000
0010
1000
0100
0000
,
0001
1000
0010
0100
0001
1000
0110
0000
,
0010
0000
0001
0000
0000
1000
0100
0000
,
0010
0001
1000
0000
0100
0010
1000
0000
,
0001
1000
0001
1000
0010
0100
0010
0100
,
0001
1000
0010
0100
0001
1000
1001
0000
,
0001
1000
0100
0000
1000
0001
0100
0000
,
0100
0001
0100
0010
1000
0010
1000
0000
,
0001
0001
2000
0000
3010
0010
0200
0000
,
0301
0000
0100
0000
0010
1000
0100
0000
,
1000
0001
0100
0010
0010
1000
0100
0000
,
1000
0001
0100
0010
0010
0001
0100
0000
,
1000
0100
0001
0100
,
0001
1000
0010
0100
0010
1000
0100
0000
,
1000
0000
1100
0000
0010
0001
0101
0000
,
0001
0000
0101
0000
0010
1000
1100
0000
,
0001
1000
0100
0010
0001
1000
0100
0000
,
1001
0000
0100
0000
1000
0010
0001
0000
,
1001
0000
0100
0000
0001
0010
1000
0000
,
0001
1000
0100
0000
0010
0001
1000
0000
,
0010
0001
1000
0100
0010
0010
0010
0000
,
0001
1000
0010
0100
0001
0001
0001
0000
,
1000
0100
0001
0000
1000
0100
0001
0000
,
0001
0101
1000
1100
,
0002
0000
0100
0000
0010
1000
0013
0000
,
2000
0000
0010
0000
0001
0010
3001
0000
,
0001
0010
1000
0000
0001
0010
1000
0000
,
0001
0011
1000
1010
,
2000
0000
0001
0000
0010
0001
3100
0000
,
0002
0000
1000
0000
0010
1000
0103
0000
,
0001
0000
0001
0000
0001
1000
0001
0000
,
1000
0000
1000
0000
0001
1000
0001
0000
,
0010
0100
0010
1000
0010
0001
0010
0000
,
0100
0001
0100
1000
0100
0010
0100
0000
,
0010
0000
0010
0000
0100
0010
0100
0000
,
0100
0000
0100
0000
0010
0100
0010
0000
,
0001
1000
0100
0010
0001
0100
0010
0000
,
1001
0000
0000
1000
0100
0000
0000
0001
0100
0000
0000
0010
0100
0000
0000
0000
,
1000
1000
0002
0000
0100
0000
0103
0000
,
0001
0000
1100
0000
0010
0001
1000
0000
,
0001
0001
2000
0000
0010
0000
3010
0000
,
0001
0000
0101
0000
0010
1000
0001
0000
,
0100
0100
0010
0000
0001
1000
0100
0000
,
0010
0010
0100
0000
0100
0010
0001
0000
,
1000
0000
0100
0000
1000
0100
1100
0000
,
0001
0000
0100
0000
0001
0100
0101
0000
,
1000
1000
1000
1000
,
0001
0001
0001
0001
,
0010
0000
0100
0000
0000
0000
0001
0000
1000
0000
0100
0000
0010
0000
0001
1000
,
0001
0000
0100
0010
0100
0000
0001
0000
1000
0000
0100
0000
0100
0000
0000
0000
,
0001
0100
0001
0000
1000
0100
1000
0000
,
0010
1001
0100
1001
,
0200
1000
0001
1300
,
0020
0001
1000
0031
,
0001
0000
1001
0000
0010
1000
0100
0000
,
1000
0000
0001
0000
0010
0100
0001
0000
,
1000
0001
1000
0010
1000
0100
1000
0000
,
0001
0010
0100
1000
0010
0100
0010
0001
,
1010
0000
0000
0001
;

//--------------- dance-double - John Earl De Juan ----------------
#NOTES:
     dance-double:
     John Earl De Juan:
     Challenge:
     10:
     0,0,0,0,0:
00000000
00000000
00000000
00000000
,
00000000
00000000
00000000
00000000
,
00000000
00000000
00000000
00000000
,
00000000
00000000
00000000
00000000
,
00001000
00000000
00100000
00000000
00000000
00010000
01000000
00000000
,
00100000
00010000
10000000
00000000
01000000
00100000
00010000
00000000
,
00100000
00010000
01000000
00000000
00100000
10000000
01000000
00000000
,
00010000
10000000
00100000
01000000
00001000
00010000
00011000
00000000
,
00000010
00000000
00001000
00000000
00000000
00000001
00000100
00000000
,
00000010
00001000
00000001
00000000
00000100
00000010
00000001
00000000
,
00001000
00000001
00001000
00000001
00000010
00000100
00000010
00000100
,
00001000
00000001
00000010
00000100
00001000
00010000
00011000
00000000
,
00010000
10000000
01000000
00000000
10000000
00010000
01000000
00000000
,
01000000
00010000
01000000
00100000
10000000
00100000
10000000
00000000
,
00010000
00010000
20000000
00000000
30100000
00100000
02000000
00000000
,
03010000
00000000
01000000
00000000
00010000
00001000
00000100
00000000
,
00000001
00001000
00000100
00000010
00000010
00000001
00000100
00000000
,
00000001
00001000
00000100
00000010
00000010
00001000
00000100
00000000
,
00000001
00000100
00001000
00000100
,
00001000
00000001
00000010
00001000
00010000
00001000
01000000
00000000
,
00010000
00000000
11000000
00000000
00100000
00010000
01010000
00000000
,
00010000
00000000
01010000
00000000
00100000
10000000
11000000
00000000
,
00010000
10000000
01000000
00100000
00010000
10000000
01000000
00000000
,
10010000
00000000
01000000
00000000
10000000
00100000
00010000
00000000
,
00011000
00000000
00000100
00000000
00001000
00000010
00000001
00000000
,
00001000
00000001
00000100
00000000
00000010
00001000
00000001
00000000
,
00000010
00001000
00000001
00000100
00000010
00000010
00000010
00000000
,
00001000
00000001
00000010
00000100
00001000
00001000
00001000
00000000
,
00001000
01000000
00010000
00000000
00001000
01000000
00010000
00000000
,
00010000
01010000
10000000
11000000
,
00020000
00000000
01000000
00000000
00100000
10000000
00130000
00000000
,
20000000
00000000
00100000
00000000
00010000
00100000
30010000
00000000
,
00001000
00100000
00010000
00000000
00001000
00000010
00000001
00000000
,
00001000
00001010
00000001
00000011
,
00000002
00000000
00001000
00000000
00000010
00001000
00000103
00000000
,
00002000
00000000
00000001
00000000
00000010
00000001
00003100
00000000
,
00001000
00000000
00010000
00000000
00010000
10000000
00010000
00000000
,
10000000
00000000
10000000
00000000
00001000
00010000
00001000
00000000
,
00000010
00000100
00000010
00000001
00000010
00001000
00000010
00000000
,
00000100
00001000
00000100
00000001
00000100
00000010
00000100
00000000
,
00001000
00000000
00010000
00000000
01000000
00100000
01000000
00000000
,
01000000
00000000
01000000
00000000
00100000
01000000
00100000
00000000
,
00010000
10000000
01000000
00100000
00010000
01000000
00100000
00000000
,
10010000
00000000
00000000
10000000
01000000
00000000
00000000
00010000
01000000
00000000
00000000
00100000
01000000
00000000
00000000
00000000
,
10000000
10000000
00020000
00000000
01000000
00000000
01030000
00000000
,
00010000
00000000
11000000
00000000
00100000
00010000
10000000
00000000
,
00010000
00010000
20000000
00000000
00100000
00000000
30100000
00000000
,
00010000
00000000
01010000
00000000
00100000
00001000
00010000
00000000
,
00000100
00000100
00000010
00000000
00001000
00000001
00000100
00000000
,
00000010
00000010
00000100
00000000
00000100
00000010
00001000
00000000
,
00000001
00000000
00000100
00000000
00000001
00000100
00000101
00000000
,
00001000
00000000
00000100
00000000
00001000
00000100
00001100
00000000
,
00001000
00001000
00001000
00001000
,
00010000
00010000
00010000
00010000
,
00100000
00000000
01000000
00000000
00000000
00000000
00010000
00000000
10000000
00000000
01000000
00000000
00100000
00000000
00010000
10000000
,
00010000
00000000
01000000
00100000
01000000
00000000
00010000
00000000
10000000
00000000
01000000
00000000
01000000
00000000
00000000
00000000
,
00010000
01000000
00010000
10000000
10000000
01000000
10000000
00000000
,
00100000
01000000
10010000
00000000
01000000
00100000
10010000
00000000
,
02000000
10000000
00010000
13000000
,
00200000
00010000
10000000
00310000
,
00010000
10000000
10100000
00000000
00100000
10000000
01000000
00000000
,
10000000
00010000
01010000
00000000
00100000
01000000
00010000
01000000
,
10000000
00010000
10000000
00100000
10000000
01000000
20000000
00000000
,
30010000
00100000
01000000
10000000
00100000
01000000
00100000
00010000
,
00101000
00000000
00000000
00010000
;
