#TITLE:Sayaw;
#SUBTITLE:;
#ARTIST:Maan Chua;
#TITLETRANSLIT:;
#SUBTITLETRANSLIT:;
#ARTISTTRANSLIT:;
#GENRE:;
#CREDIT:Jenro Jupitel (2024);
#MUSIC:Sayaw.ogg;
#BANNER:Sayaw-bn.png;
#BACKGROUND:Sayaw-bg.png;
#CDTITLE:cdtitle.png;
#SAMPLESTART:31.317;
#SAMPLELENGTH:13.366;
#SELECTABLE:YES;
#OFFSET:-0.369;
#BPMS:0.000=145.890;
#STOPS:;
#BGCHANGES:;
#FGCHANGES:;

//--------------- dance-single - Jenro Jupitel (2024) ----------------
#NOTES:
     dance-single:
     Jenro Jupitel (2024):
     Beginner:
     2:
     0,0,0,0,0:
0000
0000
0000
0000
,
0000
0000
0000
0000
,
0001
0000
0000
0000
,
0001
0000
0000
0000
,
1000
0000
0000
0000
,
0100
0000
0000
0000
,
1000
0000
0000
0000
,
1000
0000
0000
0000
,
0001
0000
0000
0000
,
0100
0000
0000
0000
,
0010
0000
0000
0000
,
0010
0000
0000
0000
,
0001
0000
0000
0000
,
0001
0000
0000
0000
,
1000
0000
0000
0000
,
1000
0000
0000
0000
,
0001
0000
0000
0000
,
1000
0000
0000
0000
,
0000
0000
0000
0000
,
0010
0000
0100
0000
,
0001
0000
1000
0000
,
0100
0000
0010
0000
,
0001
0000
0100
0000
,
0001
0000
1000
0000
,
0001
0000
0010
0000
,
1000
0000
0001
0000
,
1000
0000
0001
0000
,
0100
0000
0010
0000
,
1000
0000
0001
0000
,
0010
0000
0100
0000
,
1000
0000
0010
0000
,
1000
0000
0001
0000
,
1000
0000
0100
0000
,
0001
0000
1000
0000
,
0001
0000
1000
0000
,
0001
0000
0000
0000
,
1000
0000
0000
0000
,
0001
0000
0000
0000
,
0010
0000
0000
0000
,
0001
0000
0000
0000
,
0001
0000
0000
0000
,
1000
0000
0000
0000
,
0010
0000
0000
0000
,
0000
0000
0000
0000
,
0000
0000
0000
0000
,
0010
0000
0100
0000
,
0001
0000
1000
0000
,
0100
0000
0010
0000
,
0001
0000
0100
0000
,
0001
0000
1000
0000
,
0001
0000
0010
0000
,
1000
0000
0001
0000
,
1000
0000
0001
0000
,
0010
0000
0100
0000
,
0001
0000
1000
0000
,
0100
0000
0010
0000
,
0001
0000
0100
0000
,
0001
0000
1000
0000
,
0001
0000
0010
0000
,
1000
0000
0001
0000
,
1000
0000
0001
0000
,
0100
0000
0010
0000
,
1000
0000
0001
0000
,
0010
0000
0100
0000
,
1000
0000
0010
0000
,
1000
0000
0001
0000
,
1000
0000
0100
0000
,
0001
0000
1000
0000
,
0001
0000
1000
0000
,
0100
0000
0010
0000
,
0001
0000
0000
0000
;

//--------------- dance-single - Jenro Jupitel (2024) ----------------
#NOTES:
     dance-single:
     Jenro Jupitel (2024):
     Easy:
     4:
     0,0,0,0,0:
0000
0000
0000
0000
,
0000
0000
0000
0000
,
1000
0000
0001
0001
,
0100
0000
0010
0010
,
0001
0000
1000
1000
,
0100
0000
0010
0100
,
0100
0000
0001
1000
,
1000
0000
0010
0001
,
0001
0000
0100
1000
,
1000
0000
0010
0001
,
0001
0000
1000
0000
,
0001
0100
0001
0000
,
0001
0000
1000
0000
,
1000
0100
1000
0000
,
0010
0000
0100
0000
,
0010
0000
0100
0000
,
0010
0000
0010
0000
,
0001
0000
1000
0000
,
0001
0000
0010
0000
,
1000
0001
0100
0000
,
0001
1000
0010
0000
,
0100
0010
0100
0000
,
0100
0001
0010
1000
,
0001
0000
0001
0000
,
1000
0000
1000
0000
,
0100
0000
0010
0000
,
0001
0100
0010
1000
,
0001
1000
0010
0000
,
1000
0001
0100
0000
,
0010
0100
0010
0000
,
0010
1000
0100
0001
,
1000
0000
1000
0000
,
0001
0000
0001
0000
,
0010
0000
0100
0000
,
1000
0010
0100
0001
,
0001
0000
1000
1000
,
0010
0000
0100
0100
,
1000
0000
0001
0001
,
0010
0000
0100
0010
,
0010
0000
1000
0001
,
0001
0000
0100
1000
,
1000
0000
0010
0001
,
0001
0000
0100
1000
,
0000
0000
0000
0000
,
0000
0000
0000
0000
,
0001
0100
0010
0000
,
1000
0100
0010
0000
,
1000
0000
0001
0000
,
0100
0000
0010
0000
,
0010
0000
0001
0000
,
0100
0000
1000
0000
,
0001
0000
1000
0000
,
0001
0000
0010
0000
,
0001
1000
0010
0000
,
1000
0001
0100
0000
,
0010
0100
0010
0000
,
0010
1000
0100
0000
,
1000
0010
1000
0000
,
0001
0010
0001
0000
,
0010
0000
0100
0000
,
1000
0010
0100
0001
,
1000
0000
0001
0000
,
0100
0010
0100
0000
,
0001
0000
1000
0000
,
0010
0100
0010
0000
,
0001
0000
1000
0000
,
0001
0000
0010
0010
,
0001
0001
1000
1000
,
0100
0100
0010
0010
,
0001
0000
0000
0000
,
1001
0000
0000
0000
;

//--------------- dance-single - Jenro Jupitel (2024) ----------------
#NOTES:
     dance-single:
     Jenro Jupitel (2024):
     Medium:
     10:
     0,0,0,0,0:
0000
0000
0000
0000
,
0000
0000
0000
0000
,
0001
0000
0010
0000
0100
1000
0010
0000
,
1000
0000
1000
0000
0001
0100
0001
0000
,
0010
0000
0100
0000
0001
1000
0100
0000
,
0001
0000
0001
0000
1000
0100
1000
0000
,
0010
0000
0100
0000
0010
1000
0100
0000
,
0100
0000
0100
0000
0010
0001
0010
0000
,
0001
0000
1000
0000
0001
0100
0010
0000
,
0100
0000
0100
0000
0100
0001
1000
0000
,
0100
0010
0001
1000
,
0001
0010
0001
0000
1000
0100
1000
0000
,
0001
0100
0010
1000
,
1000
0010
1000
0000
0001
0100
0001
0000
,
1000
0001
1001
0010
,
0100
0100
0010
0100
,
0100
1000
0001
0100
,
0010
0001
0100
1000
,
0010
1000
0001
1000
,
0100
1000
0001
0000
0010
0001
1000
0000
,
0010
1000
0001
0100
0001
1000
0100
0000
,
0010
0001
0100
0001
1000
0000
0010
0000
,
1000
0010
1000
0100
0010
0001
0100
0000
,
0100
0010
0100
0000
0001
0000
1000
0000
,
0010
0100
0010
0000
1000
0000
0001
0000
,
1000
0001
1000
0001
0010
0100
0010
0100
,
1000
0010
0100
0001
1000
0001
1000
0000
,
0010
0001
1000
0000
0100
1000
0001
0000
,
0100
0001
1000
0010
1000
0001
0010
0000
,
0100
1000
0010
1000
0001
0000
0100
0000
,
0001
0100
0001
0010
0100
1000
0010
0000
,
0010
0100
0010
0000
1000
0000
0010
0000
,
0100
0010
0100
0000
0001
0000
0010
0000
,
0001
1000
0001
1000
0100
0010
0100
0010
,
0001
0100
0010
1000
0001
1000
0001
0000
,
1000
0000
0100
0000
0010
0001
0100
0000
,
0001
0000
0001
0000
1000
0010
1000
0000
,
0100
0000
0010
0000
1000
0001
0010
0000
,
1000
0000
1000
0000
0001
0010
0001
0000
,
0100
0000
0010
0000
0100
0001
0010
0000
,
0010
0000
0010
0000
0100
1000
0100
0000
,
1000
0000
0001
0000
1000
0010
0100
0000
,
0010
0000
0010
0000
0010
1000
0001
0000
,
0000
0000
0000
0000
,
0000
0000
0000
0000
,
0010
0001
0100
0000
0100
0010
1000
0000
,
0100
1000
0001
0010
0100
1000
0100
0000
,
0001
0010
0100
0010
0100
0000
0001
0000
,
0001
0000
0100
0010
1000
0001
0100
0000
,
1000
0100
1000
0010
0100
0001
0010
0000
,
0010
0001
0100
0001
1000
0001
1000
0100
,
0010
0010
0010
0100
,
0001
0100
0001
1000
0001
0010
0100
0000
,
1000
0001
0100
0010
0100
0010
0100
0000
,
0010
0100
0010
0000
0010
1000
0001
0000
,
0010
0001
0010
0000
0100
1000
0100
0000
,
0100
1000
0010
0000
0100
0001
0010
0000
,
0001
0100
0010
1000
,
1000
0001
1000
0000
0001
1000
0001
0000
,
0010
0100
1000
0001
,
0100
0000
0100
0000
,
0100
0001
0010
0001
0010
0001
0100
0000
,
0010
1000
0100
0010
0001
1000
0010
0000
,
1000
0100
0010
0100
0010
0000
1000
0000
,
1000
0000
0010
0100
0001
1000
0010
0000
,
0001
0010
0001
0100
0010
1000
0100
0000
,
0100
1000
0010
1000
0001
1000
0001
0010
,
0100
0100
0100
0010
,
1000
0010
1000
0001
1000
0100
0010
0000
,
0001
1000
0100
1000
0001
0010
0100
0000
,
0100
0000
0000
0000
;

//--------------- dance-single - Jenro Jupitel (2024) ----------------
#NOTES:
     dance-single:
     Jenro Jupitel (2024):
     Hard:
     15:
     0,0,0,0,0:
0000
0000
0000
0000
,
0000
0000
0000
0000
,
0010
0000
0001
0010
0000
0000
0100
0000
1000
0000
0001
0000
0100
0000
0000
0000
,
0010
1000
0000
0010
0000
0000
0100
0000
0001
0000
1000
0000
0100
0000
0000
0000
,
1000
0000
0001
0010
0000
0000
0001
0000
1000
0000
0010
0000
0100
0000
0000
0000
,
0001
1000
0000
0010
0000
0000
1000
0000
0001
0000
0010
0000
0100
0000
0000
0000
,
0010
0000
0001
0010
0000
0000
0001
0000
0010
0000
0001
0000
0100
0000
0000
0000
,
0010
1000
0000
0010
0000
0000
1000
0000
0010
0000
1000
0000
0100
0000
0000
0000
,
1000
0000
0100
1000
0000
0000
0001
0000
0010
0000
0100
0000
1000
0000
0000
0000
,
0001
0100
0000
0001
0000
0000
1000
0000
0010
0000
0100
0000
0001
0000
0000
0000
,
1000
0000
0100
0000
0010
0000
0001
0010
0100
0000
0010
0000
0001
0000
1000
0000
,
0001
0000
0100
0000
0010
0000
1000
0010
0100
0000
0010
0000
1000
0000
0001
0000
,
1000
0000
0001
0000
0100
0000
0001
1000
0010
0000
1000
0000
0001
0000
0100
0000
,
0001
0000
1000
0000
0100
0000
1000
0000
0001
0000
0010
0001
1000
0000
0100
0000
,
0100
0010
0100
1000
0001
0100
0010
0100
,
0001
1000
0100
0001
0100
1000
0001
1000
,
0010
0100
0010
0100
0001
1000
0001
1000
,
0001
0100
0010
1000
0100
0010
0001
1000
,
0001
1000
0001
0100
0010
1000
0001
0100
0001
1000
0000
0000
,
0110
0000
0000
0010
0001
0000
0001
0000
0001
0100
0001
0000
0010
0000
0010
0100
,
1000
0000
0000
0100
0010
0000
0001
0000
0100
0000
0010
1000
0010
0000
1000
0000
,
0001
0000
0000
0100
0001
0000
1000
0000
0010
1000
0010
0000
1000
0000
0100
0000
,
0010
0000
0000
0001
0010
0000
0100
0000
1000
0001
1000
0000
0001
0000
1000
0000
,
0010
0100
0001
0100
0010
0100
0010
1000
,
0100
0010
0001
0100
0010
1000
0001
0100
,
0001
1000
0010
1000
0100
0010
0001
0100
,
0001
0000
1000
0010
1000
0001
0100
0000
0001
0000
0001
0010
0001
1000
0100
0000
,
0010
0000
0000
0100
1000
0000
1000
0000
1000
0010
1000
0000
0100
0000
0100
0010
,
0001
0000
0000
0010
0100
0000
1000
0000
0010
0000
0100
0001
0100
0000
0001
0000
,
1000
0000
0000
0010
1000
0000
0001
0000
0100
0001
0100
0000
0001
0000
0010
0000
,
0100
0000
0000
1000
0100
0000
0010
0000
0001
1000
0001
0000
1000
0000
0001
0000
,
0100
0010
1000
0010
0100
0010
0100
0001
,
0010
0100
1000
0010
0100
0001
1000
0010
,
1000
0001
0100
0001
0010
0100
1000
0010
,
1000
0000
0001
0100
0001
1000
0010
0000
1000
0000
1000
0100
1000
0001
0010
0000
,
0100
0000
1000
0100
0000
0000
0010
0000
0001
0000
1000
0000
1010
0000
0000
0000
,
0100
0001
0000
0100
0000
0000
0010
0000
1000
0000
0001
0000
0011
0000
0000
0000
,
0001
0000
1000
0100
0000
0000
1000
0000
0001
0000
0100
0000
0110
0000
0000
0000
,
1000
0001
0000
0100
0000
0000
0001
0000
1000
0000
0100
0000
0110
0000
0000
0000
,
0100
0000
1000
0100
0000
0000
1000
0000
0100
0000
1000
0000
1010
0000
0000
0000
,
0100
0001
0000
0100
0000
0000
0001
0000
0100
0000
0001
0000
0011
0000
0000
0000
,
0001
0000
0010
0001
0000
0000
1000
0000
0100
0000
0010
0000
0011
0000
0000
0000
,
1000
0010
0000
1000
0000
0000
0001
0000
0100
0000
0010
0000
1010
0000
0000
0000
,
0000
0000
0000
0000
,
0010
1000
0001
0100
0001
1000
0010
0100
0001
1000
0000
0000
,
0001
0000
0000
0010
0100
0000
0010
0000
0000
0000
1000
0100
1000
0000
0000
0000
,
1000
0000
0000
0001
0100
0000
0010
0000
0010
0000
0100
0001
0100
0000
0000
0000
,
1000
0000
0000
0010
0000
0000
0001
0000
0000
0000
0001
1000
0001
0000
0000
0000
,
0100
0000
0000
0001
1000
0000
0001
0000
0100
0000
0010
1000
0010
0000
1000
0000
,
0100
0010
0001
1000
0010
0100
0001
1000
,
0001
0000
0100
0000
0010
0000
0100
0000
0001
0000
1000
0000
0100
0010
0100
0000
,
0010
0100
0010
0000
0001
0000
0001
1000
0001
0000
0100
0000
0010
0000
1000
0000
,
0100
1000
0100
0000
0010
0000
0010
0001
0010
0000
0100
1000
0100
0000
0100
1000
,
0100
0000
0000
0010
0001
0000
0001
0000
0001
0100
0001
0000
0010
0000
0010
0100
,
1000
0000
0000
0100
0010
0000
0001
0000
0100
0000
0010
1000
0010
0000
1000
0000
,
0001
0000
0000
0100
0001
0000
1000
0000
0010
1000
0010
0000
1000
0000
0100
0000
,
0010
0000
0000
0001
0010
0000
0100
0000
1000
0001
1000
0000
0001
0000
1000
0000
,
0010
0100
0001
0100
0010
0100
0010
1000
,
0100
0010
0001
0100
0010
1000
0001
0100
,
0001
1000
0010
1000
0100
0010
0001
0100
,
0001
0000
1000
0010
1000
0001
0100
0000
0001
0000
0001
0010
0001
1000
0100
0000
,
1000
0000
0000
0010
0100
0000
0001
0010
0100
0000
1000
0010
0100
0000
0001
1000
,
0001
0000
0000
1000
0001
0000
1000
0010
1000
0000
0001
0100
0001
0000
1000
0000
,
0100
0000
0001
0000
0100
0000
1000
0000
0001
0000
1000
0010
1000
0000
0001
0010
,
0001
0000
0100
0010
1000
0000
0001
1000
0010
0100
0010
1000
0001
0000
0010
0000
,
0001
0010
0100
0010
0001
0000
1000
0010
0100
0010
1000
0000
0100
0010
0100
0000
,
0001
1000
0010
0100
0001
0000
0001
0010
0100
0000
1000
0010
0100
0000
1000
0001
,
0010
0000
0001
0010
0100
0000
0100
1000
0001
1000
0010
0000
0100
0010
0100
0000
,
0001
0100
0010
1000
0001
1000
0100
0010
0100
0010
0100
0010
0100
0010
0100
0000
,
0010
1000
0001
0100
0001
1000
0010
0100
0001
1000
0000
0000
,
0011
0000
0000
0000
;
