#TITLE:Run Away;
#SUBTITLE:;
#ARTIST:Manila Killa;
#TITLETRANSLIT:;
#SUBTITLETRANSLIT:;
#ARTISTTRANSLIT:;
#GENRE:;
#CREDIT:Jenro Jupitel;
#MUSIC:Run Away.ogg;
#BANNER:Run Away-bn.png;
#BACKGROUND:Run Away-bg.png;
#CDTITLE:;
#SAMPLESTART:82.472;
#SAMPLELENGTH:18.286;
#SELECTABLE:YES;
#OFFSET:-0.186;
#BPMS:0.000=105.000;
#STOPS:;
#BGCHANGES:;
#FGCHANGES:;

//--------------- dance-single - Jenro Jupitel (2020) ----------------
#NOTES:
     dance-single:
     Jenro Jupitel (2020):
     Beginner:
     2:
     0,0,0,0,0:
0000
0000
0000
0000
,
0000
0000
0000
0000
,
0000
0000
0000
0000
,
0000
0000
0000
0000
,
0000
0000
0000
2000
,
3000
0000
0000
2000
,
3000
0000
0000
0002
,
0003
0000
0000
0002
,
0003
0000
0000
2000
,
3000
0000
0000
2000
,
3000
0000
0000
0002
,
0003
0000
0000
0002
,
0013
0000
0100
0000
,
1000
0000
0100
0000
,
0010
0000
0100
0000
,
1000
0000
0100
2000
,
3100
0000
0010
0000
,
0001
0000
0010
0000
,
0100
0000
0010
0000
,
0001
0000
0010
0002
,
0013
1000
1000
0000
,
0010
0001
0001
0000
,
0100
1000
1000
0000
,
0100
0001
0001
0002
,
0103
0001
0001
0000
,
0100
1000
1000
0000
,
0010
0001
0001
0000
,
0010
1000
1000
2000
,
3010
0000
0000
0000
,
2000
0000
3000
0000
,
2000
0000
3000
0000
,
2000
0000
3000
0000
,
2000
3000
2000
3000
,
2000
3000
2000
3000
,
2000
3000
2000
3000
,
2000
0000
3000
0000
,
1001
0000
0001
0000
,
1000
0000
0001
0000
,
1000
0000
0001
0000
,
1000
0000
0001
0000
,
0110
0000
0100
0000
,
0010
0000
0100
0000
,
0010
0000
0100
0000
,
2000
0000
3000
0000
,
2000
0000
0000
3000
0000
0000
0000
0000
,
2000
0000
0000
3000
0000
0000
0000
0000
,
0002
0000
0000
0003
0000
0000
0000
0000
,
0002
0000
0000
0003
0000
0000
0000
0000
,
1001
0000
0000
0000
,
1001
0000
0000
0000
,
1001
0000
0000
0000
,
1001
0000
0000
0000
,
0100
0000
0000
0000
;

//--------------- dance-single - Jenro Jupitel (2020) ----------------
#NOTES:
     dance-single:
     Jenro Jupitel (2020):
     Easy:
     3:
     0,0,0,0,0:
0000
0000
0000
0000
,
0000
0000
0000
0000
,
0000
0000
0000
0000
,
0000
0000
0000
0000
,
0000
1000
1000
2000
,
3000
1000
1000
2000
,
3000
1000
1000
2000
,
3000
1000
1000
2000
,
3000
1000
1000
2000
,
3000
1000
1000
2000
,
3000
1000
1000
2000
,
3000
1000
0000
1001
,
0010
0010
0010
0010
,
0010
0010
0010
0010
,
0001
0001
1000
1000
,
0010
0000
0000
1001
,
0100
0100
0100
0100
,
0100
0100
0100
0100
,
1000
1000
0001
0001
,
0100
0000
0000
1001
,
0010
1000
0100
1000
,
0010
0001
0100
0001
,
0010
1000
0100
1000
,
0010
0001
0100
1001
,
0100
0001
0010
0001
,
0100
1000
0010
1000
,
0100
0001
0010
0001
,
0100
1000
0010
1001
,
2000
0000
3000
0000
,
2000
0000
3000
0000
,
2000
0000
3000
0000
,
2000
0000
3000
0000
,
2000
3000
2000
3000
,
2000
3000
2000
3000
,
2000
3000
2000
3000
,
2000
0000
3000
0010
,
1001
0000
1001
0000
,
1001
0000
1001
0000
,
1001
0000
1001
0000
,
1001
0000
1001
0000
,
0110
0000
0110
0000
,
0110
0000
0110
0000
,
0110
0000
0110
0000
,
2000
0000
3000
0000
,
1000
0000
0000
1000
0000
0000
0000
0000
,
1000
0000
0000
1000
0000
0000
0000
0000
,
1000
0000
0000
1000
0000
0000
0000
0000
,
1000
0000
0000
1000
0000
0000
1001
0000
,
0001
0000
0000
0001
0000
0000
0000
0000
,
0001
0000
0000
0001
0000
0000
0000
0000
,
0001
0000
0000
0001
0000
0000
0000
0000
,
0001
0000
0000
0001
0000
0000
1001
0000
,
0100
0000
0000
0000
;

//--------------- dance-single - Jenro Jupitel (2020) ----------------
#NOTES:
     dance-single:
     Jenro Jupitel (2020):
     Medium:
     5:
     0,0,0,0,0:
0000
0000
0000
0000
,
0000
0000
0000
0000
,
0000
0000
0000
0000
,
0000
0000
0000
0000
,
0100
0000
0001
0010
0000
0000
0000
0000
,
0100
0000
1000
0010
0000
0000
0000
0000
,
1000
0000
0001
0100
0000
0000
0000
0000
,
0001
0000
1000
0100
0000
0000
0010
0000
,
0001
0000
1000
0100
0000
0000
0000
0000
,
1000
0000
0001
0100
0000
0000
0000
0000
,
0100
0000
1000
0010
0000
0000
0000
0000
,
0100
0000
0001
0010
0000
0000
0110
0000
,
2000
3100
0002
0103
,
2000
3100
0002
0103
,
0002
0013
2000
3010
,
0002
0000
0013
0000
2000
0000
3010
0010
,
2000
3100
2000
3001
,
0002
0013
0002
0103
,
0002
1003
0002
0103
,
2000
3010
2000
3100
,
0000
0000
0110
0000
0001
0000
1000
1000
,
0000
0000
0110
0000
1000
0000
0001
0001
,
0000
0000
0101
0000
0001
0000
1000
1000
,
0000
0000
1100
0000
1000
0000
0001
0001
,
0000
0000
0110
0000
1010
0000
0100
0100
,
0000
0000
0110
0000
0101
0000
0100
0100
,
0000
0000
1001
0000
0011
0000
1000
0100
,
0000
0000
1001
0000
1010
0000
0001
0100
,
0000
0010
0000
0010
0000
0010
1000
0100
,
0000
0010
0000
0010
0000
0010
0001
0100
,
0000
0010
0000
0010
0000
0010
1000
0001
,
0000
0100
0000
1000
0000
0001
0001
1000
,
0100
0100
0000
0000
1000
1000
0000
0000
,
0010
0010
0000
0000
0001
0001
0000
0000
,
1000
1000
0000
0000
0001
0001
0000
0000
,
2002
0000
3003
0000
,
0110
0000
0110
0000
,
0110
0000
0110
1001
,
0110
0000
0110
0000
,
0110
0000
0110
1001
,
0110
0001
0110
1000
,
0110
0001
0110
1000
,
0110
1000
0110
0001
,
0010
0000
0000
1000
0000
0000
0001
0000
1000
0000
0000
0000
1001
0000
0000
0000
,
1000
0100
1000
0200
0000
0000
0310
0000
,
0001
0000
0010
0000
0001
0000
0020
0000
0000
0000
0130
0000
0000
0100
0000
0000
,
1000
0010
1000
0020
0000
0000
0130
0000
,
0001
0000
0100
0000
0001
0000
0200
0000
0000
0000
0310
0000
0000
0010
0000
0000
,
0010
1000
0001
0200
0000
0000
0310
0000
,
0001
0000
1000
0000
0010
0000
0200
0000
0000
0000
0310
0000
0000
0010
0000
0000
,
1000
0100
0010
0002
0000
0000
1003
0000
,
0001
0000
0100
0000
0010
0000
2000
0000
0000
0000
3001
0000
0000
0001
0000
0000
,
0100
0000
0000
0000
;

//--------------- dance-single - Jenro Jupitel (2020) ----------------
#NOTES:
     dance-single:
     Jenro Jupitel (2020):
     Hard:
     10:
     0,0,0,0,0:
0000
0000
0000
0000
,
0000
0000
0000
0000
,
0000
0000
0000
0000
,
0000
0000
0000
0000
,
1000
0000
0000
0000
0001
0000
0100
0000
0000
0000
0000
0000
1000
0000
0010
0100
,
0000
0000
0000
0000
0001
0000
0010
0000
0000
0000
0000
0000
0001
0000
0100
0010
,
0000
0000
0000
0000
1000
0000
0010
0000
0000
0000
0000
0000
0100
0000
0001
0010
,
0000
0000
0000
0000
1000
0000
0001
0000
0000
0000
0000
0000
0010
0000
1000
0100
,
0000
0000
0000
0000
0001
0000
1000
0000
0000
0000
0000
0000
0010
0000
1000
0100
,
1000
0000
0000
0000
0001
0000
0001
0000
0000
0000
0000
0000
0010
0000
0001
0100
,
0001
0000
0000
0000
1000
0000
1000
0000
0000
0000
0000
0000
0100
0000
0001
1000
,
0002
0000
0000
0000
0003
0000
1000
1000
,
0001
0010
0001
0100
0001
1000
0001
0100
,
1000
0010
1000
0100
1000
0001
1000
0100
,
0001
0010
0100
1000
0001
1000
0001
1000
,
0020
0100
0130
0002
1000
0013
0200
0001
,
0301
0100
1000
0010
1000
0001
1000
0010
,
0001
0100
0001
0010
0001
1000
0001
0010
,
1000
0100
0010
0001
1000
0001
1000
0001
,
0100
0000
0000
0010
1000
0000
0001
0100
0001
0100
0010
0000
0100
0000
1000
0000
,
0100
0000
0100
0000
0100
0100
0001
0010
,
0010
0000
0010
0000
0010
0010
1000
0100
,
0100
0000
0100
0000
0100
0100
1000
0010
,
0010
0000
0010
0000
0010
0010
0001
0100
,
0001
1000
0100
1000
0001
0100
0001
1000
,
0010
0100
0010
0001
0010
0100
0010
0001
,
1000
0100
1000
0001
0010
0100
1000
1000
,
0010
0000
0000
0000
0101
0000
1000
0010
1000
0010
0100
0000
0010
0000
0001
0000
,
0000
0010
0000
0010
0000
0020
0230
1300
,
0000
1000
0000
1000
0000
2000
3002
0103
,
0000
0100
0000
0100
0000
0200
0320
1030
,
0000
1000
0000
1000
0000
1000
0010
0100
,
0001
0000
0001
0000
0000
0000
0001
1000
0100
0000
1000
0000
0000
0000
1000
0001
,
0100
0000
0001
0000
0000
0000
0001
1000
0100
0000
1000
0000
0000
0000
1000
0001
,
0100
0000
0001
0000
0000
0000
0001
1000
0100
0000
1000
0000
0000
0000
1000
0001
,
0100
0010
1000
0001
0100
0010
1000
0000
0000
1001
0000
0000
,
1000
0000
0010
1000
0000
0000
0101
0000
0001
0000
0010
0001
0000
0000
1100
0000
,
0001
0000
0100
0001
0000
0000
1010
0000
1000
0000
0100
1000
0000
0000
0011
0000
,
1000
0000
0100
1000
0000
0000
0011
0000
0001
0000
0100
0001
0000
0000
1010
0000
,
0001
0000
0010
0001
0000
0000
1100
0000
1000
0000
0010
1000
0001
0100
0001
0100
,
0010
0000
1000
0100
0010
0000
1001
0000
0001
0000
0100
0001
0010
0000
0101
0000
,
1000
0000
0010
1000
0100
0000
0110
0000
0001
0000
1000
0010
0100
0000
0101
0000
,
1000
0000
0100
1000
0100
0000
1010
0000
0001
0000
0100
0001
0010
0000
0101
0000
,
1000
0000
0000
0100
0000
0000
0001
0010
0001
0000
0000
1000
0010
0100
0010
0100
,
0001
0000
0000
1000
0000
0000
1000
1000
,
1000
0000
0000
0000
0000
0000
0001
0000
0000
0000
0001
0000
0000
1000
0000
0000
,
0001
0000
0000
0001
0000
0000
0001
0000
,
0001
0000
0000
0000
0000
0000
1000
0000
0000
0000
0010
0000
0000
0010
0000
0000
,
1001
0000
1000
0101
0000
0000
0000
0000
,
1001
0000
0000
0000
0001
0000
1100
0000
0000
0000
0010
0000
0000
0100
0000
0000
,
1001
0000
0010
0101
0000
0000
0000
0000
,
1001
0000
0000
0000
0010
0000
1100
0000
0000
0000
0010
0000
0000
0010
0000
0000
,
0100
0000
0000
0000
;

//--------------- dance-double - Jenro Jupitel (2021) ----------------
#NOTES:
     dance-double:
     Jenro Jupitel (2021):
     Challenge:
     10:
     0,0,0,0,0:
00000000
00000000
00000000
00000000
,
00000000
00000000
00000000
00000000
,
00000000
00000000
00000000
00000000
,
00000000
00000000
00000000
00000000
,
00011000
00000000
00001000
00000100
00000000
00000000
00001000
00010000
,
01000000
00000000
00001000
01000000
00000000
00000000
00010000
00001000
,
00000100
00000000
00010000
00000100
00000000
00000000
00001000
00010000
,
00100000
00000000
00001000
00100000
00000000
00000000
00010000
00001000
,
00000010
00000000
00010000
00000010
00000000
00000000
00000001
00000100
,
00001000
00000000
00010000
00000100
00000000
00000000
10000000
01000000
,
00010000
00000000
00001000
01000000
00000000
00000000
10000000
10000000
,
00010000
00010000
00010000
00010000
00001000
00000000
00101000
00000000
,
00100000
00001000
00010000
00001000
00100000
00001000
00010000
00001000
,
00010000
00000100
00010000
00001000
00010000
00000100
00010000
00001000
,
00010000
00001000
01000000
00100000
10000000
00000000
01100000
00000000
,
10000000
00000000
10010000
00000000
00010000
00010000
00010000
00000000
,
00000010
00010000
00001000
00010000
00000010
00010000
00001000
00010000
,
00001000
01000000
00001000
00010000
00001000
01000000
00001000
00010000
,
00001000
00010000
00000100
00000010
00000001
00000000
00000110
00000000
,
00000001
00000000
00001001
00000000
00001000
00001000
00001000
00000000
,
00000010
00001000
00000001
00000100
00000010
00000100
00000010
00000100
,
00000010
00001000
00000001
00000100
00000010
00000100
00000010
00000100
,
00000010
00001000
00000001
00000100
00000010
00000100
00000010
00000100
,
00000010
00000100
00001000
00010000
00100000
01000000
10000000
20000000
,
30100000
00010000
10000000
01000000
00100000
01000000
00100000
01000000
,
00100000
00010000
10000000
01000000
00100000
01000000
00100000
01000000
,
00100000
00010000
10000000
01000000
00100000
01000000
00100000
01000000
,
00100000
01000000
00010000
00001000
00000010
00000100
00000001
00000002
,
00000003
00000010
00000000
00011000
00000000
00100000
00010000
01010000
,
00000000
00100000
00000000
00011000
00000000
00000010
00001000
00001100
,
00000000
00001001
00000000
00000101
00000000
00010000
00001000
01000000
,
00000000
00000000
10010000
00000000
00000000
00000000
11000000
00000000
00000000
00000000
10000000
00000000
01000000
00000000
10000000
00100000
,
10000000
00000000
10000000
00000000
00000000
00000000
01000000
00100000
01000000
00000000
01000000
00000000
00000000
00000000
00010000
00100000
,
00010000
00000000
00010000
00000000
00000000
00000000
00001000
00010000
00001000
00000000
00001000
00000000
00000000
00000000
00000100
00001000
,
00000100
00000000
00000100
00000000
00000000
00000000
00000001
00000010
00000001
00000000
00000001
00000000
00000000
00000000
00000001
00001000
,
00000100
00000010
00000001
00001000
00000100
00000010
00000001
00000000
00000000
00001001
00000000
00000000
,
00011000
00000000
00001000
00100000
00000000
00000000
00000000
00000000
00011000
00000000
00010000
00000010
00000000
00000000
00000000
00000000
,
00011000
00000000
00001000
01000000
00000000
00000000
00000000
00000000
00011000
00000000
00010000
00000100
00000000
00000000
00000000
00000000
,
00011000
00000000
00000010
00001000
00000000
00000000
00000000
00000000
00011000
00000000
00100000
00010000
00000000
00000000
00000000
00000000
,
00011000
00000000
00000100
00001000
00000000
00000000
00000000
00000000
00011000
00000000
01000000
00010000
00000000
00000000
00000000
00000000
,
10000000
01000000
10000000
01000000
10000000
00000000
10010000
00000000
00010000
01000000
00010000
01000000
00010000
00000000
00011000
00000000
,
00000001
00000100
00000001
00000100
00000001
00000000
00001001
00000000
00001000
00000100
00001000
00000100
00001000
00000000
00011000
00000000
,
10000000
00100000
10000000
00100000
10000000
00000000
10010000
00000000
00010000
00100000
00010000
00100000
00010000
00000000
00011000
00000000
,
00000001
00000000
00000000
00000010
00000000
00000000
00000001
00000010
00000001
00000000
00000000
00000010
00010000
00001000
00010000
00100000
,
01000000
01000000
00100000
00010000
00000000
00000000
00000000
00000000
,
00001000
00000000
01000000
00000000
00100000
00000000
10000000
00000000
00000000
00000000
11000000
00000000
00000000
00011000
00000000
00000000
,
00000001
00000100
00000010
00001000
00000000
00000000
00000000
00000000
,
00010000
00000000
00000100
00000000
00000010
00000000
00000001
00000000
00000000
00000000
00000101
00000000
00000000
00011000
00000000
00000000
,
00010000
00000100
00010000
00001000
00100000
00010000
00010000
00000000
,
00001000
01000000
00001000
00010000
00000010
00001000
00001000
00000000
,
00011000
00000000
00001000
00000100
00000000
00000000
00001000
00010000
,
01000000
00000000
00000000
00000000
00001000
00000000
01000000
00000000
00000000
00000000
00010000
00000000
00000000
00010000
00000000
00000000
,
10000000
00000000
00000000
00000000
;
