#TITLE:Ride Home;
#SUBTITLE:;
#ARTIST:Ben&Ben;
#TITLETRANSLIT:;
#SUBTITLETRANSLIT:;
#ARTISTTRANSLIT:;
#GENRE:;
#CREDIT:Jenro Jupitel;
#MUSIC:Ride Home.ogg;
#BANNER:Ride Home-bn.png;
#BACKGROUND:Ride Home-bg.png;
#CDTITLE:;
#SAMPLESTART:90.833;
#SAMPLELENGTH:16.846;
#SELECTABLE:YES;
#OFFSET:-0.285;
#BPMS:0.000=113.973;
#STOPS:;
#BGCHANGES:;
#FGCHANGES:;

//--------------- dance-single - Jenro Jupitel (2021) ----------------
#NOTES:
     dance-single:
     Jenro Jupitel (2021):
     Beginner:
     2:
     0,0,0,0,0:
0000
0000
0000
0000
,
0000
0000
0000
0000
,
0000
0000
0000
0000
,
0000
0000
0000
0000
,
0010
0000
0001
0000
,
0100
1000
0010
0000
,
0100
0000
1000
0000
,
0010
0001
0100
0000
,
2000
0000
3000
0000
,
0020
0000
0030
0000
,
0200
0000
0300
0000
,
2000
0000
3000
0000
,
0002
0000
0003
0000
,
0200
0000
0300
0000
,
0020
0000
0030
0000
,
0002
0000
0003
0000
,
0010
0000
0001
0000
,
0100
1000
0010
0000
,
0100
0000
1000
0000
,
0010
0001
0100
0000
,
2000
0000
3000
0000
,
0020
0000
0030
0000
,
0002
0000
0003
0000
,
0200
0000
0300
0000
,
0010
0000
0001
0000
,
0100
1000
0010
0000
,
0100
0000
1000
0000
,
0010
0001
0100
0000
,
2000
0000
3000
0000
,
0020
0000
0030
0000
,
0200
0000
0300
0000
,
2000
0000
3000
0000
,
0002
0000
0003
0000
,
0200
0000
0300
0000
,
0020
0000
0030
0000
,
0002
0000
0003
0000
,
2000
0000
3000
0000
,
0002
0000
0003
0000
,
0200
0000
0000
0000
,
0300
0000
0000
0000
,
0200
0000
0000
0000
,
0000
0000
0000
0000
,
0300
0000
0000
0000
,
0010
0000
0001
0000
,
0100
1000
0010
0000
,
0100
0000
1000
0000
,
0010
0001
0100
0000
,
0010
0000
0001
0000
,
0100
1000
0010
0000
,
0100
0000
1000
0000
,
0010
0001
0100
0000
,
0010
0010
0001
0001
,
0100
1000
0020
0030
,
0100
0100
1000
1000
,
0010
0001
0200
0300
,
1001
0000
0000
0000
;

//--------------- dance-single - Jenro Jupitel (2021) ----------------
#NOTES:
     dance-single:
     Jenro Jupitel (2021):
     Easy:
     4:
     0,0,0,0,0:
0000
0000
0000
0000
,
0000
0000
0000
0000
,
0000
0000
0000
0000
,
0000
0000
0000
0000
,
0010
1000
0100
1000
,
0001
0001
0100
1000
,
0100
0001
0010
0001
,
1000
1000
0010
0001
,
2000
0000
3100
0000
,
2000
0000
3010
0000
,
0100
0100
0001
0000
,
1000
1000
0010
0000
,
0002
0000
0013
0000
,
0002
0000
0103
0000
,
0010
0010
1000
0000
,
0001
0001
0100
0000
,
2000
0000
3002
0000
,
2003
0001
3100
0000
,
0002
0000
2003
0000
,
3002
1000
0013
0000
,
1000
0000
0000
0100
0000
0000
0000
0000
,
0001
0000
0000
0010
0000
0000
0000
0000
,
0100
0000
0000
0100
0000
0000
0000
0000
,
0010
0000
0000
0010
0000
0000
0000
0000
,
0010
1000
0100
1000
,
0001
0001
0100
1000
,
0100
0001
0010
0001
,
1000
1000
0010
0001
,
2000
0001
3100
0000
,
2000
0001
3010
0000
,
0100
0100
1001
0000
,
1000
1000
0110
0000
,
0002
1000
0013
0000
,
0002
1000
0103
0000
,
0010
0010
1001
0000
,
0001
0001
0110
0000
,
2000
0001
0100
3010
,
0002
1000
0010
0103
,
2000
0000
0000
0001
0000
0000
3010
0000
,
0000
0000
0000
0000
,
0002
0000
0000
1000
0000
0000
0103
0000
,
0010
0010
0010
0010
,
0010
0000
0000
0000
,
2000
0001
3002
1000
,
2003
0001
3100
0000
,
0002
1000
2003
0001
,
3002
1000
0013
0000
,
1000
0000
0000
0110
0000
0000
0000
0000
,
0001
0000
0000
0110
0000
0000
0000
0000
,
0100
1001
1000
0000
,
0010
1001
0001
0000
,
0010
1000
0100
1000
,
0001
0001
0100
1000
,
0100
0001
0010
0001
,
1000
1000
0010
0001
,
2002
0000
3003
0000
;

//--------------- dance-single - Jenro Jupitel (2021) ----------------
#NOTES:
     dance-single:
     Jenro Jupitel (2021):
     Medium:
     8:
     0,0,0,0,0:
0000
0000
0000
0000
,
0000
0000
0000
0000
,
0000
0000
0000
0000
,
0000
0000
0000
0000
,
0020
0000
1030
0000
0100
1000
0100
0000
,
0010
0001
0100
0010
1000
0100
1100
0000
,
0200
0000
0301
0000
0010
0001
0010
0000
,
0100
1000
0010
0100
0001
0010
0011
0000
,
2000
0000
0100
0000
3001
0100
0002
0000
,
1003
0000
0002
0000
0103
1000
1001
0000
,
0001
0000
0000
0100
0000
0000
2000
0000
0000
0000
0000
0000
0001
0000
0000
0000
,
3001
0000
0000
0100
0000
0000
1000
0000
0000
0000
0000
0000
0000
0000
0000
0000
,
0002
0000
0010
0000
1003
0100
2000
0000
,
3001
0000
2000
0000
3010
0001
1001
0000
,
1000
0000
0000
0010
0000
0000
0002
0000
0000
0100
0000
0000
1000
0000
0000
0000
,
2000
0000
3003
0000
,
0101
0000
1100
0000
,
0101
1100
0101
0000
,
1010
0000
0011
0000
,
1010
0011
1010
0000
,
1000
0000
0000
0001
0000
0000
0100
0000
0000
0000
0000
0100
0010
0000
1000
0000
,
0001
0000
0000
1000
0000
0000
0100
0000
0000
0000
0000
0000
0001
0000
1000
0000
,
0000
0000
0110
0000
0000
0010
0000
0000
0100
0000
0100
0000
1000
0000
1100
0000
,
0000
0000
0110
0000
0000
0100
0000
0000
0010
0000
0010
0000
0001
0000
0010
0000
,
0200
0000
0301
0000
0010
0001
0010
0000
,
0100
1000
0010
0100
0001
0010
0011
0000
,
0020
0000
1030
0000
0100
1000
0100
0000
,
0010
0001
0100
0010
1000
0100
1100
0000
,
0002
0000
0010
0000
1003
0001
2000
0000
,
3001
0000
2000
0000
3010
0100
1001
0000
,
1000
0000
0000
0010
0000
0000
0001
0000
0000
1000
0000
0000
0100
0000
0000
0001
,
0000
0010
0000
0000
0000
0100
1000
0100
,
0001
0000
0000
0100
0000
0000
0001
0000
0010
0000
0000
0000
1000
0000
0100
0000
,
0000
0000
0000
0000
,
0010
0000
0000
1000
0000
0000
0100
0000
0001
0000
0000
0100
0000
0000
1000
0000
,
0100
0000
0000
0001
0000
0000
0010
0000
1000
0000
0000
0010
0000
0000
0001
0000
,
0001
0000
0000
0100
0000
0000
1000
0000
0001
0000
0000
0000
0010
0000
1000
0000
,
0000
0000
1000
0100
0001
0100
1000
0100
,
0020
0000
0031
0020
0000
0000
0031
0000
,
0000
0000
1000
0100
0001
0100
1000
0100
,
0020
0000
0031
0020
0000
0000
0031
0002
,
2000
0000
0000
0000
,
3003
0000
0000
0000
,
0101
0101
1100
1100
,
0101
1100
0101
0000
,
1010
1010
0011
0011
,
1010
0011
1010
0000
,
0001
0000
0000
1000
0000
0000
0010
0000
0000
0000
0000
0010
0100
0000
0001
0000
,
1000
0000
0000
0001
0000
0000
0010
0000
0000
0000
0000
0000
1000
0000
0001
0000
,
0000
0000
0110
0000
0000
0100
0000
0000
0010
0000
0010
0000
0001
0000
0011
0000
,
0000
0000
0110
0000
0000
0010
0000
0000
0100
0000
0100
0000
1000
0000
0100
0000
,
0020
0000
1030
0000
0100
1000
0100
0000
,
0010
0001
0100
0010
1000
0100
1001
0000
,
0200
0000
0301
0000
0010
0001
0010
0000
,
0100
1000
0010
0100
0001
0010
1001
0000
,
0220
0000
0330
0000
;

//--------------- dance-single - Jenro Jupitel (2021) ----------------
#NOTES:
     dance-single:
     Jenro Jupitel (2021):
     Hard:
     13:
     0,0,0,0,0:
0000
0000
0000
0000
,
0000
0000
0000
0000
,
0000
0000
0000
0000
,
0000
0000
0000
0000
,
0010
0000
0001
0010
0100
0000
1000
0000
1000
0000
0100
0000
0100
0000
1000
0001
,
0100
0010
0100
0010
1000
0100
1000
0100
0010
0100
0010
0001
0010
0000
0000
0000
,
0100
0000
1000
0001
0010
0000
0001
0000
0001
0000
0100
0000
0100
0000
0010
1000
,
0010
0100
0010
0100
0001
0010
0001
0010
0100
0010
0100
1000
0100
0000
0000
0000
,
1000
0000
0001
0010
0000
0000
0001
0000
1000
0000
0000
0000
0010
1000
0000
0001
,
0000
0100
0010
1000
0001
0000
1000
0100
,
0001
0000
0000
0000
2000
0000
3001
0000
0000
0001
0000
0000
0001
0000
0100
0000
,
0010
0000
0000
0010
0000
0000
1000
0000
0000
1000
0000
0000
1100
0000
0000
0000
,
0001
1000
0000
0100
0000
0000
0000
1000
0001
0100
0000
0100
0000
0000
0001
0000
,
1000
0000
0010
0000
0100
0000
0001
0000
1000
0000
0001
0010
0000
0000
1000
0000
,
0001
0000
0000
0001
0000
0000
1000
0000
0000
1000
0000
0000
0010
0000
0010
0000
,
0110
0000
0000
0000
,
2000
0001
3001
1000
0002
1000
1003
0010
,
0001
0010
1000
0100
0001
1000
2000
0000
,
3002
1000
1003
0001
2000
0001
3001
0100
,
1000
0100
0001
0010
1000
0001
0002
0000
,
1003
0000
0000
0100
0000
0000
1001
0000
0000
0000
0000
0001
1000
0000
0001
0000
,
0001
0000
0000
0100
0000
0000
1001
0000
0000
0000
0000
0000
0010
0000
0010
0000
,
0000
0000
0200
0000
0000
0310
0000
0000
2000
0000
0001
0000
3002
0000
1003
0000
,
0000
0000
0010
0000
0000
0100
0000
0000
0001
0000
0002
0000
1003
0000
1000
0000
,
0010
0000
0001
0010
0100
0000
1000
0000
1000
0000
0100
0000
0100
0000
1000
0001
,
0100
0010
0100
0010
1000
0100
1000
0100
0010
0100
0010
0001
0010
0000
0000
0000
,
0100
0000
1000
0001
0010
0000
0001
0000
0001
0000
0100
0000
0100
0000
0010
1000
,
0010
0100
0010
0100
0001
0010
0001
0010
0100
0010
0100
1000
0100
0000
0000
0000
,
1000
0000
0001
0010
0000
0000
0001
0000
1000
0000
0000
0000
0010
1000
0000
0001
,
0000
0100
0010
1000
0001
0000
1000
0100
,
0001
0000
0000
1100
0000
0000
1001
0000
0000
0011
0000
0000
0101
0000
0000
1100
,
0000
0110
0000
0000
0000
1000
0100
0010
,
0001
0000
0000
0100
0000
0000
0010
0000
1000
0000
0000
0000
0100
0000
0001
0000
,
0001
0000
0000
0100
0000
0000
0010
0000
1000
0000
0000
0000
0100
0000
0001
0000
,
1001
0000
0000
0001
0000
0000
0001
0000
1000
0000
0000
1010
0000
0000
0010
0000
,
0110
0000
0000
0101
0000
0000
0010
0000
1010
0000
0000
1000
0000
0000
0100
0000
,
1100
0000
0000
0011
0000
0000
1000
0000
1001
0000
0000
0000
0010
0000
0100
0000
,
1001
0000
0010
0001
1000
0100
0001
0100
,
2000
0000
0000
0001
0000
0001
3001
0000
,
0000
0000
0010
0001
1000
0100
0001
0100
,
2000
0001
0001
0001
0001
0001
0001
0001
,
0001
0001
0001
0001
0001
0001
3001
0001
,
1001
0000
0000
0000
,
2000
0001
3001
1000
0002
1000
1003
0010
,
1001
0010
1001
0100
1001
1000
2000
0000
,
3002
1000
1003
0001
2000
0001
3001
0100
,
1001
0100
1001
0010
1001
0001
0002
0000
,
1003
0000
0000
1100
0000
0000
1001
0000
0000
0000
0000
0001
1000
0000
0001
0000
,
0001
0000
0000
0101
0000
0000
1001
0000
0000
0000
0000
0000
0010
0000
0010
0000
,
0000
0000
0110
0000
0000
0110
0000
0000
1000
0000
1001
0000
0001
0000
1001
0000
,
0000
0000
0110
0000
0000
0110
0000
0000
0001
0000
1001
0000
1000
0000
1001
0000
,
0010
0000
0001
0010
0100
0000
1000
0000
1000
0000
0100
0000
0100
0000
1000
0001
,
0100
0010
0100
0010
1000
0100
1000
0100
0010
0100
0010
0001
0010
0000
0000
0000
,
0100
0000
1000
0001
0010
0000
0001
0000
0001
0000
0100
0000
0100
0000
0010
1000
,
0010
0100
0010
0100
0001
0010
0001
0010
0100
0010
0100
1000
0100
0000
0000
0000
,
0002
0000
0003
0000
;

//--------------- dance-double - Jenro Jupitel (2021) ----------------
#NOTES:
     dance-double:
     Jenro Jupitel (2021):
     Challenge:
     12:
     0,0,0,0,0:
00000000
00000000
00000000
00000000
,
00000000
00000000
00000000
00000000
,
00000000
00000000
00000000
00000000
,
00000000
00000000
00000000
00000000
,
00010000
00001000
00100000
00001000
01000000
01000000
00010000
00010000
,
00100000
00010000
00001000
00000100
00000010
00000001
00000101
00000000
,
00001000
00010000
00000010
00010000
00000100
00000100
00001000
00001000
,
00000010
00001000
00010000
01000000
00100000
10000000
11000000
00000000
,
10000000
00000000
00000000
00010000
00000000
00000000
01000000
00000000
10000000
00000000
10000000
00000000
01000000
00000000
00000000
00000000
,
00010000
00000000
00000000
10000000
00000000
00000000
01000000
00000000
00010000
00000000
00010000
00000000
01000000
00000000
00000000
00000000
,
00100000
00000000
00000000
01000000
00000000
00000000
00010000
00000000
00000000
10000000
00000000
00000000
00100000
00000000
01000000
00000000
,
00100000
00000000
00000000
01000000
00000000
00000000
00010000
00000000
00000000
10000000
00000000
00000000
00100000
00000000
00010000
00000000
,
00001000
00000000
00000000
00001000
00000000
00000000
00000100
00000000
00000001
00000000
00000001
00000000
00000100
00000000
00000000
00000000
,
00001000
00000000
00000000
00000001
00000000
00000000
00000100
00000000
00001000
00000000
00001000
00000000
00000100
00000000
00000000
00000000
,
00000010
00000000
00000000
00000100
00000000
00000000
00001000
00000000
00000000
00000001
00000000
00000000
00000010
00000000
00000100
00000000
,
00000010
00000000
00000000
00000100
00000000
00000000
00001000
00000000
00000000
00000001
00000000
00000000
00000010
00000000
00001000
00000000
,
00010000
00001000
00010000
00001000
00010000
00000000
01000000
00000000
00010000
01000000
00010000
01000000
00010000
00000000
01000000
00000000
,
00100000
10000000
00100000
10000000
00100000
01000000
00100000
01000000
00010000
01000000
00100000
10000000
01000000
00000000
00000000
00000000
,
00001000
00010000
00001000
00010000
00001000
00000000
00000100
00000000
00001000
00000100
00001000
00000100
00001000
00000000
00000100
00000000
,
00000010
00000001
00000010
00000001
00000010
00000100
00000010
00000100
00001000
00000100
00000010
00000001
00000100
00000000
00000000
00000000
,
00000010
00000000
00000000
00001000
00000000
00000000
00000100
00000000
00001000
00000000
00010000
00000000
00001000
00000000
00000000
00000000
,
00100000
00000000
00000000
00001000
00000000
00000000
01000000
00000000
00010000
00000000
00001000
00000000
00010000
00000000
00000000
00000000
,
00000000
00000000
00011000
00000000
00000000
00011000
00000000
00000000
00001000
00000000
00010000
00000000
00100000
00000000
01000000
00000000
,
00000000
00000000
00011000
00000000
00000000
00011000
00000000
00000000
00010000
00000000
00001000
00000000
00000010
00000000
00000100
00000000
,
00010000
00001000
00100000
00001000
01000000
01000000
00010000
00010000
,
00100000
00010000
00001000
00000100
00000010
00000001
00000101
00000000
,
00001000
00010000
00000010
00010000
00000100
00000100
00001000
00001000
,
00000010
00001000
00010000
01000000
00100000
10000000
11000000
00000000
,
00010000
00000000
00000000
00100000
00000000
00000000
01000000
00000000
10000000
00000000
01000000
00000000
11000000
00000000
00000000
00000000
,
10000000
00000000
00000000
00100000
00000000
00000000
10000000
00000000
01000000
00000000
00010000
00000000
01010000
00000000
00000000
00000000
,
00110000
00000000
00000000
00010000
00000000
00000000
01010000
00000000
00000000
00010000
00000000
00000000
00011000
00000000
00000000
00001000
,
00000000
00001100
00000000
00000000
00000000
00000100
00001000
00010000
,
00001000
00011000
00100000
00110000
,
00010000
00011000
00000010
00001010
,
00001000
00000010
00000001
00000100
00001000
00000010
00000001
00000100
,
00010000
01000000
10000000
00100000
00010000
01000000
10000000
00100000
,
00010000
00010000
00010000
00010000
,
00010000
00010000
00010000
00010000
,
00010000
01000000
00010000
01000000
00010000
01000000
00020000
00000000
,
00030000
00000000
00000000
00000000
,
00001000
00000100
00001000
00000100
00001000
00000100
00001000
00000100
,
00001000
00000100
00001000
00000100
00001000
00000100
00001000
00000100
,
00002000
00003000
00000000
00000000
,
00010000
00001000
00010000
00001000
00010000
00000000
01000000
00000000
00010000
01000000
00010000
01000000
00010000
00000000
01000000
00000000
,
00100000
10000000
00100000
10000000
00100000
01000000
00100000
01000000
00010000
01000000
00100000
10000000
01000000
00000000
00000000
00000000
,
00001000
00010000
00001000
00010000
00001000
00000000
00000100
00000000
00001000
00000100
00001000
00000100
00001000
00000000
00000100
00000000
,
00000010
00000001
00000010
00000001
00000010
00000100
00000010
00000100
00001000
00000100
00000010
00000001
00000100
00000000
00000000
00000000
,
00000010
00000000
00000000
00001010
00000000
00000000
00000100
00000000
00001000
00000000
00010000
00000000
00001000
00000000
00000000
00000000
,
00100000
00000000
00000000
00101000
00000000
00000000
01000000
00000000
00010000
00000000
00001000
00000000
00010000
00000000
00000000
00000000
,
00000000
00000000
00011000
00000000
00000000
00011000
00000000
00000000
00001000
00000000
00010000
00000000
00100000
00000000
01000000
00000000
,
00000000
00000000
00011000
00000000
00000000
00011000
00000000
00000000
00010000
00000000
00001000
00000000
00000010
00000000
00000100
00000000
,
00010000
00001000
00100000
00001000
01000000
01000000
00010000
00010000
,
00100000
00010000
00001000
00000100
00000010
00000001
00000101
00000000
,
00001000
00010000
00000010
00010000
00000100
00000100
00001000
00001000
,
00000010
00001000
00010000
01000000
00100000
10000000
11000000
00000000
,
00020000
00000000
00030000
00000000
;
