#TITLE:Relatively;
#SUBTITLE:;
#ARTIST:Childlike Wonder;
#TITLETRANSLIT:;
#SUBTITLETRANSLIT:;
#ARTISTTRANSLIT:;
#GENRE:Electronic;
#CREDIT:Jenro Jupitel;
#MUSIC:Relatively.ogg;
#BANNER:relatively-bn.png;
#BACKGROUND:relatively-bg.png;
#CDTITLE:;
#SAMPLESTART:51.665;
#SAMPLELENGTH:20.538;
#SELECTABLE:YES;
#OFFSET:-0.320;
#BPMS:0.000=93.485
,16.000=186.970
,80.000=93.485
,112.000=186.970
,240.000=93.485
;
#STOPS:;
#BGCHANGES:;
#FGCHANGES:;

//--------------- dance-single - Jenro Jupitel (2021) ----------------
#NOTES:
     dance-single:
     Jenro Jupitel (2021):
     Beginner:
     3:
     0,0,0,0,0:
0000
0000
0000
0000
,
0000
0000
0000
0000
,
0000
0000
0000
0000
,
0000
0000
0000
0000
,
1000
0000
0001
0000
,
0100
0000
0001
0000
,
0010
0000
0100
0000
,
0010
0000
0100
0000
,
0001
0000
0001
0000
,
1000
0000
1000
0000
,
0010
0000
0100
0000
,
0010
0000
0100
0000
,
0001
0000
1000
0000
,
0100
0000
1000
0000
,
0010
0000
0100
0000
,
0010
0000
0100
0000
,
1000
0000
1000
0000
,
0001
0000
0001
0000
,
0010
0000
0100
0000
,
0010
0000
0100
0000
,
0001
0000
0000
0000
2000
3000
0000
0000
,
0001
0000
0000
0000
0020
0030
0000
0000
,
0001
0000
0000
0000
0200
0300
0000
0000
,
0001
0000
0000
0000
0002
0003
0000
0000
,
0001
0001
0001
0001
,
0001
0010
0100
1000
,
1000
1000
1000
1000
,
0010
0100
0000
0110
,
2000
0000
3001
0000
,
1000
1000
0010
0000
,
0002
0000
1003
0000
,
0000
0001
0010
0000
,
2000
0000
3001
0000
,
0002
0000
1003
0000
,
1000
0000
0001
0000
,
1000
0000
0001
0000
,
0002
0000
1003
0000
,
0001
0001
0100
0000
,
2000
0000
3001
0000
,
0000
1000
0100
0000
,
0002
0000
1003
0000
,
2000
0000
3001
0000
,
0001
0000
1000
0000
,
0001
0000
1000
0000
,
0010
0000
0000
0000
,
0010
0000
0100
0000
,
0001
0000
0000
0000
,
0010
0000
0100
0000
,
1000
0000
0000
0000
,
0010
0000
0100
0000
,
0001
0000
0000
0000
,
0010
0000
0100
0000
,
0000
0000
0000
0000
,
0010
0000
0100
0000
,
0001
0000
0000
0000
,
1000
0000
0100
0000
,
0001
0000
0000
0000
,
0010
0000
0100
0000
,
1000
0000
0000
0000
,
0001
0000
0100
0000
,
1000
0000
0000
0000
,
1000
0000
0000
0000
,
1000
0000
0000
0000
,
1000
0000
0000
0000
,
1000
0010
1000
0010
,
1000
1000
0010
0010
,
0100
0001
0100
0001
,
0100
0100
0100
0100
;

//--------------- dance-single - Jenro Jupitel (2021) ----------------
#NOTES:
     dance-single:
     Jenro Jupitel (2021):
     Easy:
     5:
     0,0,0,0,0:
0000
0000
0000
0000
,
0000
0000
0000
0000
,
0000
0000
0000
0000
,
0000
0000
0000
0000
,
1000
0001
0020
0000
,
0031
0000
1000
0100
,
2000
0000
3010
0000
,
0101
0000
1000
0100
,
0200
0000
0310
0000
,
0100
1000
0002
0000
,
1003
0001
0002
0000
,
0203
0000
0310
0000
,
0000
0000
0001
1000
,
0200
0000
1300
0000
,
0001
0010
0002
0000
,
0103
0000
1010
0000
,
0001
0010
0020
0000
,
0130
0000
0010
0001
,
2000
0000
3001
1000
,
2000
0000
3020
0000
,
0130
0100
0000
0000
0002
0003
0000
0000
,
0001
0001
0000
0000
0020
0030
0000
0000
,
1000
1000
0000
0000
0200
0300
0000
0000
,
0001
0001
0000
0000
2000
3000
0000
0000
,
0010
0001
0000
0010
0001
0010
0001
0010
,
0001
1000
0000
0010
1000
0010
1000
0010
,
1000
0001
0000
1000
2000
0000
3001
0000
,
0100
0020
0030
0100
0001
0100
1001
0000
,
1000
1001
0000
1000
,
0100
0010
0001
0011
,
0000
1000
0001
0200
,
0000
0310
1000
1010
,
0000
0000
0001
0000
,
1000
0100
0001
0000
,
1000
0010
0100
0010
,
0100
0010
0100
0001
,
0001
1001
0000
0001
,
0100
0010
1000
1100
,
0000
0001
1000
0020
,
0000
0130
0101
0000
,
0000
0000
1000
0000
,
0001
0010
1000
0000
,
0001
0100
1000
0100
,
0001
0100
1000
1000
,
0200
0000
1300
0000
,
0002
0000
0103
0000
,
2000
0000
3100
0000
,
0200
0000
0301
0000
,
0001
1000
0020
0000
,
0130
0001
2000
0000
,
3010
1000
0200
0000
,
0310
0001
0010
0001
,
0010
1000
0000
0010
,
1000
0010
1000
0010
,
1000
0001
0000
0010
,
0001
0010
0001
0010
,
0001
1000
0000
0001
,
0002
0000
1003
0000
,
0100
0020
0030
0100
,
1000
0100
0001
0100
,
1000
0000
0000
0000
,
1000
0000
0000
0000
,
1000
0000
0000
0000
,
1000
0000
0000
0000
,
0100
0100
0100
0100
,
0001
0001
0001
0001
,
0200
0301
0200
0301
,
0200
0301
0100
0000
;

//--------------- dance-single - Jenro Jupitel (2021) ----------------
#NOTES:
     dance-single:
     Jenro Jupitel (2021):
     Medium:
     9:
     0,0,0,0,0:
0000
0000
0000
0000
,
0000
0000
0000
0000
,
0000
0000
0000
0000
,
0000
0000
0000
0000
,
0001
0100
0120
0000
,
1030
0000
1000
0100
,
2100
0000
3001
0000
,
0102
0000
1003
0001
,
0110
0000
1000
0100
,
2000
0000
3001
0001
,
0010
0000
0010
0000
0001
0000
0010
0001
,
0000
0010
0000
0001
0010
0000
0000
0000
,
1001
0000
2100
0000
,
3010
0000
0100
0001
,
0020
0000
0130
1000
,
0002
0000
1003
0100
,
0002
1000
2003
0010
,
3020
0100
0230
0001
,
0302
2003
3020
0230
,
0301
1000
1100
0000
,
0020
0000
0030
0000
0000
0000
0000
1000
0000
0001
0000
0000
0100
0000
0010
0000
,
1000
0000
0100
0000
0000
0000
0000
0001
0000
1000
0000
0000
0100
0000
0010
0000
,
0001
0000
0010
0000
0000
0000
0000
1000
0000
0001
0000
0000
0100
0000
0010
0000
,
1000
0000
0100
0000
0000
0000
0000
0010
0000
0100
0000
0000
0001
0000
0100
0000
,
0010
0000
1000
0000
0000
0000
0000
0001
0000
1000
0000
0110
0000
0001
0000
1001
,
0000
1000
0000
0100
0000
0110
0000
1001
0000
0000
0000
0000
0000
0000
0000
0000
,
0000
0000
0000
0000
0000
0000
0000
0001
0000
1000
0000
0000
0010
0000
0100
0000
,
0000
0000
0000
0000
1000
0100
1001
0000
,
1000
0010
1000
0001
0100
0000
1000
0000
,
1000
0100
1000
0100
1000
0000
1001
0000
,
0001
0100
0001
1000
0010
0000
0001
0000
,
0001
0010
0001
0010
0001
0000
1001
0000
,
0200
0000
0310
0000
1000
0001
0200
0000
,
0310
1000
0100
0010
,
0001
0001
0001
0001
,
0001
1000
0001
0000
0011
0000
0011
0000
,
1000
0100
1000
0001
0010
0000
1000
0000
,
1000
0010
1000
0010
1000
0000
1001
0000
,
0001
0010
0001
1000
0100
0000
0001
0000
,
0001
0100
0001
0100
0001
0000
1001
0000
,
0020
0000
0130
0000
1000
0001
0020
0000
,
0130
1000
0010
0100
,
0001
0001
0001
0001
,
0001
1000
0001
0000
0002
0000
0003
0000
,
0020
0130
0000
1000
,
0001
1001
0100
0010
,
2000
0000
0200
3300
0000
0000
0001
0000
,
1000
1001
0100
0010
,
0002
0000
0020
0033
0000
0000
1000
0000
,
0001
1001
0100
0010
,
2000
0000
0200
3300
0000
0000
0010
0000
,
0100
0110
0001
0100
,
0200
0310
1001
0001
,
1000
0001
1000
0000
0010
0000
0100
0000
,
0001
0010
1001
1000
,
0001
1000
0001
0000
0010
0000
0100
0000
,
1000
0100
1001
0001
,
1000
0001
1000
0000
0010
0000
0100
0000
,
0001
0010
1001
0100
,
0010
0100
0010
0000
1000
0000
0010
0000
,
0200
0000
0000
0000
0000
0000
0000
0000
0000
0000
0000
0000
0300
0001
0000
0000
,
0200
0000
0300
0000
,
0200
0000
0000
0000
0000
0000
0000
0000
0300
0000
0000
0000
0000
0001
0000
0000
,
0200
0000
0300
0000
,
0200
0000
0000
0000
1000
0000
0000
0000
0300
0000
0000
0000
0000
0010
0000
0000
,
2000
0001
3000
0000
,
0200
0000
0000
0000
1000
0000
0000
0000
0300
0000
0000
0000
0000
0010
0000
0000
,
2000
0001
3000
0000
;

//--------------- dance-single - Jenro Jupitel (2021) ----------------
#NOTES:
     dance-single:
     Jenro Jupitel (2021):
     Hard:
     11:
     0,0,0,0,0:
0000
0000
0000
0000
,
0000
0000
0000
0000
,
0000
0000
0000
0000
,
0000
0000
0000
0000
,
0001
0000
2000
0000
3000
0010
0000
0000
,
0100
0000
1000
0001
,
0100
0000
0020
0000
0030
0100
0000
0000
,
0001
0000
0100
0001
,
1000
0000
0200
0000
0300
0010
0000
0000
,
1001
0000
1000
0100
,
1000
0000
0000
0000
0001
0100
0000
0000
,
0010
1000
1001
0000
,
1000
0100
1000
0001
0100
0000
0100
0010
,
0000
1000
0010
1000
0001
0100
0000
0001
,
0000
1000
0100
0010
0001
0000
1000
0001
,
0000
0001
0001
0002
0000
0000
0103
0000
,
0000
0001
1000
0100
0010
0000
0001
0100
,
0000
0001
0010
0100
1000
0001
0000
1000
,
0000
1000
0010
0100
0001
0000
1000
0100
,
0000
0001
0001
0001
0002
0000
0003
0000
,
0010
0000
1000
0000
0100
0000
1000
0100
1000
0000
0001
0100
0001
0000
0100
0000
,
0010
0000
0001
0000
0100
0000
0001
1000
0010
0000
0001
0010
0100
0000
0000
0000
,
0200
0000
0301
0000
1000
0000
0100
0000
0010
0100
1000
0100
0010
0000
0100
0000
,
0020
0000
1030
0000
0001
0000
0010
0000
0100
0010
0001
0010
0100
0000
0010
0000
,
1000
0001
1000
0000
2001
0000
3001
0000
0001
1000
0001
0000
1002
0000
1003
0000
,
0010
0100
0010
0100
0010
1000
0001
0100
0010
0100
0010
0100
0010
0001
1000
0100
,
0020
1030
0100
0001
0010
1000
0100
0001
,
1000
0000
0200
0320
0130
0000
2002
3003
,
1000
0100
1000
0100
1000
0010
1000
0010
,
1000
0001
0100
0001
1000
0100
0020
0000
,
0031
0010
0001
0010
0001
0100
0001
0100
,
0001
1000
0010
1000
0001
0010
0200
0000
,
1300
0010
1000
0010
1000
0100
1000
0100
,
1000
0001
0010
0001
1000
0010
0200
0302
,
0000
2003
0000
3020
0000
0230
0000
0302
,
0000
1003
0101
1001
,
0001
0100
0001
0100
0001
0010
0001
0010
,
0001
1000
0100
1000
0001
0100
0020
0000
,
1030
0100
1000
0100
1000
0010
1000
0010
,
1000
0001
0100
0001
1000
0100
0020
0000
,
0031
0011
0110
0100
,
2100
0000
3020
0000
0130
0000
2000
3001
,
0000
0100
0000
0000
0100
0000
0100
0200
,
0000
0301
0000
0000
1000
0000
0002
0203
,
0000
1300
0000
0000
1001
0000
1000
0000
,
0001
0010
0100
0000
0001
0000
1000
0000
,
0200
0000
0310
0000
0000
0000
1000
0100
,
1000
0000
1000
0001
1000
0000
1000
0100
,
1000
1000
0000
0001
,
1000
0000
0100
0010
1000
0000
0001
0010
,
0100
0000
1000
0000
0000
0000
0001
0100
,
0001
0000
0001
1000
0001
0000
0001
0100
,
0001
1000
0000
1000
,
0001
1000
0010
0000
0001
1000
0001
0000
,
0020
0000
0130
0000
0000
0000
1000
0100
,
1000
0001
1000
0100
1000
0000
1000
0100
,
1000
1000
0000
0001
,
1000
0000
0010
0001
1000
0000
0001
1000
,
0010
0000
1000
0000
0000
0000
0001
0100
,
0001
1000
0001
0000
0001
0100
0001
0000
,
0001
0000
0000
0000
0010
0000
0000
0000
0010
0000
0000
0000
0010
0100
0000
0000
,
1000
1000
1000
2000
,
3001
0000
0000
0000
0001
0000
0000
0000
0001
0000
0000
0000
0001
0100
0000
0000
,
0010
0010
0010
0020
,
1030
0000
0000
0000
0100
0000
0000
0000
0100
0000
0000
0000
0100
0010
0000
0000
,
0001
0001
0001
0002
,
1003
0000
0000
0000
1000
0000
0000
0000
1000
0000
0000
0000
1000
0010
0000
0000
,
0100
0000
0000
0000
0100
0000
0000
0000
0100
0000
0000
0000
0000
0100
0000
0000
;

//--------------- dance-double - Jenro Jupitel (2021) ----------------
#NOTES:
     dance-double:
     Jenro Jupitel (2021):
     Challenge:
     10:
     0,0,0,0,0:
00000000
00000000
00000000
00000000
,
00000000
00000000
00000000
00000000
,
00000000
00000000
00000000
00000000
,
00000000
00000000
00000000
00000000
,
00001000
00001000
00000100
00000100
,
00002000
00000000
00003010
00000010
,
00001000
00010000
01000000
01000000
,
00020000
00000000
00130000
00100000
,
00010000
00001000
00010000
00010000
,
00000100
00000100
00000010
00000100
,
00001000
00010000
00001000
00001000
,
01000000
01000000
00200000
00000000
,
10300000
00000000
01000000
00000000
10010000
00010000
00000000
00000000
,
01000000
00001000
00010000
00000000
00011000
00000000
00001000
00000000
,
00000100
00000000
00000100
00000000
00000110
00000010
00000000
00000000
,
00000001
00000100
00000010
00000000
00001000
00000000
00011000
00000000
,
01010000
00000000
01000000
00000000
01000000
01000000
00000000
00000000
,
02000000
00000000
03010000
00000000
11000000
00000000
10000000
00100000
,
10000000
01000000
00010000
00001000
,
00010000
00000100
00000220
00000330
,
00000001
00000100
00000010
00001000
00000001
00000100
00000010
00001000
,
00001000
00010000
00100000
01000000
00001000
00010000
00100000
01000000
,
01000000
00100000
10000000
00010000
01000000
00100000
10000000
00010000
,
00010000
00001000
00000100
00000010
00010000
00001000
00000100
00000010
,
00000001
00001000
00000001
00000000
00001002
00000000
00000000
00000000
00000103
00000000
00000010
00000000
00000101
00000000
00000000
00000000
,
00001000
00000001
00001000
00000000
00002001
00000000
00000000
00000000
00003100
00000000
00010000
00000000
00011000
00000000
00000000
00000000
,
00100000
00010000
01000000
00000000
01010000
00000000
00100000
00000000
01000000
00000000
01000000
00000000
01000000
01000000
01000000
00000000
,
10000000
00000000
01000000
00000000
00010000
00010000
00010000
00000000
00001000
00000000
00100000
00000000
00011000
00000000
00000000
00000000
,
01001000
00001000
01000000
00000000
00010000
00000000
01000000
00000000
,
00110000
01000000
00110000
01000000
,
10000000
01000000
00010000
01000000
,
00001000
00010000
00010000
00000100
,
00000010
00001000
00000010
00000000
00000001
00000000
00000001
00000000
,
00000020
00000000
00000001
00000000
00000130
00000000
00000000
00001000
,
00000000
00001001
00000000
00001010
00000000
00000010
00000000
00000011
,
00000000
00001100
00000202
00000303
,
00010010
00000010
00010000
00000000
00000010
00000000
00010000
00000000
,
00001100
00000010
00001100
00000010
,
00000001
00000010
00001000
00000010
,
00010000
00001000
00001000
00100000
,
01000000
00000000
01000000
00000000
10000000
00010000
10000000
00000000
,
02000000
00000000
10000000
00000000
03100000
00000000
00000000
10010000
,
00000000
10010000
00000000
00000000
01010000
00000000
00000000
11000000
,
00000000
00000000
00020000
20030000
,
30200000
00000000
01300000
00000000
01010000
00000000
01000000
00010000
,
01000000
00000000
01000000
00010000
01000000
00000000
00010000
00000000
,
00001000
00000000
00010000
00000000
00011000
00000000
00010000
00001000
,
00010000
00000000
00010000
00001000
00010000
00000000
00001000
00000000
,
00000100
00000000
00000010
00000000
00000110
00000000
00000100
00000010
,
00000100
00000000
00000100
00000010
00000100
00000000
00000100
00000000
,
00000010
00000000
00000001
00000000
00000101
00000000
00000001
00000100
,
00000001
00000000
00000001
00000100
00000001
00000000
00000000
00000000
,
00001001
00000000
00000000
00000000
00001010
00000000
00000010
00001000
,
00000010
00000000
00000010
00001000
00000010
00000000
00001000
00000000
,
00010000
00000000
00001000
00000000
00011000
00000000
00001000
00010000
,
00001000
00000000
00001000
00010000
00001000
00000000
00010000
00000000
,
00100000
00000000
01000000
00000000
01100000
00000000
00100000
01000000
,
00100000
00000000
00100000
01000000
00100000
00000000
00100000
00000000
,
01000000
00000000
10000000
00000000
10100000
00000000
10000000
00100000
,
10000000
00000000
10000000
00100000
10000000
00000000
00000000
00000000
,
00100000
00000000
00000000
00000000
00010000
00000000
00000000
00000000
01000000
00000000
00000000
00000000
00000000
10000000
00000000
00000000
,
00100000
00010000
01000000
10000000
,
01000000
00000000
00000000
00000000
00010000
00000000
00000000
00000000
00001000
00000000
00000000
00000000
00000000
00000010
00000000
00000000
,
00000010
00001000
00010000
01000000
,
01000000
00000000
00000000
00000000
00010000
00000000
00000000
00000000
00100000
00000000
00000000
00000000
00000000
10000000
00000000
00000000
,
01000000
00010000
00100000
10000000
,
01000000
00000000
00000000
00000000
00010000
00000000
00000000
00000000
00001000
00000000
00000000
00000000
00000000
00000010
00000000
00000000
,
00000010
00000000
00000000
00000000
00000001
00000000
00000000
00000000
00000100
00000000
00000000
00000000
00000000
00001000
00000000
00000000
,
00000000
00010000
00000000
00000000
;
