#TITLE:Problema'y Isayaw;
#SUBTITLE:;
#ARTIST:DJ Yuan Bryan;
#TITLETRANSLIT:;
#SUBTITLETRANSLIT:;
#ARTISTTRANSLIT:;
#GENRE:Budots;
#CREDIT:Jenro Jupitel;
#MUSIC:Problemay Isayaw.ogg;
#BANNER:ProblemayIsayaw-bn.png;
#BACKGROUND:ProblemayIsayaw-bg.png;
#CDTITLE:;
#SAMPLESTART:81.538;
#SAMPLELENGTH:13.714;
#SELECTABLE:YES;
#OFFSET:-0.109;
#BPMS:0.000=140.000;
#STOPS:;
#BGCHANGES:;
#FGCHANGES:;

//--------------- dance-single - Jenro Jupitel (2021) ----------------
#NOTES:
     dance-single:
     Jenro Jupitel (2021):
     Beginner:
     2:
     0,0,0,0,0:
0000
0000
0000
0000
,
0000
0000
0000
0000
,
0000
0000
0000
0000
,
0000
0000
0000
0000
,
0010
0000
0001
0100
,
0010
0000
1000
0000
,
0100
0000
1000
0001
,
0100
0000
0001
0000
,
0010
0000
1000
0100
,
0010
0000
0001
0000
,
0100
0000
0001
1000
,
0100
0000
0000
0000
,
0010
0000
0001
0000
,
1000
0000
0010
0000
,
0100
0000
0001
0000
,
1000
0000
0100
0000
,
0100
0000
1000
0000
,
0001
0000
0100
0000
,
0010
0000
1000
0000
,
0001
0000
0010
0000
,
1000
0001
1000
0001
,
0010
0000
0010
0000
,
0001
1000
0001
1000
,
0100
0000
0100
0000
,
0010
0001
1000
0100
,
0010
0000
0001
0000
,
0100
1000
0001
0010
,
0100
0000
1000
0000
,
0000
0000
0000
0000
,
0010
1000
0000
0000
,
0001
1000
0000
0000
,
0100
0001
0000
0000
,
1000
0001
0000
0000
,
0010
1000
0000
0000
,
0001
1000
0000
0000
,
0100
0001
0000
0000
,
1000
0001
0000
0000
,
0100
0000
0100
0000
,
0100
0000
0100
0000
,
0100
0000
0000
0000
,
0011
0000
0010
0000
,
0001
0000
0002
0003
,
1010
0000
0010
0000
,
2000
0000
0000
3000
,
0101
0000
2000
3000
,
0001
0000
0002
0003
,
1100
0000
0001
0000
,
2000
3000
0000
0000
,
0010
1000
0100
0000
,
0001
1000
0010
0000
,
0100
0001
1000
0000
,
1000
0001
0010
0000
,
0010
1000
0001
0000
,
0001
1000
0100
0000
,
0100
0001
0010
0000
,
1000
0001
1000
0000
,
0100
0000
0100
0000
,
0100
0000
0100
0000
,
0100
0000
0100
0000
;

//--------------- dance-single - Jenro Jupitel (2021) ----------------
#NOTES:
     dance-single:
     Jenro Jupitel (2021):
     Easy:
     5:
     0,0,0,0,0:
0000
0000
0000
0000
,
0000
0000
0000
0000
,
0000
0000
0000
0000
,
0000
0000
0000
0000
,
1000
0000
0001
1000
,
0010
0000
0001
0001
,
0001
0000
0100
1000
,
0001
0000
1000
1000
,
1000
0000
0001
1000
,
0100
0000
0001
0001
,
0001
0000
0010
1000
,
0001
0000
0000
0000
,
0100
0001
0100
0001
,
0100
0001
0010
0100
,
1000
0100
1000
0100
,
1000
0100
0010
0001
,
0010
0001
0010
0001
,
0010
0100
1000
0100
,
1000
0100
1000
0100
,
0010
0100
1000
0100
,
1000
1001
0100
0010
,
0001
0100
0001
1000
,
1000
1001
0010
0100
,
0001
0010
0001
1000
,
0100
1010
0010
0100
,
0001
1000
0100
0010
,
1100
0100
0010
0001
,
1000
0010
0100
0000
,
0000
0000
0000
0000
,
1000
1000
0100
1000
,
1000
1000
0010
1000
,
1000
1000
0001
1000
,
1000
1000
0100
1000
,
0001
0001
0100
0001
,
0001
0001
0010
0001
,
0001
0001
1000
0001
,
0001
0001
0100
0001
,
0010
0100
1000
0100
,
0010
0001
0100
0010
,
2000
0000
0000
3000
,
0001
0000
1001
0001
,
0100
0000
0110
0000
,
1100
0000
0101
0001
,
0020
0000
0000
0030
,
1000
0001
1001
0010
,
0100
0100
0001
0001
,
1000
0010
1001
0100
,
2002
3003
0000
0000
,
1001
1000
0100
1000
,
1001
1000
0010
1000
,
1001
1000
0001
1000
,
1001
1000
0100
1000
,
1001
0001
0100
0001
,
1001
0001
0010
0001
,
1001
0001
1000
0001
,
1001
0000
0000
0000
,
0010
0010
0010
0010
,
0010
0010
0010
0010
,
0010
0010
0010
0100
;

//--------------- dance-single - Jenro Jupitel (2021) ----------------
#NOTES:
     dance-single:
     Jenro Jupitel (2021):
     Medium:
     9:
     0,0,0,0,0:
0000
0000
0000
0000
,
0000
0000
0000
0000
,
0000
0000
0000
0000
,
0000
0000
0000
0000
,
0100
0000
0000
0001
0010
0000
1000
0000
,
0100
0000
0000
1000
0010
0000
0001
0000
,
0100
0000
0000
0001
0010
0000
1000
0000
,
0100
0000
0000
1000
0010
0000
1001
0000
,
0100
0000
0000
0100
0000
0000
0010
0000
1000
0000
0000
0000
0000
0000
0000
0000
,
0100
0000
0000
0100
0000
0000
0010
0000
0001
0000
0000
0000
0000
0000
0000
0000
,
1000
0000
0000
0001
0000
0000
1000
0000
0010
0000
0100
0000
0010
0000
0100
0000
,
0010
0000
0000
0000
,
0100
0001
0100
0001
,
0010
0001
0010
0001
0010
0000
1000
0000
,
0100
1000
0100
1000
,
0010
1000
0010
1000
0010
0000
0100
0000
,
1001
0100
1100
1000
,
0001
0100
0001
0100
0001
0000
0010
0000
,
1001
0010
0011
0001
,
1000
0010
1000
0010
1000
0000
0000
0000
,
0002
0013
2000
3010
,
0001
0010
1000
0000
1001
0000
0100
0000
,
0020
1030
0002
0013
,
0100
1000
0001
0000
1001
0000
0010
0000
,
2000
3020
0032
0023
,
2030
3020
0032
0003
,
1000
1000
1000
1000
,
0001
0001
0001
0000
,
0000
0000
0000
0000
,
1000
0100
1000
0000
0001
0000
0101
0000
,
0001
0100
0001
0000
1000
0000
1100
0000
,
0001
0100
0001
0000
0001
0000
0101
0000
,
1000
0100
1000
0000
1000
0000
1100
0000
,
0001
0100
0001
1000
0100
1000
0001
0000
,
1000
0100
1000
0001
0100
0001
1000
0000
,
0001
0100
1000
0100
0001
0100
1000
0000
,
1000
0100
0001
0100
1000
0100
0001
0000
,
0010
0010
0010
0010
,
0010
0010
0010
0010
0010
0010
0010
0010
,
0040
0000
0000
0030
,
0110
1001
0001
1000
,
0110
1001
2000
3000
,
0110
1001
0110
1001
,
2002
0000
0000
3003
,
0000
0001
0000
0100
0000
0100
0000
0001
,
0000
1000
0000
0100
0000
0100
0000
1000
,
0000
0001
0000
0010
0000
1000
0000
0010
,
0220
0000
0000
0330
0000
0000
0000
0000
,
1000
0100
1000
0001
0100
0000
0101
0000
,
0001
0100
0001
1000
0100
0000
1100
0000
,
0001
0100
0001
1000
0010
0000
0101
0000
,
1000
0100
1000
0001
0010
0000
1100
0000
,
0001
0010
0001
1000
0100
1000
0001
0000
,
1000
0100
1000
0001
0010
0001
1000
0000
,
1000
0010
1000
0001
0010
0001
1000
0000
,
0001
0010
0001
1000
0010
1000
0001
0000
,
0010
0010
0010
0010
,
0010
0010
0010
0010
,
0010
0000
0010
0000
0010
0000
0010
0100
,
0010
0000
0000
0000
;

//--------------- dance-single - Jenro Jupitel (2021) ----------------
#NOTES:
     dance-single:
     Jenro Jupitel (2021):
     Hard:
     10:
     0,0,0,0,0:
0000
0000
0000
0000
,
0000
0000
0000
0000
,
0000
0000
0000
0000
,
0000
0000
0000
0000
,
1000
0000
1000
0100
0010
0010
0001
0000
,
0100
0000
0100
0010
1000
1000
1000
0100
,
0010
0000
0010
0000
0001
1000
1000
1000
,
0100
0000
0010
0000
0010
0001
0100
0000
,
0100
0000
0010
0000
1000
1000
0100
0010
,
0010
0000
0001
0000
1000
1000
0100
0010
,
0001
1000
0010
0100
,
0002
0000
0003
0000
,
1001
0000
0010
0100
1000
0000
0010
0100
,
0001
0000
1000
0100
0001
0000
0000
0000
,
0011
0000
0100
0010
1000
0000
0100
0010
,
0001
0000
1000
0010
0001
0000
0000
0000
,
1001
0000
0010
0100
0010
0000
0001
0000
,
1000
0000
0010
0100
0010
0000
0000
0000
,
1010
0000
0001
0000
0100
0010
0100
0000
,
0002
2003
3200
0300
,
0001
1000
0100
0010
0001
0100
0010
1000
,
0001
0100
0010
1000
0001
0000
0000
0000
,
1000
0001
0010
0100
1000
0010
0100
0001
,
1000
0010
0100
0001
1000
0000
0000
0000
,
0001
1000
0010
0100
0001
0010
0100
1000
,
0001
0010
0100
1000
0001
0000
0000
0000
,
1000
0001
0100
0010
1000
0100
0010
0001
,
1000
0100
0010
0001
1000
0000
0000
0000
,
0000
0000
0000
0000
,
0001
0000
0100
0010
1000
0000
0100
0010
,
0001
0000
1000
0010
0001
0010
1000
0000
,
0001
0000
0010
0100
1000
0000
0010
0100
,
0001
0000
1000
0100
0001
0100
1000
0000
,
0001
0100
0100
0010
0100
0001
0001
0000
,
1000
0100
0100
0010
0100
1000
1000
0000
,
0001
0100
0010
0100
0010
0100
0001
0000
,
1000
0010
0100
0001
0010
0100
1000
0000
,
0110
1001
1010
0011
,
1000
0100
0010
0001
1000
0100
0010
0001
,
2000
0000
0000
3000
,
1000
0000
0000
0010
0000
0000
0100
0000
0001
0000
0010
0000
0200
0000
0000
0000
,
1300
0000
0000
0001
0000
0000
0100
0000
0010
0000
1000
0000
0200
0000
0000
0000
,
0310
0000
0000
0001
0000
0000
1000
0000
0010
0000
0100
0000
0001
0000
1000
0000
,
2001
0000
0001
0000
0001
0000
3001
0001
,
1000
0000
0000
1000
0000
0000
0100
0000
0010
0000
0000
0000
0010
0000
0001
0000
,
0100
0000
0000
0100
0000
0000
0010
0000
1000
0000
0000
0000
1000
0000
0001
0000
,
0010
0000
0000
0010
0000
0000
0100
0000
1000
0000
0000
0000
1000
0000
0001
0000
,
0200
0000
0000
0300
0000
0000
0000
0000
,
1001
0000
0010
0100
1000
0010
0100
0000
,
0011
0000
1000
0100
0010
0001
0100
0000
,
1001
0000
1000
0001
0010
0100
1000
0000
,
1010
0000
0100
0010
1000
0100
0010
0000
,
1001
0000
0001
0100
0010
0000
0010
1000
,
0100
0000
0100
0010
0001
0000
0001
1000
,
0010
0000
0010
0100
0001
0000
1001
0000
,
1000
0000
0100
0010
0001
0100
0010
0000
,
1010
0010
0010
0010
,
0010
0010
0010
0010
,
0010
0000
0000
0000
0010
0000
0000
0000
0010
0000
0000
0010
0010
0000
0100
0000
,
0100
0000
0000
0000
;

//--------------- dance-single - Jenro Jupitel (2021) ----------------
#NOTES:
     dance-single:
     Jenro Jupitel (2021):
     Challenge:
     11:
     0,0,0,0,0:
0000
0000
0000
0000
,
0000
0000
0000
0000
,
0000
0000
0000
0000
,
0000
0000
0000
0000
,
1000
0000
0000
0001
0000
0000
1000
0010
1000
0000
0010
0000
0100
0000
0001
0000
,
0100
0000
0000
0010
0000
0000
0010
0000
0100
0000
0010
0000
0001
0000
1000
0000
,
0100
0000
0000
1000
0000
0000
0100
1000
0100
0000
0010
0000
0001
0000
1000
0000
,
0100
0000
0000
0010
0000
0000
0100
0000
0100
0000
0010
0000
0001
0000
1000
0000
,
0100
0000
0000
0001
0000
0000
1000
0010
1000
0000
0010
0000
0100
0000
0001
0100
,
0001
0000
0000
0001
0000
0000
1000
0000
1000
0000
0010
0000
0100
0000
0001
0100
,
0001
0000
0000
0010
0000
0000
1000
0001
1000
0000
0010
0000
0100
0000
0001
0000
,
0100
0000
0110
0000
0110
0000
0110
0100
,
0001
0100
0010
1000
0010
0100
0010
1000
,
0010
0100
0001
0100
0001
1000
0001
0100
,
0001
0010
0001
0010
0100
0010
0100
0010
,
1000
0001
1000
0010
1000
0001
1000
0010
,
1000
0100
1000
0100
1000
0001
1000
0001
,
1000
0010
1000
0010
0100
0001
0100
0001
,
0010
0001
0010
0100
1000
1000
0001
0100
,
0010
0100
1000
1000
0001
0100
0010
0010
,
1000
0100
0010
0001
0010
0100
0010
0001
,
0010
0100
1000
0100
1000
0001
1000
0100
,
1000
0010
1000
0010
0100
0010
0100
0010
,
0001
1000
0001
0010
0001
1000
0001
0010
,
0001
0100
0001
0100
0001
1000
0001
1000
,
0001
0010
0001
0010
0100
1000
0100
1000
,
0010
1000
0010
0100
0001
0001
1000
0100
,
0010
0100
0001
0001
1000
0100
0010
0010
,
0220
0000
0000
0330
,
1000
0001
1000
0100
1000
0001
1000
0100
,
0010
0100
1000
0100
0010
0100
1000
0100
,
0001
0100
0001
0010
0001
0100
0001
0010
,
0001
1000
0001
0010
0001
1000
0001
0010
,
1000
0001
1000
0010
1000
0001
1000
0010
,
0100
0010
1000
0010
0100
0010
1000
0010
,
0001
0010
0001
0100
0001
0010
0001
0100
,
0001
1000
0001
0100
0001
1000
0001
0100
,
0010
1000
0001
0100
0010
1000
0001
0100
,
0010
0100
0010
0100
1000
0001
1000
0001
,
1000
0001
1000
0001
0010
0001
0010
0001
1000
0100
1000
0100
2000
3000
0000
0000
,
0001
0000
0000
0100
0001
0000
0100
0000
0010
0000
1000
0000
0010
0000
0100
0000
,
0001
0000
0000
0010
0001
0000
0010
0000
0100
0000
1000
0000
0100
0000
0010
0000
,
0001
0000
0000
0100
0001
0000
0100
0000
0010
0000
1000
0000
0010
0000
0100
0000
,
0001
0000
0001
0000
0001
0000
0001
0000
0001
0000
0000
0001
1000
0000
0001
0000
,
1000
0100
0001
0100
0001
0010
0001
0100
,
0001
0100
1000
0100
1000
0010
1000
0100
,
1000
0100
0001
0100
0001
0010
0001
0100
,
0120
0000
0000
0000
0130
0000
0100
0100
,
0001
1000
0001
0100
0001
1000
0001
0100
,
0010
0100
0001
0100
0010
0100
0001
0100
,
1000
0100
1000
0010
1000
0100
1000
0010
,
1000
0001
1000
0010
1000
0001
1000
0010
,
0001
1000
0001
0010
0001
1000
0001
0010
,
0100
0010
0001
0010
0100
0010
0001
0010
,
1000
0010
1000
0100
1000
0010
1000
0100
,
1000
0001
1000
0100
1000
0001
1000
0100
,
0010
0010
0010
0010
,
0010
0010
0010
0010
,
0010
0000
0000
0000
0010
0000
0000
0000
0010
0000
0000
0010
0010
0000
0100
0000
,
0110
0000
0000
0000
;

//--------------- dance-double - Jenro Jupitel (2021) ----------------
#NOTES:
     dance-double:
     Jenro Jupitel (2021):
     Challenge:
     10:
     0,0,0,0,0:
00000000
00000000
00000000
00000000
,
00000000
00000000
00000000
00000000
,
00000000
00000000
00000000
00000000
,
00000000
00000000
00000000
00000000
,
00000000
00000000
00010000
01000000
,
10000000
00000000
00010000
00100000
,
00101000
00000000
00010010
00010100
,
00011000
00000000
00011000
00011000
,
00010000
00000000
00001000
00000100
,
00000001
00000010
00001001
00000000
,
00010010
00010000
00101000
00001000
,
00011000
00000000
00000000
00000000
,
10000000
00010000
01000000
00000000
00020000
00000000
01030000
00000000
,
00001000
00010000
00020000
00000000
00030100
00000000
00000001
00000000
,
00000001
00001000
00000010
00000000
00002000
00000000
00003010
00000000
,
00010000
00001000
00002000
00000000
00103000
00000000
10000000
00010000
,
10000000
00000000
00100000
00000000
00010000
00000000
00100000
00001000
,
00010000
00000000
00010000
00000000
00000010
00000000
00000001
00001000
,
00000001
00000000
00000100
00000000
00001000
00000000
00000100
00001000
,
00010000
00000000
00001000
00000000
01000000
00000000
10000000
00010000
,
10000000
00010000
10000000
00000000
00010000
00100000
00010000
00000000
,
00001000
01000000
00001000
00000000
00010000
00000000
00001100
00000000
,
00000001
00000100
00000001
00000100
00001000
00000000
00001000
00001000
,
00010000
00000000
00010000
00010000
00010000
00000000
00110000
00000000
,
00001000
00010000
00011000
00000000
00010000
00001000
00011000
00000000
,
00101000
00011000
00010010
00011000
,
00001000
00010000
01000000
00010000
00001000
00000000
00000100
00000000
,
00010000
01000000
00001000
00100000
00010000
00000000
00100000
00000000
,
00110000
00000000
00000000
00000000
,
00100000
01000000
00100000
01000000
00100000
00000000
00101000
00000000
,
00001000
00010000
00001000
00010000
00001000
00000000
00011000
00000000
,
00010000
00000100
00010000
00000100
00010000
00000000
00010100
00000000
,
00000100
00000010
00000100
00000010
00000100
00000000
00000110
00000000
,
00000010
00010000
00000010
00010000
00000010
00000000
00010010
00000000
,
00010000
00001000
00010000
00001000
00010000
00000000
00011000
00000000
,
00001000
01000000
00001000
01000000
00001000
00000000
01001000
00000000
,
01000000
01000000
01000000
00000000
01000000
01000000
01000000
00000000
,
11000000
10010000
01010000
00011000
,
00001100
00001001
00000101
00011000
,
00200000
00000000
00000000
00300000
,
10010000
00000000
00000000
00010000
00000000
00000000
00010000
00000000
00010000
00000000
00000000
00000000
01000000
00000000
00000000
00000000
,
10010000
00000000
00000000
01000000
00000000
00000000
10000000
00000000
10000000
00000000
00000000
00000000
01000000
00000000
00100000
00000000
,
00101000
00000000
00010000
00000000
00010010
00000000
00010000
00001000
,
00022000
00000000
00000000
00033000
,
00001001
00000000
00000000
00000001
00000000
00000000
00000001
00000000
00001000
00000000
00000000
00000000
00000100
00000000
00000010
00000000
,
00000001
00001000
00000010
00000100
00001000
00000000
00000100
00000000
,
00010010
00010000
00101000
00010000
,
00011000
00000000
00000000
00000000
,
00100000
00100000
01000000
00100000
00100000
00000000
01010000
00000000
,
00001000
00001000
01000000
00001000
00001000
00000000
00110000
00000000
,
00010000
00010000
00001000
00010000
00010000
00000000
00010010
00000000
,
00000100
00000100
00000010
00000100
00000100
00000000
00000110
00000000
,
00000100
00000010
00000010
00001000
00001000
00000010
00000010
00000000
,
00010000
00010000
00000010
00010000
00010000
00000010
00000100
00000000
,
00001000
00001000
00010000
00010000
00001000
00100000
01000000
00000000
,
00100000
00100000
01000000
00100000
10000000
00010000
01000000
00100000
,
01100000
00100000
00100000
00100000
,
00100000
00100000
00100000
00100000
,
00100000
00100000
00100000
00100000
,
00011000
00000000
00000000
00000000
;
