#TITLE:Otso-Otso;
#SUBTITLE:;
#ARTIST:Bayani Agbayani;
#TITLETRANSLIT:;
#SUBTITLETRANSLIT:;
#ARTISTTRANSLIT:;
#GENRE:Novelty Pop;
#CREDIT:Jenro Jupitel;
#MUSIC:Otso Otso.ogg;
#BANNER:Otso Otso-bn.png;
#BACKGROUND:Otso Otso-bg.png;
#CDTITLE:cdtitle.png;
#SAMPLESTART:0.000;
#SAMPLELENGTH:0.000;
#SELECTABLE:YES;
#OFFSET:-0.150;
#BPMS:0.000=134.979
,164.000=88.000
,192.000=134.979
,196.000=160.169
,224.000=133.508
;
#STOPS:;
#BGCHANGES:;
#FGCHANGES:;

//--------------- dance-single - Jenro Jupitel (2020) ----------------
#NOTES:
     dance-single:
     Jenro Jupitel (2020):
     Beginner:
     2:
     0,0,0,0,0:
0000
0000
0000
0000
,
0000
0000
0000
0000
,
0000
0000
0000
0000
,
0000
0000
0000
0000
,
0001
0000
0100
0000
,
1000
0000
0100
0000
,
0000
1000
1000
0001
,
0001
0000
0000
0000
,
0000
0000
0000
0000
,
0001
0001
0100
0000
,
1000
1000
0100
0000
,
0001
0001
0010
0000
,
1000
1000
0010
0000
,
0000
0100
0100
0100
,
0100
0000
1001
0000
,
1001
0000
0000
0001
,
1000
0000
0000
0000
,
1000
1000
0010
0000
,
0001
0001
0010
0000
,
1000
1000
0100
0000
,
0001
0001
0100
0000
,
0000
0010
0010
0010
,
0010
0000
1001
0000
,
1001
0000
0000
1000
,
0001
0000
0000
0000
,
0001
0000
0010
0000
,
0100
0000
1000
0000
,
1000
0000
0010
0000
,
0100
0000
0001
0000
,
0010
0000
0100
0000
,
1000
0000
0001
0000
,
2000
0000
0000
0000
,
3001
0000
0000
0000
,
1000
0100
1000
0000
,
0001
0100
0001
0000
,
1000
0100
1000
0000
,
0001
0100
0001
0000
,
1000
0100
1000
0000
,
0001
0100
0001
0000
,
1000
0100
1000
0000
,
1001
0000
0000
0000
,
0000
0000
0000
0000
,
1000
0100
1000
0000
,
0001
0100
0001
0000
,
1000
0100
1000
0000
,
0001
0100
0001
0000
,
1000
0100
1000
0000
,
0001
0100
0001
0000
,
0000
0000
0000
0000
,
0000
0000
0000
0000
,
1000
0100
1000
0000
,
0001
0100
0001
0000
,
1000
0100
1000
0000
,
0001
0100
0001
0000
,
1000
0100
1000
0000
,
0001
0100
0001
0000
,
0010
0000
0000
0000
,
1001
0000
0000
0000
;

//--------------- dance-single - Jenro Jupitel (2020) ----------------
#NOTES:
     dance-single:
     Jenro Jupitel (2020):
     Easy:
     4:
     0,0,0,0,0:
0000
0000
0000
0000
,
0000
0000
0000
0000
,
0000
0000
0000
0000
,
0000
0000
0000
0000
,
0001
0010
0100
0000
,
1000
0000
0000
0001
0000
0000
0000
0000
,
0000
0100
1000
0001
,
0020
0000
0000
0000
0000
0100
0000
0130
,
0000
0000
0000
0000
,
0100
0100
0100
0001
,
1000
1000
1000
0001
,
0010
0010
0010
1000
,
0001
0001
0001
1000
,
0000
0100
1000
0001
,
0010
0000
1001
1001
,
1001
0000
0000
0020
,
0130
0000
0000
0000
,
0010
0010
0010
0001
,
1000
1000
1000
0001
,
0100
0100
0100
1000
,
0001
0001
0001
1000
,
0000
0010
1000
0001
,
0100
0000
0001
0010
,
1000
0000
0000
0200
,
0310
0000
0000
0000
,
0001
0001
0010
0000
,
0100
0100
1000
0000
,
1000
1000
0010
0000
,
0100
0100
0001
0000
,
0010
1001
0100
0000
,
1000
0110
0001
0000
,
0110
0000
0000
0000
,
1001
0010
0010
0010
,
1000
0001
0100
0001
,
0001
1000
0100
1000
,
1000
0001
0100
0001
,
0001
1000
0110
1000
,
1000
0001
0100
0001
,
0001
1000
0100
1000
,
0001
0110
1000
0110
,
0001
0000
0000
0000
,
0000
0010
0010
0010
,
1000
0001
0100
0001
,
0001
1000
0100
1000
,
1000
0001
0100
0001
,
0001
1000
0110
1000
,
1000
0001
0100
0001
,
0001
1000
0100
1000
,
0000
0000
0000
0000
,
0000
0010
0010
0010
,
1000
0001
0100
0001
,
0001
1000
0100
1000
,
1000
0001
0100
0001
,
0001
1000
0110
1000
,
1000
0001
0100
0001
,
0001
1000
0100
1000
,
0001
1000
0010
0010
,
1001
0000
0000
0000
;

//--------------- dance-single - Jenro Jupitel (2020) ----------------
#NOTES:
     dance-single:
     Jenro Jupitel (2020):
     Medium:
     8:
     0,0,0,0,0:
0000
0000
0000
0000
,
0000
0000
0000
0000
,
0000
0000
0000
0000
,
0000
0000
0000
0000
,
1000
0001
0010
0000
,
0100
0000
0000
1000
0000
0000
0000
0000
,
1001
0000
1000
0010
,
0002
0000
0000
0000
0000
1000
1000
1000
,
0000
0003
0000
0000
,
0001
1000
0001
0010
0100
0000
0000
0000
,
1000
0001
1000
0100
0010
0000
0000
0000
,
0001
0100
0001
0100
0010
0000
0000
0000
,
1000
0010
1000
0010
0100
0000
0000
0000
,
0000
0000
1000
0001
1000
0100
0010
0001
,
0000
0000
1001
1001
,
1001
0000
0000
0020
,
0130
0000
0000
0000
,
1000
0001
1000
0100
0010
0000
0000
0000
,
0001
1000
0001
0010
0100
0000
0000
0000
,
1000
0010
1000
0010
0100
0000
0000
0000
,
0001
0100
0001
0100
0010
0000
0000
0000
,
0000
0000
0001
1000
0001
0010
0100
1000
,
0000
0000
1000
0010
1000
0001
0100
0001
,
0000
0000
0000
0200
,
0310
0000
0000
0000
,
1100
0011
1100
0000
,
0001
0100
0000
1000
0000
0000
0000
0000
,
0101
1010
0101
0000
,
1000
0100
0000
0001
0000
0000
0000
0000
,
1001
0110
1001
0000
,
0010
0100
0000
1001
0000
0000
0000
0000
,
0110
0000
1000
0001
0100
0000
0010
0000
,
1001
0010
0010
0010
,
0001
0100
0001
0000
0001
0100
0001
0000
,
1000
0100
1000
0000
1000
0100
1000
0000
,
0001
0100
0001
0000
0001
0100
0001
0000
,
1000
0100
1000
0001
1000
1000
1001
0000
,
0001
0100
0001
0000
0001
0100
0001
0000
,
1000
0100
1000
0000
1000
0100
1000
0000
,
1001
1001
0000
0000
,
0110
0000
0000
0000
,
0000
0010
0010
0010
,
0001
0100
0001
1000
0001
0100
0001
0000
,
1000
0100
1000
0001
1000
0100
1000
0000
,
0001
0100
0001
1000
0001
0100
0001
0000
,
1000
0100
1000
0001
1000
1000
1001
0000
,
0001
0100
0001
1000
0001
0100
0001
0000
,
1000
0100
1000
0001
1000
0100
1000
0000
,
1001
1001
0000
0000
,
0000
0010
0010
0010
,
0001
0100
0001
0000
0001
0100
0001
0000
,
1000
0100
1000
0000
1000
0100
1000
0000
,
0001
0100
0001
0000
0001
0100
0001
0000
,
1000
0100
1000
0001
1000
0000
1001
0000
,
1000
0100
1000
0000
1000
0100
1000
0000
,
0001
0100
0001
0000
0001
0100
0001
0000
,
1001
1001
0000
0000
,
0110
0000
0000
0000
;

//--------------- dance-single - Jenro Jupitel (2020) ----------------
#NOTES:
     dance-single:
     Jenro Jupitel (2020):
     Hard:
     11:
     0,0,0,0,0:
0000
0000
0000
0000
,
0000
0000
0000
0000
,
0000
0000
0000
0000
,
0000
0000
0000
0000
,
0001
1000
0010
0000
,
0200
0000
0000
0000
0000
0000
0301
0000
0000
0000
0001
0000
1000
0001
0000
0000
,
1001
0000
0000
0000
,
1001
0000
0000
0000
0000
0011
0110
1100
,
0000
0000
0000
0000
,
0100
0010
0001
1000
0100
0000
1000
0010
,
0000
0100
0001
1000
0010
0110
0000
0001
,
1000
0100
0010
0001
1001
0000
0010
0100
,
0000
0001
1000
0010
0100
0101
0000
0000
,
0000
0000
1000
0100
0010
0001
1000
1010
,
0000
0000
0000
0100
0110
0110
1001
1001
,
0110
0000
0000
0200
,
0310
0000
0000
0000
0000
0000
0010
0000
0000
0000
1000
0000
0001
1000
0000
0000
,
0010
0100
1000
0001
0011
0000
0001
0100
,
0000
0010
1000
0001
0100
0110
0000
1000
,
0001
0010
0100
1000
0001
0100
0010
1000
,
0001
0100
0010
1000
0001
1001
0000
0000
,
0000
0000
0001
0010
0100
1000
0001
0101
,
0000
0000
0100
0010
0100
0010
0100
0020
,
0000
0000
0000
0130
0000
0000
0020
0000
,
0130
0000
0000
0000
0000
0000
0100
0000
0000
0000
0001
0000
1000
0001
0000
0000
,
0001
0100
0001
0100
0010
1000
1010
0000
,
1000
0100
1000
0100
0010
0001
0011
0000
,
0001
0100
0010
1000
0001
0100
0101
0000
,
1000
0010
0100
0001
1000
0010
1010
0000
,
0010
1000
0010
0100
0010
0100
1001
0000
,
0100
0000
0001
0000
0100
0000
0010
0000
0100
0000
0010
0000
1000
0001
0000
0000
,
0110
0000
0000
0000
,
1001
2000
0000
0000
,
3010
0100
0010
0100
0001
0100
0001
0100
,
0010
0100
0010
0100
0001
0100
0001
0100
,
0010
0100
0010
0100
0001
0100
0001
0100
,
0001
0100
0010
1000
1001
0000
0110
0000
,
0010
0100
0010
0100
1000
0100
1000
0100
,
0010
0100
0010
0100
1000
0100
1000
0100
,
0110
1001
0000
0000
,
0110
0000
0000
0000
,
0000
2000
0000
0000
,
3001
0100
0001
1000
1000
0100
1000
0001
,
0001
0100
0001
1000
1000
0100
1000
0001
,
0001
0100
0001
1000
1000
0100
1000
0001
,
0001
0100
0001
1000
1100
0110
0011
0000
,
1000
0000
0100
0000
1000
0000
0000
0001
0100
0000
0001
0000
1001
0000
1000
0000
,
1000
0000
0100
0000
1000
0000
0000
0001
0100
0000
0001
0000
1001
0000
1000
0000
,
1001
1001
0000
0000
,
0000
2000
0000
0000
,
3001
0100
0001
1000
1000
0100
1000
0001
,
0001
0100
0001
1000
1000
0100
1000
0001
,
0001
0100
0001
1000
1000
0100
1000
0001
,
0001
0100
0001
1000
1100
0110
0011
0000
,
1000
0100
1000
0001
0001
0100
0001
1000
,
1000
0100
1000
0001
0001
0100
0001
1000
,
1001
1001
0000
0000
,
0110
0000
0000
0000
;

//--------------- dance-double - Jenro Jupitel (2021) ----------------
#NOTES:
     dance-double:
     Jenro Jupitel (2021):
     Challenge:
     11:
     0,0,0,0,0:
00000000
00000000
00000000
00000000
,
00000000
00000000
00000000
00000000
,
00000000
00000000
00000000
00000000
,
00000000
00000000
00000000
00000000
,
00010000
00001000
00100000
00000000
,
00000200
00000000
00000000
00000000
00000000
00000000
00010300
00000000
00000000
00000000
00010000
00000000
00001000
00010000
00000000
00000000
,
00011000
00000000
00000000
00000000
,
00001100
00000000
00000000
00000000
00000000
00001000
00010000
01000000
,
00000000
00000000
00000000
00000000
,
01000000
00010000
00001000
00000100
00000010
00000000
00001000
00100000
,
00000000
00010000
00000100
00001000
00000010
00000110
00000000
00001000
,
00010000
00000100
00010000
00000010
00010010
00000000
00100000
00001000
,
00000000
00000000
00010000
00000000
00001000
00000000
00100000
00000000
00000000
00000000
00010000
00000000
01000000
00010000
00000000
00000000
,
01100000
00000000
01000000
00010000
00001000
00010000
01000000
10100000
,
00000000
00000000
00000000
00010000
00011000
00011000
00010010
00010010
,
00011000
00000000
00000000
02000000
,
03100000
00000000
00000000
00000000
00000000
00000000
00100000
00000000
00000000
00000000
10000000
00000000
00010000
10000000
00000000
00000000
,
00100000
01000000
10000000
00010000
00101000
00000000
00010000
01000000
,
00000000
00100000
00001000
00010000
01000000
01100000
00000000
10000000
,
00010000
00100000
00001000
00010000
00001000
00000100
00001000
00000001
,
00000010
00000000
00010000
00000000
00001000
00000000
01000000
00000000
00010000
00000000
10000000
00000000
01000000
10000000
00000000
00000000
,
01100000
00000000
01000000
00010000
00001000
00010000
01000000
01001000
,
00000000
00000000
01000000
00100000
01000000
00100000
01000000
00200000
,
00000000
00000000
00000000
01300000
00000000
00000000
00200000
00000000
,
01300000
00000000
00000000
00000000
00000000
00000000
01000000
00000000
00000000
00000000
00010000
00000000
10000000
00010000
00000000
00000000
,
01010000
00001000
00010000
01000000
00100000
00001000
00101000
00000000
,
00010000
00000100
00010000
00000100
00100000
00010000
00101000
00000000
,
00010000
01000000
00100000
00001000
00010000
01000000
01001000
00000000
,
00001000
00000010
00000100
00010000
00001000
00100000
00101000
00000000
,
00100000
00001000
00100000
01000000
00100000
00001000
01001000
00000000
,
01000000
00000000
00001000
00000000
01000000
00000000
00010000
00000000
01000000
00000000
00100000
00000000
10000000
00010000
00000000
00000000
,
01100000
00000000
00000000
00000000
,
00011000
00000002
00000000
00000000
,
00000013
00000100
00000010
00000100
00001000
00000100
00001000
00000100
,
00010000
00001000
00010000
00001000
00100000
00010000
00100000
00010000
,
00100000
01000000
00100000
01000000
10000000
01000000
10000000
01000000
,
10000000
01000000
00100000
00010000
01010000
00000000
00011000
00000000
,
00010000
00001000
00010000
00001000
00000100
00000010
00000100
00000010
,
00000100
00000001
00000100
00000001
00010000
00000010
00010000
00000010
,
00000110
00011000
00000000
00000000
,
00101000
00000000
00000000
00000000
,
00000000
20000000
00000000
00000000
,
30010000
00000000
01000000
00000000
00010000
00000000
00010000
00001000
00100000
00000000
01000000
00000000
00001000
00000000
00010000
00000000
,
00010000
00000000
01000000
00000000
00010000
00000000
00010000
00001000
01000000
00000000
01000000
00000000
00001000
00000000
00010000
00000000
,
00010000
00000000
01000000
00000000
00010000
00000000
00000000
00001000
01000000
00000000
01000000
00000000
00001000
00000000
00010000
00000000
,
00010000
00001000
00010000
00001000
00010000
00000000
00100000
00000000
00110000
00000000
00011000
00000000
00001100
00000000
00000000
00000000
,
00000001
00000000
00000010
00000000
00000001
00000000
00001000
00001000
00000010
00000000
00001000
00000000
00001001
00000000
00000001
00000000
,
00000001
00000000
00000010
00000000
00000001
00000000
00001000
00001000
00000010
00000000
00001000
00000000
00001001
00000000
00000001
00000000
,
00001100
00011000
00000000
00000000
,
00000000
00000002
00000000
00000000
,
00001003
00000100
00001000
00010000
00001000
01000000
00001000
00010000
,
00001000
00000100
00001000
00010000
00001000
01000000
00001000
00010000
,
00001000
00000100
00001000
00010000
00001000
01000000
00001000
00010000
,
00001000
00000100
00001000
00010000
00010100
00011000
00101000
00000000
,
00010000
00100000
00010000
00001000
00010000
00100000
00001000
00010000
,
00001000
00100000
00001000
00010000
00100000
00010000
00001000
00010000
,
00011000
00011000
00000000
00000000
,
00001010
00000000
00000000
00000000
;
