#TITLE:Marikit;
#SUBTITLE:;
#ARTIST:Juan Caoile, Kyleswish;
#TITLETRANSLIT:;
#SUBTITLETRANSLIT:;
#ARTISTTRANSLIT:;
#GENRE:OPM;
#CREDIT:Jenro Jupitel (2024);
#MUSIC:Marikit.ogg;
#BANNER:Marikit-bn.png;
#BACKGROUND:Marikit-bg.png;
#CDTITLE:cdtitle.png;
#SAMPLESTART:68.546;
#SAMPLELENGTH:13.427;
#SELECTABLE:YES;
#OFFSET:0.265;
#BPMS:0.000=143.000;
#STOPS:;
#BGCHANGES:0.000=Marikit.mp4=1.00=1=0=0=StretchNoLoop==CrossFade==,
99999.000=-nosongbg-=1.000=0=0=0=StretchNoLoop====
;
#FGCHANGES:;

//--------------- dance-single - Jenro Jupitel (2024) ----------------
#NOTES:
     dance-single:
     Jenro Jupitel (2024):
     Beginner:
     2:
     0,0,0,0,0:
0000
0000
0000
0000
,
0000
0000
0000
0000
,
0000
0000
0000
0000
,
0010
0000
0010
0000
,
1000
0000
0001
0000
,
0100
0000
0001
0000
,
0100
0000
1000
0000
,
0010
0000
0010
0000
,
0100
0000
0001
0000
,
1000
0000
0010
0000
,
0001
0000
0010
0000
,
1000
0000
0100
0000
,
0001
0000
0100
0000
,
0001
0000
0001
0000
,
1000
0000
1000
0000
,
0010
0000
0010
0000
,
0100
0000
0100
0000
,
0001
0000
1000
0000
,
1000
0000
0001
0000
,
0100
0000
0001
0000
,
0100
0000
0010
0000
,
0100
0000
1000
0000
,
0010
0000
0001
0000
,
1000
0000
0001
0000
,
0100
0000
0010
0000
,
0001
0000
1000
0000
,
0100
0000
0010
0000
,
1000
0000
0001
0000
,
0100
0000
0001
0000
,
1000
0000
0100
0000
,
0010
0000
0001
0000
,
0001
0000
0001
0000
,
0001
0000
0010
0000
,
0001
0000
0100
0000
,
1000
0000
0100
0000
,
0001
0000
1000
0000
,
0001
0000
0010
0000
,
0100
0000
0100
0000
,
0010
0000
0100
0000
,
0100
0000
0001
0000
,
1000
0000
0101
0000
,
0010
0000
0001
0000
,
0100
0100
0100
0000
,
0010
0000
1000
0000
,
0001
0000
1001
0000
,
0100
0000
0010
0000
,
0100
0100
0100
0000
,
0001
0000
1000
0000
,
0010
0010
0010
0000
,
1000
0000
0100
0000
,
0001
0001
0001
0000
,
0010
0000
0100
0000
,
1000
1000
1000
0000
,
0100
0000
0001
0000
,
0100
0100
0100
0000
,
0010
0000
1001
0000
,
0100
0000
0100
0000
,
0010
0000
0001
0000
,
0010
0000
0001
0000
,
0010
0000
1000
0000
,
0010
0000
1000
0000
,
0100
0000
0001
0000
,
0100
0000
0001
0000
,
0100
0000
1000
0000
,
0100
0000
1000
0000
,
0001
0000
0001
0000
,
1000
0000
1000
0000
,
0010
0000
0100
0000
,
0010
0100
0001
0001
;

//--------------- dance-single - Jenro Jupitel (2020) ----------------
#NOTES:
     dance-single:
     Jenro Jupitel (2020):
     Easy:
     4:
     0.385691,0.521386,0.112493,0.032141,0.257127,336,322,14,4,0,0,0.385691,0.521386,0.112493,0.032141,0.257127,336,322,14,4,0,0:
0000
0000
0000
0000
,
0000
0000
0000
0000
,
0000
0000
0000
0000
,
0000
0001
0001
0100
,
0000
1000
1000
0100
,
0000
0010
0010
0100
,
0000
0001
0001
0001
,
0000
0010
0001
0010
,
0010
0100
1000
0001
,
0000
1000
1000
0100
,
0000
0010
0010
0001
,
0000
0001
0001
1000
,
0000
1000
1000
1000
,
0000
0010
0010
0100
,
0000
0010
0010
1000
,
0000
0001
0001
0010
,
0010
0100
0100
1000
,
0000
1000
1000
1000
,
0000
0001
0001
0001
,
0000
0010
0010
0010
,
0000
0100
0100
0100
,
0000
1000
1000
1000
,
0000
0001
0010
0001
,
0000
0100
0100
0100
,
1000
0001
0010
0100
,
1000
1000
0001
0001
,
0000
0100
0010
0010
,
0000
0100
1000
0010
,
0000
0001
0001
0100
,
0000
0010
0010
0010
,
0000
0001
0001
0100
,
0000
1000
1000
1000
,
0010
0100
0010
1000
,
0001
0001
1000
1000
,
0001
0010
0100
0100
,
0000
1000
1000
1000
,
0001
0001
0010
0001
,
0000
0100
0100
1000
,
0000
0001
0001
1000
,
0000
0010
1000
0001
,
0010
0100
0010
0100
,
0000
1000
1000
0001
,
0010
0100
0010
0001
,
0000
0010
0010
0001
,
0100
0010
1000
0001
,
0100
0000
0010
0000
,
1000
0001
0100
0010
,
0001
0000
0100
0000
,
0010
0010
0001
0001
,
1000
0100
1000
1000
,
0010
0100
0001
0000
,
1000
0000
0010
0100
,
0001
1000
1000
0010
,
1001
0000
0001
0000
,
0100
0100
0010
1000
,
0001
0000
0100
0000
,
0010
1000
0010
1000
,
0100
0000
0100
0000
,
0001
0000
0001
0000
,
0100
0000
0001
0000
,
0010
0001
0100
0010
,
1000
0000
0001
0000
,
0010
0000
0001
0000
,
0100
0000
0010
0000
,
1000
0100
0010
0001
,
0100
0000
0010
0000
,
0100
0000
1000
0001
,
0010
0000
0100
0000
,
0001
1000
0010
0100
;

//--------------- dance-single - Jenro Jupitel (2024) ----------------
#NOTES:
     dance-single:
     Jenro Jupitel (2024):
     Medium:
     9:
     0,0,0,0,0:
0000
0000
0000
0000
,
0000
0000
0000
0000
,
0000
0000
0000
0000
,
0000
0100
0001
0100
,
0000
0100
0010
0001
,
0000
0100
1000
0100
,
0000
0100
0010
1000
,
0000
0100
0001
0001
,
1000
0100
0100
0010
,
0001
0000
1000
0001
,
0100
0000
0010
1000
,
0100
0000
0010
0001
,
1000
0100
0010
0001
,
1000
0000
0100
0010
,
0001
0000
0100
0010
,
0100
0000
0010
1000
,
0010
0100
0001
0010
,
1000
0000
0001
1000
,
0001
0000
0100
0100
,
0010
0000
0100
0001
,
1000
0100
0010
0001
,
0000
0010
0001
0100
,
0000
0010
1000
0001
,
0000
0100
0001
1000
,
0010
0010
0100
0100
,
0001
0000
0001
0000
,
1000
0000
1000
0000
,
0100
0000
0100
0000
,
0010
0001
0010
0001
,
0100
0000
0010
1000
,
0100
0000
0100
1000
,
0001
0000
0100
0001
,
1000
1000
0001
0001
,
0010
0001
0100
0100
,
0010
1000
0001
0001
,
0010
0001
1000
0100
,
1000
0010
0100
0001
,
0010
0010
0100
0100
,
0001
1000
0001
1000
,
0010
0100
0010
0100
,
0001
1001
0100
1001
,
0010
0000
0001
0000
0010
0001
0010
0001
,
0020
0000
0130
1000
0100
2000
0000
3001
,
0000
0102
1003
2100
,
3001
0000
0010
0100
0010
0000
1001
0000
,
0100
2000
3010
0001
,
0100
0000
0001
0000
0010
0000
0001
1000
,
0001
2000
3100
0001
,
1000
0010
1000
0001
1000
0010
0100
0000
,
0110
0001
1000
0001
,
0100
0010
1000
0100
,
2000
3001
0002
0103
,
0010
0000
1000
0010
0100
0001
0010
0100
,
1000
0002
0103
0001
,
0010
0100
1100
0100
,
1000
0001
0001
0010
,
0100
0010
0100
0010
0100
1000
0001
1000
,
0002
0100
0010
0100
,
2003
0100
0010
0100
,
3002
0100
1003
2000
,
0100
0000
3001
0010
0100
1000
0100
1000
,
1000
0000
0010
0100
0010
0100
0010
1000
,
0001
0000
0010
0001
0010
0001
1000
0100
,
1000
0000
0010
0000
0010
1000
0001
0100
,
0010
0100
0001
0001
1000
0100
0010
0001
,
0100
0000
0010
1000
0100
1000
0010
0100
,
0001
0000
0110
0000
0100
0001
0100
0010
,
0100
0001
0100
0010
0200
0000
1300
0000
,
0002
0023
0230
2300
,
3000
0000
0000
0000
;

//--------------- dance-single - Jenro Jupitel (2024) ----------------
#NOTES:
     dance-single:
     Jenro Jupitel (2024):
     Hard:
     10:
     0,0,0,0,0:
0000
0000
0000
0000
,
0000
0000
0000
0000
,
0000
0000
0000
0000
,
0000
0000
1000
0001
0100
0010
0100
0000
,
0000
0000
0100
0001
0100
0010
1000
0000
,
0100
0000
0010
0001
0010
0000
0100
0000
,
1000
0000
0100
1000
0100
0000
0002
0000
,
0103
0000
0010
1000
0010
0000
0001
0000
,
0010
0100
1000
0100
1000
0100
1000
0001
,
0001
0000
0100
0000
0010
0100
0010
0000
,
1000
0000
0001
0000
1000
0001
1000
0000
,
0100
0000
0010
0000
0100
0010
0100
0000
,
0010
0000
0001
0000
0010
0001
0100
0000
,
0001
0000
1000
0000
0100
1000
0100
0000
,
1000
0000
0010
0000
0100
0001
0100
0000
,
0001
0000
1000
0000
0100
0010
0001
0010
,
0100
0010
0100
0010
0001
1000
0100
0000
,
1000
0000
0010
0000
1000
0010
1000
0000
,
0001
0000
0100
0000
0001
0100
0001
0000
,
1000
0000
0100
0000
1000
0100
1000
0000
,
0001
0000
0010
0000
0100
0010
0001
0000
,
1000
0010
1010
0100
,
0000
0001
0011
0100
,
0000
0001
1000
0100
2000
0000
3010
0100
,
0001
0010
0100
0010
0100
1000
0001
0000
,
0100
0000
0001
0100
0001
0010
0100
0000
,
1000
0000
0100
1000
0100
0010
0100
0000
,
0010
0000
0001
1000
0001
1000
0100
0010
,
0001
0100
0010
1000
0100
0010
0001
0000
,
1000
0000
0100
1000
0100
1000
0100
0000
,
0010
0000
0001
0010
0001
0010
0001
0000
,
0100
0000
0010
1000
0010
1000
0010
0100
,
0001
0000
0001
0000
0100
1000
0001
1000
,
0200
0310
0011
0101
,
0200
0310
1010
1100
,
0002
0000
1003
0000
0001
1000
0001
1000
,
0001
0001
0100
0010
1000
1000
0100
0010
,
0001
0100
1000
1001
,
0100
0001
1001
0100
,
0020
0000
0130
0000
0100
0010
0010
0100
,
0010
1000
0001
0100
0020
0000
1000
0000
,
0031
0000
1000
0000
0100
1000
0100
0010
,
0002
0000
0103
0010
2000
3002
0000
0103
,
0000
0000
0010
0100
0010
0100
0001
1000
,
0001
1000
0100
0010
0100
0010
0001
0100
,
1000
1100
0001
0101
,
2000
3001
0000
0002
0013
0100
0000
2100
,
0000
3010
0102
1003
,
0001
0001
1000
0001
1000
1000
0100
0010
,
0002
0000
0013
0000
0100
1000
0100
1000
,
0010
0000
0100
0001
0100
0002
0000
0013
,
0000
0000
1010
0000
0011
0000
0001
1000
,
0001
0000
0001
0010
0001
0001
0001
0100
,
0002
0000
1003
0000
0100
1000
0010
1000
,
0010
0100
0010
1000
0010
0100
0001
0010
,
0100
1000
0002
1003
,
1000
1000
0001
1000
0001
1000
0010
0100
,
0002
0000
0010
0000
0103
0010
0001
0100
,
0020
0000
1030
0000
0100
1000
0100
1000
,
0200
1300
0120
1030
,
0210
0301
2001
3100
,
0002
0000
1003
0000
0010
0100
0010
0100
,
0002
0000
1003
0000
0100
1000
0010
0100
,
0002
1003
1200
1300
,
0010
0010
0010
0100
0010
0100
0001
1000
,
0100
0000
0002
0000
1003
0100
0010
0001
,
0100
0010
1000
0100
0010
0001
0100
0010
,
1000
0100
0010
0001
0010
0100
1000
0100
,
1000
0100
1000
1000
0010
1000
0020
0000
,
0030
0000
0000
0000
;

//--------------- dance-single - Jenro Jupitel (2024) ----------------
#NOTES:
     dance-single:
     Jenro Jupitel (2024):
     Challenge:
     11:
     0,0,0,0,0:
0000
0000
0000
0000
,
0000
0000
0000
0000
,
0000
0000
0000
0000
,
0000
0200
0310
0200
0310
0200
0002
0000
,
0313
0000
0200
1300
0200
2300
0200
0000
,
3310
0000
0001
1000
0001
2000
0200
0000
,
3301
0000
0010
0001
0010
0001
0010
0000
,
1001
0001
0100
0010
1000
0001
0100
0010
,
1000
0001
0100
0010
1000
0002
0023
0230
,
2300
3000
0001
0100
0002
0020
0133
0000
,
0000
0010
0100
0010
0200
0020
0331
0000
,
0000
1000
0100
1000
0010
0100
0010
0100
,
0001
0100
0010
0100
0001
1000
0020
0200
,
0331
0000
0001
1000
0200
2000
3301
0000
,
0000
0000
1000
0001
0200
0002
1303
0000
,
0000
0010
0010
0100
0010
0100
0100
0010
,
0100
0020
0130
0200
0310
0100
0010
0100
,
1001
0000
0200
0310
0200
0320
0200
0000
,
1330
0000
0200
0310
0200
0320
0200
0000
,
0331
0000
1000
0001
0100
0001
0010
0100
,
1000
0010
0100
0100
0001
0010
0001
1000
,
0100
1000
0001
0010
0200
2000
3301
0000
,
0001
1000
0010
0100
0002
2000
3103
0000
,
0000
0100
0010
0100
1000
0100
0001
0100
,
1000
0100
0001
0100
1000
0001
0100
0001
,
0101
0000
1000
0000
1100
0000
0020
0200
,
1330
0000
0001
0000
0100
0000
0020
0200
,
0331
0000
1000
0000
0102
0010
0013
0100
,
2100
0010
3010
0100
0110
1001
0002
0020
,
0133
0000
2000
0100
3001
0100
1000
0000
,
0000
0000
0002
0100
1003
0100
0001
0000
,
0000
0000
0010
1000
0001
0100
0010
0100
,
0001
1000
0100
0010
0001
0100
0010
1000
,
0001
0001
0100
0001
0010
0100
0010
0100
,
1000
0010
0100
0010
0100
0001
0010
0100
,
1000
0001
0100
0001
1000
0100
1000
0001
,
0010
0001
1000
0010
1000
0001
0100
0010
,
2000
3001
0110
2002
,
3103
0100
0010
0000
0110
0000
0110
0000
,
0000
0000
0100
0000
0000
0100
0100
0000
,
0020
0130
0020
1030
,
1001
0000
0100
0000
0010
0001
0010
0001
,
0200
0000
0310
1000
0010
1000
0001
0100
,
0002
0000
0013
0100
1000
0010
0100
0001
,
2001
0000
3100
0010
0100
1000
0001
1000
,
0200
0301
2000
3001
,
2000
0001
0001
3001
0100
0010
0110
0000
,
1001
0200
0310
1001
,
0100
0001
0100
1000
0100
0001
0100
1000
,
2002
0000
3103
0000
0010
0100
1000
0100
,
2000
0000
3010
0100
0002
0020
0000
1033
,
0000
1100
0102
1003
,
2100
0000
3001
0100
0010
0100
0010
2000
,
0200
3301
0100
0110
,
2002
3103
0020
0130
,
0002
0000
0000
0000
1003
0000
1000
0000
0001
0000
0000
0001
0100
0000
0010
0000
,
0100
0010
1000
0000
0100
0000
0010
0001
0100
0000
0010
0000
1000
0000
0100
0000
,
0110
0000
2100
0000
3001
0100
0001
0200
,
0310
0000
1001
0000
0200
0301
0100
0010
,
1000
0010
0001
0020
0000
0230
0000
2000
,
0000
0300
3001
0010
,
0100
0110
0002
1003
,
0200
0000
1300
0000
0001
0100
0002
0000
,
0020
0000
0133
0000
0000
1000
1001
1000
,
0100
0010
0100
0010
0100
0010
0100
2000
,
3001
0102
0013
2100
,
3010
0000
0120
0000
0130
0001
1000
0100
,
0010
0001
0100
0100
0200
0000
0301
0000
,
0010
0001
0100
2000
,
3000
0000
0000
0000
;
