#VERSION:0.83;
#TITLE:Liminal Spaces;
#SUBTITLE:;
#ARTIST:Manila Killa;
#TITLETRANSLIT:;
#SUBTITLETRANSLIT:;
#ARTISTTRANSLIT:;
#GENRE:;
#CREDIT:Jenro Jupitel (2024);
#MUSIC:Liminal Spaces.ogg;
#BANNER:Liminal Spaces-bn.png;
#BACKGROUND:Liminal Spaces-bg.png;
#CDTITLE:cdtitle.png;
#SAMPLESTART:45.029;
#SAMPLELENGTH:15.000;
#SELECTABLE:YES;
#OFFSET:-0.029;
#BPMS:0.000=64.000
,16.000=256.000
;
#STOPS:;
#SCROLLS:0.000=0.015,
8.000=0.040,
15.750=2.000,
16.000=1.000,
136.000=0.500,
140.000=0.100,
141.000=0.240,
142.000=0.490,
143.000=0.790,
144.000=1.000,
256.000=0.050,
268.000=0.330,
269.000=0.480,
270.000=0.600,
271.000=0.810,
272.000=0.950,
273.500=0.500,
280.000=0.330,
288.000=0.950,
289.500=0.500,
296.000=0.330,
304.000=0.950,
305.500=0.500,
312.000=0.330,
320.000=0.950,
321.500=0.500,
328.000=0.330,
329.500=0.660,
331.000=0.990,
333.000=1.000,
336.000=0.950,
337.500=1.500,
344.000=1.330,
352.000=0.950,
353.500=1.500,
360.000=1.330,
365.000=1.000,
366.500=1.330,
368.000=0.950,
369.500=1.500,
376.000=1.330,
384.000=0.950,
385.500=1.500,
392.000=1.330,
396.000=1.000,
400.000=0.075,
402.000=0.070,
404.000=0.065,
406.000=0.060,
408.000=0.055,
410.000=0.050,
412.000=0.045,
414.000=0.040,
416.000=0.035,
418.000=0.030,
420.000=0.025,
422.000=8.000,
430.000=1.000
;
#DISPLAYBPM:256.000;
#BGCHANGES:;
#FGCHANGES:;

//--------------- dance-single - Jenro Jupitel (2024) ----------------
#NOTEDATA:;
#STEPSTYPE:dance-single;
#DESCRIPTION:Jenro Jupitel (2024);
#DIFFICULTY:Challenge;
#METER:16;
#RADARVALUES:0,0,0,0,0;
#NOTES:
0000
0000
0000
0000
,
0000
0000
0000
0000
,
0000
0000
0000
0000
,
0000
0000
0000
0000
,
0001
0010
0000
0100
0000
1000
0100
0010
,
0001
0010
0001
0000
0010
0001
0010
0000
,
1M00
0001
0000
0100
0000
0010
1000
0001
,
1000
0100
0010
0000
0010
0001
0010
0000
,
1M00
0001
0000
0010
0000
1000
0010
0100
,
0010
1000
0001
0000
0100
0001
0010
0000
,
0M01
0010
0000
0010
0000
0010
0100
0010
,
0100
1000
0001
0000
1000
0001
0010
0000
,
0M10
0001
0000
0100
0000
0001
1000
0010
,
1000
0010
0100
0000
0001
1000
0010
0000
,
0M10
1000
0000
1000
0000
0001
0010
0100
,
0010
0001
1000
0000
1000
0100
0010
0000
,
0M01
1000
0000
0001
0000
0100
0010
1000
,
0001
0010
0001
0000
0001
0100
0010
0000
,
1M00
0010
0000
1001
0000
0000
0010
0100
,
0010
0001
1000
0000
0110
0000
1001
0000
,
0010
1000
0000
1000
0010
1000
0001
0100
,
0010
1000
0100
1000
0100
1000
0010
0000
,
0M01
1000
0000
0001
0100
0010
0100
0001
,
1000
0001
0100
0010
0100
0001
0010
0000
,
0M10
0001
0000
1000
0001
1000
0100
1000
,
0010
0100
0010
0100
0010
1000
0010
0000
,
1M00
0010
0000
1000
0001
0100
0010
1000
,
0001
0100
0010
0100
0010
1000
0010
0000
,
1M00
0010
0000
0100
0010
0100
0001
1000
,
0010
0100
0001
0010
0100
1000
0010
0000
,
1M00
0001
0000
1000
0001
0010
0001
1000
,
0010
0100
0010
1000
0001
1000
0010
0000
,
0M10
0100
0000
0010
0000
1000
0001
1000
,
0100
0010
0100
1000
0001
0100
0010
0000
,
0M10
0000
0000
1M01
0000
0000
0M10
0000
,
2M00
0000
0000
0000
,
3001
0100
0001
0010
0100
0010
0001
1000
,
0001
1000
0100
0010
0001
1000
0100
0000
,
1000
0010
0100
0010
1000
0001
0100
0001
,
0010
0001
1000
0100
1000
0010
0100
0000
,
1000
0010
1000
0100
0010
0100
1000
0001
,
1000
0001
0010
0100
1000
0001
0100
0000
,
0001
0100
0010
0100
0001
1000
0010
1000
,
0100
1000
0001
0010
0001
1000
0100
0000
,
1000
0010
0100
0001
1000
0010
1000
0100
,
0010
0001
0100
0001
1000
0010
0100
0000
,
0001
0100
0010
1000
0001
0100
0010
1000
,
0010
0100
0001
1000
0100
0010
0100
0000
,
0001
0010
0001
1000
0010
1000
0001
0100
,
0010
1000
0100
1000
0001
0010
0100
0000
,
1000
0100
1000
0001
0100
0001
1000
0010
,
0100
0001
0010
0001
1000
0010
0100
0000
,
0001
0010
0100
0010
0001
0010
0100
0010
,
0001
1000
0010
1000
0001
1000
0100
0000
,
0001
1000
0010
1000
0010
1000
0100
0010
,
0100
0010
0001
1000
0001
1000
0100
0000
,
1000
0100
0010
0100
1000
0100
0010
0100
,
1000
0001
0100
0001
1000
0001
0100
0000
,
1000
0001
0100
0001
0100
0001
0010
0100
,
0010
0100
1000
0001
1000
0001
0100
0000
,
0010
0100
0010
1000
0001
0010
0100
0010
,
0001
1000
0100
0010
0100
1000
0100
0000
,
0010
0100
0010
0001
1000
0010
0100
0010
,
1000
0001
0100
0010
0100
0001
1000
0000
,
0200
0000
0000
0000
,
0000
0000
0000
0000
,
0000
0000
0000
0000
,
0000
0000
0000
0000
,
0310
0010
0000
0110
0000
0100
0010
0000
,
1000
0001
0000
0011
0000
0001
1000
0000
,
0001
0100
0000
0110
0000
0100
0010
0000
,
1000
0001
0000
0110
0000
0010
0001
0000
,
1000
0100
0000
1100
0000
1000
0010
0000
,
0100
0001
0000
0110
0000
0010
0100
0000
,
0100
0001
0000
0011
0000
0010
0100
0000
,
0100
1000
0000
1000
0100
0010
0001
0000
,
0010
0001
0000
0101
0000
1000
0001
0000
,
0100
0010
0000
0110
0000
0001
1000
0000
,
0001
1000
0000
1010
0000
0100
0001
0000
,
1000
0100
0000
1100
0000
0010
0001
0000
,
0010
0100
0000
0110
0000
0100
1000
0000
,
0001
0100
0000
0101
0000
0100
0001
0000
,
1000
0100
0000
1100
0000
1000
0010
0000
,
0100
0000
0010
0100
0010
0100
0010
0000
,
0001
1000
0100
0010
0000
0010
0001
0000
,
0001
0100
0010
1000
0000
1000
0100
0000
,
1000
0100
1000
0100
0000
1000
0010
0000
,
0010
0100
0010
0100
0000
0100
0001
0000
,
0001
0010
0001
0010
0000
0010
0001
0000
,
1000
0100
1000
0100
0000
1000
0100
0000
,
0010
0100
1000
0100
0000
1000
0001
0000
,
0001
0100
0010
0100
0000
0010
0100
0000
,
0001
1000
0001
0100
0000
0100
0010
0000
,
0010
1000
0010
0100
0000
0100
0001
0000
,
0001
0010
0001
1000
0000
1000
0100
0000
,
1000
0100
0010
0001
0000
1000
0001
0000
,
0100
0001
1000
0100
0000
0100
1000
0000
,
1000
0010
1000
0010
0000
0100
0001
0000
,
0001
0010
0100
0010
0000
0010
0001
0000
,
0001
1000
0000
1000
0000
1000
0010
0000
,
0200
0000
0000
0000
,
0000
0000
0000
0000
,
0000
0000
0000
0000
,
0000
0000
0000
0000
,
0000
0000
0000
0000
,
0000
0000
0000
0000
,
0000
0000
0000
0000
,
0000
0000
0300
0000
;
