#TITLE:Karera;
#SUBTITLE:;
#ARTIST:BINI;
#TITLETRANSLIT:;
#SUBTITLETRANSLIT:;
#ARTISTTRANSLIT:;
#GENRE:;
#CREDIT:Jenro Jupitel (2024);
#MUSIC:Karera.ogg;
#BANNER:Karera-bn.png;
#BACKGROUND:Karera-bg.png;
#CDTITLE:cdtitle.png;
#SAMPLESTART:39.862;
#SAMPLELENGTH:17.288;
#SELECTABLE:YES;
#OFFSET:-0.201;
#BPMS:0.000=118.000;
#STOPS:;
#BGCHANGES:-0.201=Karera.mp4=1.000=1=0=0=StretchNoLoop==CrossFade==,
99999.000=-nosongbg-=1.000=0=0=0=StretchNoLoop====
;
#FGCHANGES:;

//--------------- dance-single - Jenro Jupitel (2024) ----------------
#NOTES:
     dance-single:
     Jenro Jupitel (2024):
     Beginner:
     1:
     0,0,0,0,0:
0000
0000
0000
0000
,
0000
0000
0000
0000
,
0000
0000
0000
0000
,
0000
0000
0000
0000
,
1000
0000
0000
0000
,
1000
0000
0000
0000
,
0001
0000
0000
0000
,
0001
0000
0000
0000
,
0100
0000
0000
0000
,
0010
0000
0000
0000
,
0100
0000
0000
0000
,
0010
0000
0000
0000
,
0001
0000
0001
0000
,
0001
0000
0000
0000
,
1000
0000
1000
0000
,
1000
0000
0000
0000
,
0100
0000
0000
0000
,
0010
0000
0000
0000
,
0100
0000
0010
0000
,
0100
0000
0000
0000
,
1000
1000
1000
0000
,
0001
0000
0100
0000
,
0001
0001
0001
0000
,
1000
0000
0100
0000
,
0010
0010
0010
0000
,
0100
0000
0100
0000
,
0001
0001
0001
0000
,
1000
1000
1000
0000
,
0010
0100
0010
0000
,
0100
0010
0100
0000
,
1000
0000
1000
0000
,
0001
0000
0001
0000
,
0100
0010
0100
0000
,
0010
0100
0010
0000
,
1000
0000
1000
0000
,
0001
0000
0001
0000
;

//--------------- dance-single - Jenro Jupitel (2024) ----------------
#NOTES:
     dance-single:
     Jenro Jupitel (2024):
     Easy:
     4:
     0,0,0,0,0:
0000
0000
0000
0000
,
0000
0000
0000
0000
,
0000
0000
0000
0000
,
0000
0000
0000
0000
,
1000
0000
0001
0000
,
1000
0000
0100
0000
,
0010
0010
0001
0000
,
0100
0100
1000
0000
,
0001
0000
1000
0000
,
0001
0000
0100
0000
,
0010
0010
1000
0000
,
0100
0100
0001
0000
,
2000
3001
0020
0130
,
0002
0023
0230
2300
,
0001
0010
0200
3300
,
0001
0010
0200
1300
,
0002
1003
0020
0130
,
2000
3020
0230
0302
,
1000
0010
0200
0303
,
1000
0010
0200
0301
,
1000
0001
1000
0000
0001
1000
0001
0000
,
0100
0010
0100
0000
0010
0100
0010
0000
,
1000
0100
0001
0100
,
2000
3001
2000
3010
,
0101
0020
1030
0200
,
0310
0000
0002
0000
1003
0000
0100
1000
,
0100
0000
0002
0000
0013
0000
0010
0001
,
0010
0200
1300
0110
,
0020
0000
0130
0000
0010
0000
0001
1000
,
0100
1000
0010
0100
,
0002
1003
2000
3001
,
0100
0010
0100
0000
0001
1000
0001
0000
,
2000
0000
3100
0000
0001
0010
0100
2000
,
0000
3001
1001
0100
,
0010
0010
1000
0001
,
0100
0000
0100
0000
0010
1000
0002
0000
,
0000
0000
0000
0000
,
0000
0000
0000
0000
,
0003
0000
0000
0000
;

//--------------- dance-single - Jenro Jupitel (2024) ----------------
#NOTES:
     dance-single:
     Jenro Jupitel (2024):
     Medium:
     5:
     0,0,0,0,0:
0000
0000
0000
0000
,
0000
0000
0000
0000
,
0000
0000
0000
0000
,
0000
0000
0000
0000
,
0020
0031
2000
3010
,
0100
0000
0100
0000
0001
1000
0001
2000
,
0000
0000
3100
0000
1000
0001
1000
0002
,
0000
0103
0000
0010
,
1000
0001
0100
0001
,
1000
0010
1000
0100
,
0010
0001
0001
0010
,
0100
1000
0010
0001
,
1000
0100
0010
0000
0010
0001
0100
0000
,
0001
0100
0001
0000
1000
0100
1000
0000
,
0010
0210
0302
1003
,
0010
0100
0001
1000
,
1000
0100
0010
0000
0001
1000
0001
0000
,
0001
0100
0010
0000
1000
0001
1000
0000
,
0001
1000
1001
1000
,
0100
0000
0010
0000
0010
0001
0100
0010
,
1000
0000
0100
0000
0001
0000
0100
0010
,
1000
0000
0100
0010
0001
0000
1000
0001
,
0100
0000
0001
0000
0010
0000
0100
1000
,
0100
0000
0010
0001
0010
0000
1001
0000
,
0100
0000
0010
0000
1000
0000
0001
0010
,
0001
0000
1000
0010
1000
0000
0002
0000
,
1003
0000
0200
0000
0310
0000
0001
0010
,
0100
1000
0010
0100
0001
0000
1000
0000
,
0010
0100
0010
0100
0010
0000
1000
0000
,
0010
0100
0010
0100
0010
0000
0001
0000
,
2000
3100
0002
0103
,
0010
1000
0001
0100
,
0001
0010
0001
1000
0010
0000
0100
0100
,
0100
0000
1000
0001
1000
0000
0100
0010
,
0001
0000
1000
0010
0100
0000
0010
1000
,
0100
0000
0010
0001
0100
0000
2000
0000
,
0000
0000
0000
0000
,
0000
0000
0000
0000
,
3000
0000
0000
0000
;

//--------------- dance-single - Jenro Jupitel (2024) ----------------
#NOTES:
     dance-single:
     Jenro Jupitel (2024):
     Hard:
     10:
     0,0,0,0,0:
0000
0000
0000
0000
,
0000
0000
0000
0000
,
0000
0000
0000
0000
,
0000
0000
0000
0000
,
0001
1000
0001
1000
0002
0000
0013
0100
,
2000
0000
3010
0100
0002
0000
1003
0000
,
1100
0000
0001
0000
0010
0100
1000
0000
,
1100
0000
0001
0000
0100
0001
0100
0000
,
0020
1030
0200
0301
,
1000
0001
0100
0000
0001
0010
0100
2000
,
0000
0000
3001
0000
1000
0010
0100
0002
,
0000
1003
0010
0100
,
0010
1000
0010
1000
0100
1000
0100
1000
,
0001
0010
0001
0100
0010
0100
0001
0010
,
0100
0010
0001
0100
0010
0100
0001
0010
,
0001
0100
0010
0100
0010
1000
0100
1000
,
0000
0000
0010
0001
0100
0001
0100
0001
,
1000
0010
1000
0100
0010
0100
1000
0010
,
0100
0010
1000
0100
0010
0100
1000
0010
,
1000
0100
0010
0100
0010
0001
0100
0001
,
2000
0000
0000
0000
3100
0000
0000
0000
0002
0000
0000
0000
0103
0000
0000
2000
,
0000
3100
0000
0000
0001
0100
0001
0100
0000
0001
0000
0000
1000
0000
0001
0000
,
0010
0000
0000
0000
0200
0000
0000
0000
1300
0000
0000
0000
0010
1000
0010
1000
,
0000
0010
0000
0000
0100
0001
0100
0001
0000
0100
0000
0000
0010
0000
1000
0000
,
1001
0000
0000
0000
0100
0000
0000
0000
1001
0000
0000
0000
0010
0100
1000
0001
,
0000
1000
0000
0000
0010
0100
0001
1000
0000
0001
0000
0000
1000
0000
0100
0000
,
0001
0000
0000
0000
0100
0000
0000
0000
1000
0000
0000
0000
0001
0100
0001
0100
,
0000
0001
0000
0000
1000
0100
1000
0100
0000
1000
0000
0000
0010
0000
0100
0000
,
0110
0000
0000
0000
1100
0000
0000
0000
0101
0000
0000
0000
0001
0010
0100
0010
,
0000
0001
0100
0000
0010
0000
1000
0000
0010
0000
1000
0000
0010
0000
0001
0000
,
1000
0000
0001
0000
0100
0000
0010
0000
0001
0000
1000
0000
0100
0010
0001
1000
,
0000
0100
1000
0000
0100
0000
1000
0000
0001
0000
0100
0000
0001
0000
0000
0000
,
0110
0000
0000
0000
0101
0000
0000
0000
1100
0000
0000
0000
1000
0010
0100
0010
,
0000
1000
0100
0000
0010
0000
0001
0000
0010
0000
0001
0000
0010
0000
1000
0000
,
0001
0000
1000
0000
0100
0000
0010
0000
1000
0000
0001
0000
0100
0010
1000
0001
,
0000
0100
0001
0000
0100
0000
0001
0000
1000
0000
0100
0000
2000
0000
0000
0000
,
0000
0000
0000
0000
,
0000
0000
0000
0000
,
3000
0000
0000
0000
;

//--------------- dance-single - Beans ----------------
#NOTES:
     dance-single:
     Beans:
     Challenge:
     15:
     0,0,0,0,0:
0000
0000
0000
0000
,
0000
0000
0000
0000
,
0000
0000
0000
0000
,
0000
0000
0000
0000
,
2000
0000
0000
3000
0001
0000
0000
0001
0200
0000
0000
0300
0020
0000
0000
0030
,
2000
0000
0000
0000
3001
0000
0000
0001
1000
0000
1000
0000
0010
0000
0100
0000
,
0020
0000
0000
0000
0100
0000
0000
0030
1000
0000
0010
0000
0100
0000
0001
0000
,
0200
0000
0000
0000
1000
0000
0000
0000
0000
0000
0000
0000
0301
0000
0010
0001
,
2000
0000
0000
0000
3002
0000
0003
1000
0020
0000
0000
0030
0100
0000
0000
0100
,
0002
0000
0000
0000
1003
0000
0000
1000
0001
0000
0001
0000
0100
0000
0010
0000
,
0200
0000
0000
0000
0010
0300
0100
0000
0001
0000
0100
0000
0010
0000
1000
0000
,
0020
0001
0000
1030
,
2000
0000
0000
3000
0001
0000
1000
0100
0000
0000
0100
0000
1000
0000
0001
0010
,
0000
0200
0000
0000
0300
0000
0010
0000
0100
0000
1000
0000
0010
0000
0100
0000
,
0001
0101
1000
1100
,
0001
0011
1000
1010
,
0001
0000
0000
0000
1000
0000
0001
0010
0000
0000
0010
0000
0001
0000
1000
0100
,
0000
0020
0000
0000
0000
0030
0100
0000
0010
0000
0001
0000
0100
0000
0010
0000
,
1000
0100
1100
0000
0001
0100
0110
0000
,
1000
0000
0100
0000
0110
0000
0000
0000
0100
0001
0010
0100
1000
0010
0100
0000
,
0101
0000
0000
0000
0011
0000
0000
0000
1100
0000
0000
0000
1000
0100
1000
0010
,
0000
0010
0100
0000
0001
0000
0001
0000
0001
0000
0000
0000
0011
0000
0000
0000
,
1010
0000
0000
0000
1100
0000
0000
0000
0011
0000
0000
0000
0001
0010
0001
0100
,
0000
0100
0010
0000
1000
0000
1000
0000
1000
0000
0000
0000
1100
0000
0000
0000
,
0011
0000
0000
0000
0101
0000
0000
0000
1010
0000
0000
0000
1000
0010
1000
0100
,
0000
0100
0010
0000
0001
0000
0001
0000
0001
0000
0000
0000
0101
0000
0000
0000
,
1010
0000
0000
0000
1100
0000
0000
0000
0011
0000
0000
0000
0001
0010
0001
0100
,
0000
0100
0010
0000
1000
0000
1000
0000
1000
0000
0000
0000
1100
0000
0000
0000
,
0100
0010
0001
1000
0010
0100
0001
1000
0010
0100
0001
0010
0100
1000
0010
1000
,
0001
0010
0100
1000
0001
0100
0010
1000
0010
0100
0001
1000
0010
0100
0001
1000
,
0100
1000
0001
0100
0001
1000
0100
0010
0001
1000
0100
0010
0100
0010
0100
1000
,
0010
0100
0001
0100
0010
1000
0001
1000
0100
0010
0001
1000
0010
0100
0001
1000
,
0010
0100
0001
1000
0001
0010
0100
1000
0010
0100
0001
1000
0100
0010
0100
1000
,
0010
0100
0001
1000
0100
0010
0001
0100
0001
1000
0001
0100
0010
1000
0010
0100
,
0001
1000
0100
0010
0001
0100
0010
1000
0001
0100
0001
0010
0001
1000
0100
1000
,
0001
1000
0100
0010
0001
0100
0001
0010
0100
1000
0001
0010
0001
0000
0000
0000
;
