#TITLE:Jumbo Hotdog;
#SUBTITLE:;
#ARTIST:Masculados;
#TITLETRANSLIT:;
#SUBTITLETRANSLIT:;
#ARTISTTRANSLIT:;
#GENRE:;
#CREDIT:Jenro Jupitel (2024);
#MUSIC:Jumbo Hotdog.ogg;
#BANNER:Jumbo Hotdog-bn.png;
#BACKGROUND:Jumbo Hotdog-bg.png;
#CDTITLE:cdtitle.png;
#SAMPLESTART:24.575;
#SAMPLELENGTH:18.618;
#SELECTABLE:YES;
#OFFSET:-0.371;
#BPMS:0.000=128.905;
#STOPS:;
#BGCHANGES:-0.388=Jumbo Hotdog.mp4=1.000=1=0=0=StretchNoLoop==CrossFade==,
99999.000=-nosongbg-=1.000=0=0=0=StretchNoLoop====
;
#FGCHANGES:;

//--------------- dance-single - Jenro Jupitel (2024) ----------------
#NOTES:
     dance-single:
     Jenro Jupitel (2024):
     Beginner:
     3:
     0,0,0,0,0:
0000
0000
0000
0000
,
0000
0000
0000
0000
,
0000
0000
0000
0000
,
0000
0000
0000
0000
,
0001
0000
1000
0000
,
0010
0100
0010
0000
,
0001
0000
1000
0000
,
0100
0010
0100
0000
,
0001
0001
0001
0000
,
0001
1000
0001
0000
,
2000
0000
3000
0000
,
0001
0000
1000
0000
,
0000
0000
0000
0000
,
0001
0000
1000
0000
,
0001
0000
0001
0000
,
1000
0000
1000
0000
,
0010
0000
0010
0000
,
0001
0000
1000
0000
,
0001
1000
0001
0000
,
0100
0010
0110
0000
,
0100
0100
0100
0000
,
0001
0000
1000
0000
,
0020
0000
0030
0000
,
0000
0000
0001
0000
,
1000
0000
0010
0100
,
0010
0000
0001
0000
,
1000
0000
0100
0010
,
0100
0000
0001
0001
,
0001
0000
0001
1000
,
0001
0000
2000
0000
,
3000
0000
0001
0000
,
1000
0000
0000
0000
,
0000
0000
0001
0000
,
1000
0000
0001
0000
,
0001
0000
1000
0000
,
1000
0000
0010
0000
,
0010
0000
0001
0000
,
1000
0000
0001
1000
,
0001
0000
0100
0010
,
0110
0000
0100
0100
,
0100
0000
0001
0000
,
1000
0000
0010
0010
,
0010
0000
0000
0000
,
0000
0000
0000
0000
,
0001
0000
1000
0000
,
0010
0100
0010
0000
,
0001
0000
1000
0000
,
0100
0010
0100
0000
,
0001
0001
0001
0000
,
0001
1000
0001
0000
,
1000
1000
1000
0000
,
0001
0000
1000
0000
,
0000
0000
0000
0000
,
0000
0000
0000
0000
,
0001
0000
1000
0000
,
0001
0000
0001
0000
,
1000
0000
1000
0000
,
0010
0000
0010
0000
,
0001
0000
1000
0000
,
0001
1000
0001
0000
,
0100
0010
0110
0000
,
0100
0100
0100
0000
,
0001
0000
1000
0000
,
0010
0010
0010
0000
,
0001
0000
1000
0000
,
0010
0010
0010
0000
;

//--------------- dance-single - Jenro Jupitel (2024) ----------------
#NOTES:
     dance-single:
     Jenro Jupitel (2024):
     Easy:
     4:
     0,0,0,0,0:
0000
0000
0000
0000
,
0000
0000
0000
0000
,
0000
0000
0000
0000
,
0000
0000
0000
0000
,
0001
0001
1000
0000
,
0010
0100
0010
0000
,
0001
0001
1000
0000
,
0100
0010
0100
0000
,
0001
0001
0001
0000
,
0001
1000
0001
0000
,
1000
1000
1000
0000
,
0001
0001
1000
0000
,
0000
0000
0000
0000
,
0001
0000
1000
0000
,
0101
0000
0101
0000
,
1010
0000
1010
0000
,
0110
0000
0110
0000
,
0001
0000
1000
0000
,
0001
1000
1001
0000
,
0100
0010
0110
0000
,
0100
0100
0100
0000
,
0001
0001
1000
1000
,
0010
0010
0010
0000
,
0000
0000
0001
0001
,
1000
0001
0010
0100
,
0010
1000
0001
0001
,
1000
1000
0100
0010
,
0100
0001
0001
0001
,
0001
1000
0001
1000
,
0001
1000
1000
1000
,
1000
1000
0001
0001
,
2000
0000
3000
0000
,
0000
0000
0001
0000
,
1000
0000
0101
0000
,
0101
0000
1010
0000
,
1010
0000
0110
0000
,
0110
0000
0001
0000
,
1000
0000
0001
1000
,
1001
0000
0100
0010
,
0110
0000
0100
0100
,
0100
0000
0001
0001
,
1000
1000
0010
0010
,
0010
0000
0000
0000
,
0000
0000
0000
0000
,
0001
0001
1000
1001
,
0010
0100
0010
1001
,
0001
0001
1000
1000
,
0100
0010
0100
1001
,
0001
1000
1001
1000
,
0001
1000
1001
1000
,
1000
1000
1000
1001
,
0001
0001
2000
0000
,
3000
0000
0000
0000
,
0000
0000
0000
0000
,
0001
0000
1000
0000
,
0101
0000
0101
0000
,
1010
0000
1010
0000
,
0110
0000
0110
0000
,
1001
0000
1001
0000
,
0001
1000
1001
0000
,
0100
0010
0110
0100
,
0100
0100
0100
1001
,
0001
0001
1000
1000
,
0010
0010
0010
0000
,
0001
0001
1000
1000
,
0010
0010
0010
0000
;

//--------------- dance-single - Jenro Jupitel (2024) ----------------
#NOTES:
     dance-single:
     Jenro Jupitel (2024):
     Medium:
     7:
     0,0,0,0,0:
0000
0000
0000
0000
,
0000
0000
0000
0000
,
0000
0000
0000
0000
,
0000
0000
0000
0000
,
0001
0000
1000
0000
,
0010
0100
0010
0000
,
0001
0000
1000
0000
,
0100
0010
0100
0000
,
0001
0001
0001
0000
,
0001
1000
0001
0000
,
1000
1000
0100
0000
,
0001
0000
1000
0000
,
0100
0100
0010
0010
,
0001
0000
1000
0000
,
0001
0100
0101
0000
,
1000
0100
1100
0000
,
0010
0100
0110
0000
,
0001
0000
1000
0000
,
0001
1000
1001
0000
,
0100
0010
0110
0000
,
0100
0000
0100
0010
0100
0000
0000
0000
,
0001
0000
1000
0000
,
0010
0010
0100
0000
,
0000
0000
0000
0000
0001
0000
1000
0001
,
1000
0000
0000
0000
0010
0000
0100
0010
,
0100
0000
0000
0000
0001
0000
1000
0001
,
1000
0000
0000
0000
0100
0000
0010
0100
,
0010
0000
0000
0000
0001
0001
0001
0001
,
0001
0000
0000
0000
0001
1000
0001
1000
,
0001
0000
0000
0000
1000
0100
1000
0100
,
1000
0000
0000
0000
0001
1000
0001
0000
,
1100
0000
0100
0100
,
0010
0010
0011
0000
,
1010
0000
0001
0100
,
0101
0000
1000
0100
,
1100
0000
0010
0100
,
0110
0000
0000
0000
0001
1000
0001
1000
,
0001
0000
1001
0000
0001
1000
0001
0000
,
1001
0000
0100
0000
0100
0010
0100
0000
,
0110
0000
0010
0000
0100
0010
0100
0010
,
0100
1000
0001
0101
,
1000
0000
1100
0000
0010
0100
0010
0100
,
0100
0000
0000
0000
,
0100
0100
0010
0010
,
0001
0000
1000
0001
1000
0000
0001
0000
,
0010
0000
0100
0010
0100
0000
0100
0000
,
0001
0000
1000
0001
1000
0000
0001
0000
,
0100
0000
0010
0100
0010
0000
0010
0000
,
0001
0100
0001
0100
0001
0000
1001
0000
,
0001
1000
0001
1000
0001
0000
1100
0000
,
1000
0100
1000
0100
1000
0000
1001
0000
,
0001
1000
0001
0000
1100
0000
0000
0000
,
0000
0000
0000
0000
,
0000
0000
0000
0000
,
0010
0011
0001
1010
,
1000
0001
0100
0101
,
1000
1000
0100
1100
,
0001
0010
0100
0110
,
1001
0000
0001
1000
0001
1000
0001
0000
,
1001
0000
0001
1000
0001
0000
1001
0000
,
0100
0000
0100
0010
0100
0000
0110
0000
,
0010
0000
0100
0010
0100
0010
0100
0000
,
1001
0001
0101
1000
,
1100
0000
0010
0100
0010
0000
0000
0000
,
1001
0001
0101
1000
,
1100
0000
0010
0100
0010
0000
0000
0000
;

//--------------- dance-single - Jenro Jupitel (2024) ----------------
#NOTES:
     dance-single:
     Jenro Jupitel (2024):
     Hard:
     10:
     0,0,0,0,0:
0000
0000
0000
0000
,
0000
0000
0000
0000
,
0000
0000
0000
0000
,
0000
0000
0000
0000
,
0001
0001
1000
0001
1000
0000
0100
0000
,
0010
0100
0100
0010
0010
0000
0001
0000
,
0001
0100
1000
0100
,
0100
0010
0010
0100
0100
0000
1000
0000
,
0001
0011
0011
0100
,
0001
1000
1000
0001
0001
1000
1001
0000
,
2000
0100
3001
1001
,
0002
0100
1003
1001
,
0100
0010
0100
0010
,
0012
0013
2010
3010
,
0001
0100
0001
0100
0002
0000
0013
0000
,
1000
0100
1000
0100
2000
0000
3010
0000
,
0010
0100
0100
0100
0010
0000
1001
0000
,
0012
0013
2010
3010
,
0001
1000
1000
1000
0001
0000
1000
0100
,
0100
0010
0100
0010
0110
0000
0001
0000
,
0100
0100
0100
0010
0100
0000
1000
0000
,
0001
0100
0001
0000
1000
0100
1000
0000
,
0010
0100
0001
1000
0200
0000
0000
0000
,
0300
0000
0000
0000
0001
0001
1000
0001
,
1000
0001
0100
0000
0010
0100
0100
0010
,
0010
1000
0001
0000
0001
0001
0100
0010
,
1000
1000
0100
0000
0100
0010
0010
0100
,
0100
0010
1001
0000
0001
0000
0011
0000
,
0011
0001
0100
0000
0001
1000
1000
0001
,
0001
1000
1001
0000
2000
0000
0100
0000
,
3001
1001
0002
0100
,
1003
1001
0100
0010
,
0100
0010
0011
0010
,
1010
0000
0010
0000
0001
0100
0001
0100
,
0001
0000
0011
0000
1000
0100
1000
0100
,
1000
0000
1010
0000
0010
0100
0100
0100
,
0010
1001
0011
0010
,
1010
0000
0010
0000
0001
1000
1000
1000
,
0001
0000
1000
0100
0100
0010
0100
0010
,
0110
0010
0001
0000
0100
0100
0100
0010
,
0100
0010
1000
0000
0001
0100
0001
0000
,
1000
0100
1000
0000
0010
0100
0001
1000
,
0200
0000
0300
0000
,
0100
0010
0100
0010
,
0001
0000
1000
0001
1000
0001
0100
0010
,
1000
0100
0100
0010
0010
0001
1000
0000
,
0001
0001
0100
0010
1000
1000
1100
0000
,
0100
0010
0010
0100
0100
0010
0011
0000
,
0001
0100
0010
0100
0001
0001
0100
0000
,
0001
1000
1000
0001
0001
1000
1001
0000
,
1000
0100
0001
0100
1000
0000
1001
0000
,
0001
0100
1000
0100
0001
0001
1000
1000
,
0100
0000
0010
0000
,
0100
0010
0100
0010
,
0011
0001
0010
0000
1010
1000
0010
0000
,
0001
0100
0001
0100
0001
0010
0011
0000
,
1000
0100
1000
0100
1000
0010
1010
0000
,
0010
0100
0100
0100
0010
0010
1000
0001
,
0011
0010
1010
0010
,
0001
1000
1000
1000
0001
1000
1000
0100
,
0100
0010
0100
0010
0110
0010
0001
0000
,
0100
0100
0100
0010
0110
0010
1000
0000
,
0001
0100
0001
1000
1000
0100
1000
0001
,
0010
0100
0010
0100
0020
0030
0000
0000
,
0001
0100
0001
1000
1000
0100
1000
0001
,
0010
0100
0010
0100
0010
0000
0000
0000
;

//--------------- dance-single - Jenro Jupitel (2024) ----------------
#NOTES:
     dance-single:
     Jenro Jupitel (2024):
     Challenge:
     11:
     0,0,0,0,0:
0000
0000
0000
0000
,
0000
0000
0000
0000
,
0000
0000
0000
0000
,
0000
0000
0000
0000
0000
0000
0000
0000
0000
0000
0000
0000
0001
0000
0000
0001
,
0100
0000
0000
0000
1000
0000
0000
1000
0010
0000
0000
0000
0100
0000
0100
0000
,
0001
0000
0000
0010
0100
0000
0000
0100
1000
0000
0001
0000
0001
0000
0000
0010
,
0001
0000
0000
1000
0100
0000
0001
0000
1000
0000
1000
0000
0100
0000
0000
0010
,
0100
0100
1000
0001
0010
0001
1000
1000
,
0001
0000
0000
0100
0001
0000
0000
1000
0100
0000
0010
0000
0010
0000
0000
0100
,
1000
0000
0001
0000
0100
0000
0000
0100
0010
0000
0100
0000
0110
0000
1000
0000
,
0001
0000
1000
0000
0001
0000
0000
1000
0001
0000
0100
0000
0001
0000
0010
0000
,
0100
0000
0000
0100
1000
0000
0000
1000
0010
0000
0000
0000
0000
0000
0000
0000
,
0100
0100
0100
0100
,
0001
0010
0001
1000
0100
1000
0010
0000
,
0100
0001
0010
0100
1000
0001
0001
1000
,
0100
1000
0010
0100
0001
1000
1000
0001
,
0100
0010
0100
0010
1000
0001
0010
0010
,
0100
0010
0001
0010
0001
0010
0100
1000
,
0010
1000
0010
1000
0010
0100
0001
1000
,
0001
0001
1000
1000
0001
0010
0100
0010
,
0001
1000
0100
0010
0100
1000
0001
0000
,
0101
0000
1100
0000
0100
0010
0110
0000
,
0010
0001
0100
0010
1000
0000
0000
0000
,
0000
0000
0000
0000
0001
0000
0000
0001
0010
0000
0000
0000
1000
0000
0000
1000
,
0100
0000
0000
0000
0000
0000
0010
0000
0001
0000
0000
0100
0010
0000
0000
0010
,
1000
0001
0001
0000
0100
0001
1000
0010
,
1000
0000
1000
0000
0010
0000
0000
0100
0010
0000
0000
0010
1000
0000
0001
0000
,
0100
0000
0001
0000
1000
0000
1000
0000
0001
0000
0000
0010
0001
0000
0000
1000
,
0010
0000
0100
0000
0100
0000
0000
0010
1000
0000
0000
0001
0010
0000
0000
0010
,
0100
0000
0010
0000
0110
0000
0000
0000
0001
0000
0000
1000
0001
0000
0000
1000
,
0001
0000
0010
0000
0001
0000
0100
0000
0010
0000
0010
0000
1000
0000
0000
1000
,
0100
0000
0010
0010
,
0010
0000
0010
0000
0001
0100
0001
1000
,
0010
1000
0100
0000
0010
0001
0100
0010
,
1000
0001
0001
1000
0010
1000
0100
0010
,
0001
1000
1000
0001
0010
0100
0010
0100
,
1000
0001
0100
0100
0010
0100
0001
0100
,
0001
0100
0010
1000
0100
1000
0100
1000
,
0100
0010
0001
1000
0001
0001
1000
1000
,
0001
0100
0010
0100
0001
1000
0010
0100
,
0010
1000
0001
0000
0011
0000
1010
0000
,
0010
0100
0110
0000
0100
0001
0010
0100
,
1000
0000
0000
0000
,
0000
0000
0000
0000
0000
0000
0000
0000
0000
0000
0000
0000
0001
0000
0000
0001
,
0100
0000
0000
0000
1000
0000
0000
1000
0010
0000
0100
0000
0110
0000
0100
0000
,
0001
0000
0000
0010
0100
0000
0000
0100
1000
0000
0001
0000
0001
0000
0000
0010
,
0001
0000
0000
1000
0100
0000
0001
0000
1000
0000
1000
0000
1100
0000
0000
0010
,
0100
0100
1000
0001
0010
0001
1000
1000
,
0001
0000
0000
0100
0001
0000
0000
1000
0100
0000
0010
0000
0010
0000
0000
0100
,
1000
0000
0001
0000
0100
0000
0000
0100
0010
0000
0100
0000
0110
0000
1000
0000
,
0001
0000
1000
0000
0001
0000
0000
1000
0001
0000
0100
0000
0001
0000
0010
0000
,
0100
0000
0000
0100
1000
0000
0000
1000
0010
0000
0000
0000
0000
0000
0000
0000
,
0100
0000
0100
0000
,
0100
0100
0100
0100
,
0001
0010
0001
1000
0100
1000
0010
0000
,
0100
0001
0010
0100
1000
0001
0001
1000
,
0100
1000
0010
0100
0001
1000
1000
0001
,
0100
0010
0100
0010
1000
0001
0010
0010
,
0100
0010
0001
0010
0001
0010
0100
1000
,
0010
1000
0010
1000
0010
0100
0001
1000
,
0001
0001
1000
1000
0001
0010
0100
0010
,
0001
1000
0100
0010
0100
1000
0001
0000
,
0101
0000
1100
0000
0100
0010
0110
0000
,
0010
0001
0100
0010
1000
0000
0000
0000
,
0101
0000
1100
0000
0100
0010
0110
0000
,
0010
0001
0100
0010
1000
0000
0000
0000
;
