#TITLE:Heartbreaker;
#SUBTITLE:;
#ARTIST:Amber Rowley;
#TITLETRANSLIT:;
#SUBTITLETRANSLIT:;
#ARTISTTRANSLIT:;
#GENRE:;
#CREDIT:Jenro Jupitel (2024);
#MUSIC:Heartbreaker.ogg;
#BANNER:Heartbreaker-bn.png;
#BACKGROUND:Heartbreaker-bg.png;
#CDTITLE:cdtitle.png;
#SAMPLESTART:70.163;
#SAMPLELENGTH:14.015;
#SELECTABLE:YES;
#OFFSET:-0.090;
#BPMS:0.000=137.000;
#STOPS:;
#BGCHANGES:;
#FGCHANGES:;

//--------------- dance-single - Jenro Jupitel (2024) ----------------
#NOTES:
     dance-single:
     Jenro Jupitel (2024):
     Beginner:
     1:
     0,0,0,0,0:
0000
0000
0000
0000
,
0000
0000
0000
0000
,
0000
0000
0000
0000
,
0000
0000
0000
0000
,
0000
0000
0000
0000
,
0000
0000
0000
0000
,
0000
0000
0000
0000
,
0000
0000
0000
0000
,
0010
0000
0010
0000
,
0000
0000
0000
0000
,
0100
0000
0100
0000
,
0000
0000
0000
0000
,
0001
0000
1000
0000
,
0001
0000
1000
0000
,
0001
0000
1000
0000
,
0001
0000
1000
0000
,
0000
0000
0000
0000
,
0010
0000
0010
0000
,
0000
0000
0000
0000
,
0100
0000
0100
0000
,
0000
0000
0000
0000
,
0001
0000
0001
0000
,
0000
0000
0000
0000
,
1000
0000
1001
0000
,
0000
0000
0000
0000
,
0100
0000
0100
0000
,
0000
0000
0000
0000
,
0010
0000
0010
0000
,
0000
0000
0000
0000
,
1000
0000
1000
0000
,
0000
0000
0000
0000
,
0001
0000
1001
0000
,
0000
0000
0000
0000
,
0100
0000
0000
0000
,
0000
0000
0000
0000
,
1000
0000
0000
0000
,
0000
0000
0000
0000
,
0001
0000
0000
0000
,
0010
0000
0100
0000
,
0010
0000
0110
0000
,
0100
0000
0100
0000
,
0010
0000
0010
0000
,
0100
0000
0010
0000
,
1000
0000
0001
0000
,
1000
0000
1000
0000
,
0001
0000
0001
0000
,
0100
0000
0010
0000
,
0001
0000
1000
0000
,
0100
0000
0100
0000
,
0010
0000
0010
0000
,
1000
0000
0001
0000
,
1000
0000
0001
0000
,
1000
0000
0100
0000
,
0010
0000
0001
0000
,
1000
0000
1000
0000
,
0001
0000
0001
0000
,
0010
0000
0000
0000
,
0000
0000
0000
0000
,
0100
0000
0000
0000
,
0000
0000
0000
0000
,
0010
0000
0000
0000
,
0100
0000
0000
0000
,
0010
0000
0010
0000
,
0100
0000
0100
0000
,
1000
0000
0000
0000
,
0001
0000
0000
0000
,
1000
0000
0000
0000
,
0001
0000
0000
0000
,
1000
0000
0000
0000
;

//--------------- dance-single - Jenro Jupitel (2024) ----------------
#NOTES:
     dance-single:
     Jenro Jupitel (2024):
     Easy:
     5:
     0,0,0,0,0:
0000
0000
0000
0000
,
0000
0000
0000
0000
,
0000
0000
0000
0000
,
0000
0000
0000
0000
,
0000
0000
0000
0000
,
0000
0000
0000
0000
,
0000
0000
0000
0000
,
0000
0000
0000
0000
,
0010
0100
0001
0001
,
0100
0001
0001
0010
,
1000
1000
0100
0001
,
1000
0001
0001
0100
,
0020
2030
3002
0103
,
0200
0302
2003
3010
,
1000
0100
1000
0001
,
0100
0001
1000
0010
,
0010
0001
1000
0100
,
1000
0010
0100
0001
,
1000
0100
0001
0100
,
0001
0010
1000
0010
,
1000
0001
0100
0100
,
0010
1000
0100
0001
,
0010
0001
1000
0100
,
1000
0010
0100
0001
,
0010
1000
0001
0100
,
0001
0010
0100
1000
,
0001
0100
1000
0100
,
1000
0010
0001
0010
,
0001
1000
0100
0100
,
0010
0001
0100
1000
,
0010
1000
0001
0100
,
0001
0010
0100
1000
,
0020
0100
2030
0100
,
3002
0010
0203
0001
,
0302
1000
0203
0010
,
0320
1000
0032
0100
,
2003
0010
0010
3001
,
0002
0010
0010
1003
,
0002
1003
0002
0103
,
2000
3001
2000
3100
,
0010
0100
0001
0001
,
0100
0001
0001
0010
,
1000
1000
0100
0001
,
1000
0001
0001
0100
,
0020
2030
3002
0103
,
0200
0302
2003
3010
,
1000
0100
1000
0001
,
0100
0001
1000
0010
,
0010
0100
1000
1000
,
0100
1000
1000
0010
,
0001
0001
0100
1000
,
0001
1000
1000
0100
,
0020
0032
2003
3100
,
0200
2300
3002
0013
,
0001
0100
0001
1000
,
0100
1000
0001
0010
,
0001
0100
1000
0100
,
1000
0100
0001
0100
,
0010
0010
1000
0010
,
0010
0001
0010
0010
,
0100
0001
0010
1000
,
0100
1000
0010
0001
,
0100
0100
0010
0010
,
0110
1001
0110
1001
,
0010
0001
1000
0100
,
1000
0010
0100
0001
,
1000
0100
0001
0100
,
0001
0010
1000
0010
,
1000
0000
0000
0000
;

//--------------- dance-single - Jenro Jupitel (2024) ----------------
#NOTES:
     dance-single:
     Jenro Jupitel (2024):
     Medium:
     8:
     0,0,0,0,0:
0000
0000
0000
0000
,
0000
0000
0000
0000
,
0000
0000
0000
0000
,
0000
0000
0000
0000
,
0000
0000
0000
0000
,
0000
0000
0000
0000
,
0000
0000
0000
0000
,
0000
0000
0000
0000
,
0002
0013
0020
0031
,
0000
0010
1000
1010
,
0002
0000
0013
0000
2000
0000
3010
0100
,
0000
0001
0001
0001
0010
0100
0010
0100
,
2000
3020
0230
0302
,
0023
0230
2300
3002
,
0103
0100
0110
0010
,
1000
1000
1001
0002
,
1003
0100
0001
0100
,
0010
0000
0010
0000
0100
0000
0010
0100
,
0010
0001
0010
1000
,
0001
0001
0100
0001
,
0001
0010
1000
0010
,
1000
1000
0100
1000
,
1000
0001
0010
0000
0001
1000
0100
0000
,
0110
0101
1010
1001
,
0001
0010
1000
0010
,
0100
0000
0100
0000
0010
0000
0100
0010
,
0100
1000
0100
0001
,
1000
1000
0010
1000
,
1000
0100
0001
0100
,
0001
0001
0010
0001
,
0001
1000
0100
0000
1000
0001
0010
0000
,
0110
1010
0101
1001
,
0001
0100
0010
1000
,
0001
0100
0010
1000
,
2000
0100
0010
3001
,
2000
0100
3010
1001
,
0001
0100
0010
1000
,
0001
0100
0010
1000
,
1000
0100
0010
0001
,
1001
0110
0110
1001
,
0001
0000
0010
0001
0020
0000
0031
0100
,
0000
0010
0000
0010
1000
0010
1010
0000
,
0102
0000
0013
0000
2100
0000
3010
0100
,
0000
0001
1000
0001
0010
0100
0010
0100
,
2000
3020
0230
0302
,
0023
0230
2300
3002
,
0103
0100
0100
0000
0110
0010
0010
0000
,
1000
0001
1000
0000
1001
1000
0002
0000
,
1003
0000
0100
1000
0200
0000
1300
0010
,
0000
0100
0000
0100
0001
0100
0101
0000
,
2010
0000
3100
0000
0012
0000
0103
0010
,
0000
1000
0001
1000
0100
0010
0100
0010
,
0002
0203
0320
2030
,
3200
0320
0032
2003
,
3010
0010
0010
0000
0110
0100
0100
0000
,
0001
1000
0001
0000
1001
0001
2000
0000
,
3001
0001
1000
0100
,
0001
0001
1000
0010
,
0001
0100
0001
0010
,
0100
1000
0010
1000
,
0100
0100
0100
0010
,
0001
0001
0001
1000
,
0100
0100
0100
0010
,
0001
0100
1000
1001
,
1000
0100
0001
0100
,
0010
0000
0010
0000
0100
0000
0010
0100
,
0010
0001
0010
1000
,
0001
0001
0100
0001
,
0001
0000
0000
0000
;

//--------------- dance-single - Jenro Jupitel (2024) ----------------
#NOTES:
     dance-single:
     Jenro Jupitel (2024):
     Hard:
     11:
     0,0,0,0,0:
0000
0000
0000
0000
,
0000
0000
0000
0000
,
0000
0000
0000
0000
,
0000
0000
0000
0000
,
0000
0000
0000
0000
,
0000
0000
0000
0000
,
0000
0000
0000
0000
,
0000
0000
0000
0000
,
0021
1030
0021
1030
,
0000
0001
0100
0001
1000
0100
1000
0000
,
1020
0130
0102
0103
,
0000
0010
0010
0010
0010
0100
0001
1000
,
0200
0320
0230
2300
,
3002
0203
0320
0230
,
0302
2003
3200
0320
,
0032
0000
0000
0000
1003
0000
0000
0000
0002
0000
0000
0000
1003
0010
1000
0000
,
0100
0001
0100
0000
0010
0001
0100
0000
,
0001
0001
0010
0000
1000
1000
0001
0000
,
0001
0100
1000
0000
1000
0100
0001
0000
,
0100
0100
0010
0000
0010
0010
0100
0000
,
0001
1000
0100
0010
0010
0010
0001
0010
,
0100
1000
0100
1000
0010
0100
0001
0000
,
1001
0101
1001
1100
,
0110
0000
0000
0000
1001
0000
0000
0000
0110
0000
0000
0000
0001
1000
0001
0000
,
0100
0010
0001
0000
0100
0010
1000
0000
,
1000
0100
0001
0000
0001
0100
1000
0000
,
1000
0001
0001
0000
0100
0010
0010
0000
,
0010
0001
0001
0000
0010
1000
1000
0000
,
0100
0000
0010
0000
0010
0000
0000
0010
1000
0000
0000
1000
0100
0000
0000
0100
,
0010
0000
0000
0010
0001
0000
0000
0001
1000
0000
0000
0000
1001
0000
0000
0000
,
0001
0000
0100
0010
0100
0000
1000
0000
0100
0010
0100
0000
0001
0000
0100
0000
,
1000
0000
0100
0000
0010
0000
0001
0000
1000
0000
1001
0000
1000
0001
1000
0000
,
1000
0010
0100
0001
1000
0100
0100
0001
,
0001
0100
0010
1000
0001
0100
0100
1000
,
0010
1000
0010
1000
0001
0100
0001
0100
,
0001
0100
0001
0100
0010
1000
0100
0010
,
0011
0102
1003
2100
,
3001
0110
1001
0110
,
0010
0000
0000
0110
0000
0000
0100
0000
,
0001
0000
1000
0000
0001
0000
1000
0000
1001
0000
0000
0000
0001
1000
0001
0000
,
0021
1030
0021
1030
,
0000
0101
0100
0001
1000
0100
1100
0000
,
1020
0000
0130
0100
0102
0000
0103
0100
,
0000
0000
0010
0000
0010
0000
0010
0000
0010
0000
0100
0000
0001
1000
0001
0000
,
1000
0100
0010
0001
0000
0000
1001
0001
,
1000
0001
0100
0010
0010
0010
0110
1000
,
0001
1000
0010
1000
1000
0001
0010
0001
,
1001
0000
0000
0000
0110
0000
0000
0000
1001
0000
0000
0000
0010
0100
0010
0000
,
1020
0031
1020
0031
,
0000
1100
0100
1000
0001
0100
0101
0000
,
0021
0000
0130
0100
2100
0000
3100
0100
,
0000
0000
0010
0000
0010
0000
0010
0000
0010
0000
0100
0000
1000
0001
1000
0000
,
0001
0100
0010
1000
0000
0000
1001
1000
,
0001
1000
0100
0010
0010
0010
0110
0001
,
1000
0001
0010
0001
0001
1000
0010
1000
,
1001
0000
0000
0000
0110
0000
0000
0000
1001
0000
0000
0000
0010
0100
0010
0000
,
0001
0100
0001
0100
1000
0001
0100
0010
,
0100
0001
1000
0100
0010
0100
0001
1000
,
0100
0010
0100
0001
0100
0001
1000
0100
,
1000
0010
1000
0100
0010
0100
0100
0001
,
0010
0001
1000
0100
1000
0010
0100
0001
,
1000
0100
1000
0001
0100
0001
0010
0100
,
1000
0010
0110
0000
0100
0101
0000
1001
,
1010
0000
0000
0000
1001
0000
0000
0000
0110
0000
0000
0000
0001
1000
0001
0000
,
1000
0010
1000
0010
0001
1000
0010
0100
,
0010
1000
0001
0010
0100
0010
1000
0001
,
0010
0100
0010
1000
0010
1000
0001
0010
,
0001
0100
0001
0010
0100
0010
0010
1000
,
0100
0000
0000
0000
;
