#TITLE:HayPa;
#SUBTITLE:;
#ARTIST:MJ Magno, MM Magno;
#TITLETRANSLIT:;
#SUBTITLETRANSLIT:;
#ARTISTTRANSLIT:;
#GENRE:;
#CREDIT:Jenro Jupitel (2024);
#MUSIC:HayPa.ogg;
#BANNER:HayPa-bn.png;
#BACKGROUND:HayPa-bg.png;
#CDTITLE:cdtitle.png;
#SAMPLESTART:15.423;
#SAMPLELENGTH:13.125;
#SELECTABLE:YES;
#OFFSET:-0.423;
#BPMS:0.000=128.000;
#STOPS:;
#BGCHANGES:-0.423=HayPa.mp4=1.000=1=0=0=StretchNoLoop==CrossFade==,
99999.000=-nosongbg-=1.000=0=0=0=StretchNoLoop====
;
#FGCHANGES:;

//--------------- dance-single - Jenro Jupitel (2024) ----------------
#NOTES:
     dance-single:
     Jenro Jupitel (2024):
     Beginner:
     3:
     0,0,0,0,0:
0000
0000
0000
0000
,
0000
0000
0000
0000
,
0000
0000
0000
0000
,
0000
0000
0000
0000
,
0100
0000
0000
0000
,
0100
0000
0000
0000
,
0001
0100
0001
1000
,
0010
0000
1001
0000
,
0100
0000
1000
0100
,
1000
0001
0010
0001
,
1000
0100
1000
0001
,
0010
0001
0100
0000
,
0010
0000
0001
0010
,
0001
1000
0100
1000
,
0001
0010
0001
1000
,
0100
1000
0010
0000
,
0100
0000
0010
0000
,
1000
0000
0001
0000
,
0010
0000
0100
0000
,
0001
0000
1000
0000
,
0100
0000
1000
0000
,
0100
0000
0001
0000
,
0010
0000
0001
0000
,
0010
0000
1000
0000
,
0100
0100
0000
0000
,
0010
0010
0000
0000
,
0100
0010
0000
0000
,
0001
0000
1001
0000
,
0010
0010
0000
0000
,
0100
0100
0000
0000
,
0010
0100
0000
0000
,
1000
0000
1001
0000
,
0010
1000
1000
0001
,
0001
0100
0100
0000
,
0010
0001
0001
1000
,
1000
0100
0100
0000
,
0010
0000
0010
0000
,
0100
0000
0010
0000
,
1000
0001
1000
0001
,
0010
0010
0100
0000
,
0001
1000
0001
0000
,
0010
0000
1000
0001
,
0001
1000
0001
0000
,
0010
0000
1000
1001
,
1000
0001
1000
0000
,
0100
0000
0001
1000
,
1000
0001
1000
0000
,
0100
0000
0001
1001
,
0001
0100
0100
0001
,
1000
0010
0100
1000
,
1000
0010
0010
1000
,
0001
0100
0010
0001
,
1000
0001
1000
0100
,
0001
1000
0001
0100
,
0001
1000
0001
0010
,
1000
0001
1000
0010
,
0001
0000
0000
0000
;

//--------------- dance-single - Jenro Jupitel (2024) ----------------
#NOTES:
     dance-single:
     Jenro Jupitel (2024):
     Easy:
     5:
     0,0,0,0,0:
0000
0000
0000
0000
,
0000
0000
0000
0000
,
0000
0000
0000
0000
,
0000
0000
0000
0000
,
0010
1000
0001
0010
,
0001
1000
0100
0100
,
1000
1000
0001
0001
,
0010
0000
0000
0000
,
0001
1000
1000
0001
,
1000
0100
0100
0010
,
1000
0001
0001
1000
,
0010
0010
0100
0000
,
1000
0001
0001
1000
,
0001
0010
0010
0100
,
0001
1000
1000
0001
,
0100
0100
0010
0000
,
1000
0100
0100
0000
,
0001
0100
0100
0000
,
0001
0000
1001
0000
,
1000
0000
0010
0000
,
0001
0010
0010
0000
,
1000
0010
0010
0000
,
1000
0000
1001
0000
,
0001
0000
0100
0000
,
1000
1000
0002
0003
,
0100
0100
0020
0030
,
0001
0001
2000
3000
,
0010
1001
0100
0010
,
0001
0001
2000
3000
,
0010
0010
0200
0300
,
1000
1000
0002
0003
,
0100
1001
0010
0100
,
0001
1000
0010
0100
,
1000
0001
0100
0100
,
0001
0100
1000
0100
,
0001
1000
0010
0010
,
0001
1000
0100
1000
,
0001
0100
0001
1000
,
0001
1000
0001
0100
,
0010
0001
1000
0100
,
1000
0010
0001
0001
,
0001
0100
1000
1000
,
0001
0100
1000
1000
,
1000
0010
0001
0001
,
0010
1000
1000
0100
,
0010
0001
0001
0100
,
0100
0001
0001
0010
,
0100
1000
1000
0010
,
0100
0110
0001
1000
,
0001
0110
1000
0010
,
0010
0110
1000
0001
,
1000
0110
0001
0100
,
1000
0010
0001
1000
,
0001
0010
1000
0001
,
0001
0100
1000
0001
,
1000
0100
0001
1000
,
0002
0003
0000
0000
;

//--------------- dance-single - Jenro Jupitel (2024) ----------------
#NOTES:
     dance-single:
     Jenro Jupitel (2024):
     Medium:
     9:
     0,0,0,0,0:
0000
0000
0000
0000
,
0000
0000
0000
0000
,
0000
0000
0000
0000
,
0000
0000
0000
0000
,
0001
1000
1000
0001
0000
0000
0101
0000
,
1000
0001
0001
1000
0000
0000
1100
0000
,
0001
1000
0010
0000
1000
1000
0001
0000
,
0001
1000
0001
0000
2002
0000
3003
0000
,
0100
0001
0100
0000
1000
0010
1000
1000
,
0100
0000
1000
0010
1000
0000
0001
0010
,
0001
0000
1000
0100
1000
1000
0010
1000
,
0100
0000
0001
0100
0001
0000
1000
0100
,
1000
0000
0010
0100
0001
0000
1001
0000
,
0100
0000
0010
0100
1000
0000
1001
0000
,
1000
0010
1000
1000
0001
0000
0001
0000
,
0001
0010
0001
0001
1000
0000
1000
0000
,
0100
0010
1001
0100
,
0010
0000
0001
0000
1000
0000
0100
0010
,
0001
1000
0010
0001
,
1000
0001
1000
0000
0100
0000
0001
0000
,
0010
0100
1001
0010
,
0100
0000
1000
0000
0001
0000
0010
0100
,
1000
0001
0100
1000
,
0001
1000
0001
0000
0010
0000
1000
0000
,
0001
0001
0100
0100
1010
0000
1000
0000
,
1000
1000
0100
0100
0011
0000
0001
0000
,
1000
0001
1000
0001
0100
0100
0100
0000
,
0000
0110
1001
0000
0010
1000
0001
0000
,
1000
1000
0010
0010
0101
0000
0001
0000
,
0001
0001
0010
0010
1100
0000
1000
0000
,
0001
1000
0001
1000
0010
0010
0010
0000
,
0000
0100
0010
0100
0010
0100
0010
0000
,
0001
1000
0001
0000
0100
0001
0010
0000
,
0100
1000
0010
0000
0200
0000
0301
0000
,
0001
0010
0100
0000
0010
0001
1000
0000
,
1000
0010
0100
0000
0100
0001
1000
0100
,
1000
0001
0010
0001
1000
0010
0100
0000
,
0001
1000
0010
0100
0001
1000
0100
0000
,
0010
0001
0010
0000
1000
0100
1000
0000
,
0010
0100
0010
0000
,
1000
0001
0100
0000
0100
0010
0100
0010
,
0100
0001
0010
0000
0100
1000
0010
0000
,
0001
1000
0010
0000
0010
0100
0010
0100
,
0010
1000
0100
0000
0010
0001
0100
0000
,
0001
0100
0010
0000
1000
0100
1000
0001
,
0100
0001
1000
0000
1000
0010
1000
0000
,
1000
0010
0100
0000
0001
0010
0001
1000
,
0010
1000
0001
0000
0001
0100
0001
0000
,
1000
0100
0010
0000
0010
0001
0100
0010
,
0100
0001
1000
1000
1000
0000
0110
0000
,
0001
0010
0100
0000
0100
1000
0010
0100
,
0010
1000
0001
0001
0001
0000
0110
0000
,
1000
0001
1000
0010
0100
0001
0010
0100
,
1000
1000
0001
1000
0001
0000
0110
0000
,
0001
1000
0001
0100
0010
1000
0100
0010
,
0001
0001
1000
0001
1000
0000
0110
0000
,
0010
0000
0000
0000
;

//--------------- dance-single - Jenro Jupitel (2024) ----------------
#NOTES:
     dance-single:
     Jenro Jupitel (2024):
     Hard:
     11:
     0,0,0,0,0:
0000
0000
0000
0000
,
0000
0000
0000
0000
,
0000
0000
0000
0000
,
0000
0000
0000
0000
,
0001
0001
1000
1000
0010
0100
0001
2000
,
3001
0001
0010
0100
1000
1000
0001
1000
,
0001
0000
0101
0000
0020
1000
1030
0000
,
0100
0010
0001
0000
0022
0000
0033
0000
,
1100
0000
0101
0100
0010
1000
0001
1000
,
0200
0000
0310
0001
1000
0000
0002
1003
,
0200
0000
0310
0001
0100
0001
2000
3100
,
1000
0000
1010
1010
0001
0000
0010
0100
,
1001
0000
0010
0001
1000
0100
1000
0001
,
0010
0000
0100
1000
0100
0000
1010
0000
,
0010
1000
0001
0100
0001
1000
0010
0000
,
0100
0001
0100
0000
0011
0000
0000
0000
,
1000
0001
1000
0010
0100
0000
1001
0000
,
0001
1000
0001
0100
0010
0000
1001
0000
,
1000
1010
0001
0011
,
0100
0010
0100
0000
1001
0000
1000
0001
,
0100
0001
1000
0010
1000
0000
0001
1000
,
0100
1000
0001
0010
0001
0000
1000
0100
,
0010
0001
1000
0001
0100
0010
1000
0001
,
1000
0001
1000
0001
1000
0000
0110
0000
,
0010
0001
0010
0001
1000
0100
1000
0100
,
1000
0010
1000
0010
0100
0001
0100
0001
,
1000
0001
1000
0001
0100
0010
0100
0010
,
0000
0110
1001
0000
1000
0001
1000
0000
,
0100
1000
0100
1000
0001
0010
0001
0010
,
0001
0100
0001
0100
0010
1000
0010
1000
,
0001
1000
0001
1000
0010
0100
0010
0100
,
0000
0100
0100
0010
1000
0001
0010
0000
,
1100
0000
0001
0100
0001
1000
0100
1000
,
0010
0100
0010
0100
0010
1000
0001
0100
,
0001
1000
0010
1000
0100
0010
0001
1000
,
0100
1000
0001
0010
0001
1000
0001
0001
,
0001
1000
0100
0010
0000
0011
0100
1000
,
0100
0010
0001
0010
0100
1000
0001
0000
,
0100
0001
1000
0010
0100
0010
1000
0001
,
1000
0100
0010
0000
2002
0000
3003
0000
,
0100
0100
0010
0001
0100
0001
1000
0100
,
1000
0010
0010
1000
0001
0000
0010
0100
,
1001
0000
0010
0001
1000
0100
1000
0001
,
0010
0010
0100
1000
0100
1000
1010
0000
,
0010
1000
0001
0100
0001
1000
0010
0010
,
0100
0001
0100
0001
0010
0100
1100
0000
,
0100
0001
1000
0010
1000
0001
0100
0100
,
0010
1000
0010
1000
0100
0010
0011
0000
,
0001
1001
0001
1000
1000
0010
0100
0010
,
0110
0100
0010
0100
0001
0010
0100
1000
,
0001
0100
0001
1000
0100
1000
0010
0100
,
0001
0010
0100
1000
0001
0001
1000
1001
,
0100
0010
0001
1000
1000
0010
0100
0001
,
0001
1000
0001
0100
0010
1000
1010
1000
,
0100
0001
0101
0001
1000
0001
1000
0001
,
0010
0100
0010
0001
1000
0100
1000
0001
0010
0001
0100
0010
0100
0010
1000
0010
,
2000
0000
0000
3000
0000
0000
0000
0000
;

//--------------- dance-single - Jenro Jupitel (2024) ----------------
#NOTES:
     dance-single:
     Jenro Jupitel (2024):
     Challenge:
     15:
     0,0,0,0,0:
0000
0000
0000
0000
,
0000
0000
0000
0000
,
0000
0000
0000
0000
,
0000
0000
0000
0000
,
0010
0000
0010
0000
1000
0000
0010
0000
0010
0000
0100
0001
0100
0000
0001
0000
,
0010
0000
0000
0100
0000
0000
1000
0000
0000
0001
0000
0000
1000
0000
0001
0000
,
0010
1000
0001
0100
1000
0001
0001
1000
,
0100
0001
0001
0100
2000
0000
3000
0000
,
0101
0000
0000
0100
0001
0000
0010
0000
0100
0000
0000
1000
0100
0000
0001
0000
,
0100
1000
0100
0001
0100
0000
1000
0000
0001
0010
0001
1000
0100
0000
0010
0100
,
1000
0000
0000
0010
1000
0000
0100
0000
0010
0000
0000
0001
0010
0000
1000
0000
,
0010
0001
0010
1000
0010
0000
0001
0000
1000
0100
1000
0001
0010
0001
0100
0010
,
0100
0000
0000
0010
1000
0000
0100
0000
1000
0000
0001
0100
0001
0000
0010
0000
,
0100
0000
1000
0100
0010
0001
1000
0000
0001
0100
0000
0001
0100
0000
0010
1000
,
0010
0000
0000
0100
0001
0000
0010
0000
0001
0000
1000
0010
1000
0000
0100
0000
,
0010
0000
0000
0001
0000
0000
0010
0000
0000
0100
0000
0000
1000
0001
1000
0001
,
1000
0000
0100
0010
0000
0001
0000
1000
0001
0000
0100
0010
0100
0010
1000
0001
,
1000
0000
0010
0100
0000
0001
1000
0000
0001
0000
0000
0100
0001
0010
0100
1000
,
0001
0000
1000
0100
0000
1000
0010
0000
0100
0000
0001
0010
0000
0010
0100
0000
,
0100
1000
0001
1000
0100
0000
1000
0010
0000
0000
0000
0000
0001
1000
0001
1000
,
0001
0000
0010
0100
0000
1000
0001
0000
1000
0000
0000
0000
0010
0100
0010
1000
,
0001
0000
0100
0010
0000
1000
0001
0000
1000
0000
0000
0000
1000
0100
0010
0001
,
1000
0000
0001
0010
0000
0001
0100
0000
0010
0000
1000
0100
0000
0100
0010
0000
,
0010
0001
1000
0001
0010
0000
0001
0100
0000
0000
0000
0000
0110
0000
0010
0000
,
1000
0000
0100
0000
0010
0000
0001
0000
0010
0000
0100
0010
0000
0010
0100
0000
,
0001
0000
1000
0000
0100
0000
0010
0000
0001
0000
0001
1000
0000
1000
0001
0000
,
0100
0000
0010
0000
1000
0000
0001
0000
0100
0000
0100
0010
0000
0010
0100
0000
,
0000
1001
0101
0000
1000
1100
0001
0101
,
0001
0000
0010
0000
0100
0000
1000
0000
0100
0000
0010
0100
0000
0100
0010
0000
,
1000
0000
0001
0000
0010
0000
0100
0000
1000
0000
1000
0001
0000
0001
1000
0000
,
0010
0000
0100
0000
0001
0000
1000
0000
0010
0000
0010
0100
0000
0100
0010
0000
,
0000
1000
1000
0001
0001
0010
0010
0100
,
1000
0100
0000
0100
1000
0000
0010
0000
0100
0001
0000
0001
0100
0000
0010
0000
,
1000
0001
0000
1000
0001
0000
0001
1000
0000
0001
1000
0000
0020
0000
0130
0001
,
0010
0000
0100
1000
0000
1000
0100
0000
0010
0000
0001
0010
0000
0010
0001
0000
,
1000
0000
0100
0010
0000
0001
1000
0000
0100
0010
0100
0010
0001
1000
0001
1000
,
0100
0000
0010
0001
0000
0100
0001
0000
1000
0000
0010
1000
0000
0100
1000
0000
,
0001
0000
0010
0001
0000
1000
0100
0000
0010
1000
0000
0001
0100
0000
0010
0100
,
0010
0000
1000
0001
0000
0100
0001
1000
0100
0000
0010
0100
0000
1000
0001
1000
,
0001
0000
1001
0000
0001
1000
0001
0100
0010
0100
0001
1000
0100
0010
0100
0010
,
0001
0000
1000
0100
0010
0000
1000
0000
0001
0000
0001
0100
0010
0000
0001
0000
,
1000
0000
0001
0100
0001
0000
1000
0000
0001
1000
0100
0010
0001
0000
0010
0001
,
1000
0000
0001
0010
0100
0000
0001
0000
1000
0000
1000
0010
0100
0000
1000
0000
,
0001
0000
1000
0010
1000
0000
0001
0000
1000
0001
0010
0100
1000
0010
0100
0010
,
1000
0000
1000
0010
0100
0000
0010
0000
0100
0000
0001
0100
0010
0000
0001
0000
,
1000
0000
0100
1000
0010
1000
0100
0000
0010
0001
0000
1000
0100
0000
0010
0100
,
0010
0000
0000
0001
0100
0000
1000
0000
0001
0000
0001
1000
0001
0000
0100
0000
,
0010
0000
0010
0100
0001
1000
0001
0100
0010
0100
0001
1000
0004
0000
0000
0000
,
1003
0100
0010
0100
1000
0000
0100
0000
1000
0100
0010
0100
1000
0010
0100
0000
,
0001
0100
0001
0010
0001
0000
0100
0000
0001
0010
0001
0100
0001
0010
0001
0100
,
0001
0000
1000
0100
1000
0001
0100
0000
0100
0000
0001
0100
0001
1000
0100
0000
,
0100
0000
1000
0001
1000
0001
1000
0000
1000
0100
1000
0001
0100
0001
1000
0100
,
1000
0000
0010
0100
0001
0100
0010
0000
0001
0000
0100
0010
1000
0010
0100
0000
,
0001
0000
0001
1000
0100
0010
0001
0000
0001
0010
0100
1000
0100
1000
0010
0100
,
0001
0000
1000
0100
1000
0001
0010
0000
0100
0000
0001
0100
0001
1000
0010
0000
,
0001
1000
0001
0010
0100
1000
0010
0100
0001
0100
0010
1000
0100
0010
0001
0010
,
0200
0000
0000
0300
0000
0000
0000
0000
;
