#TITLE:Gossip Queen;
#SUBTITLE:;
#ARTIST:Amber Rowley;
#TITLETRANSLIT:;
#SUBTITLETRANSLIT:;
#ARTISTTRANSLIT:;
#GENRE:;
#CREDIT:Jenro Jupitel (2024);
#MUSIC:Gossip Queen.ogg;
#BANNER:Gossip Queen-bn.png;
#BACKGROUND:Gossip Queen-bg.png;
#CDTITLE:cdtitle.png;
#SAMPLESTART:43.905;
#SAMPLELENGTH:15.692;
#SELECTABLE:YES;
#OFFSET:-0.059;
#BPMS:0.000=130.000;
#STOPS:;
#BGCHANGES:;
#FGCHANGES:;

//--------------- dance-single - Jenro Jupitel (2024) ----------------
#NOTES:
     dance-single:
     Jenro Jupitel (2024):
     Beginner:
     1:
     0,0,0,0,0:
0000
0000
0000
0000
,
0000
0000
0000
0000
,
0000
0000
0000
0000
,
0000
0000
0000
0000
,
0100
0000
0000
0000
,
0000
0000
0000
0000
,
0100
0000
0000
0000
,
0000
0000
0000
0000
,
0001
0000
0000
0000
,
1000
0000
0000
0000
,
0001
0000
0000
0000
,
0010
0000
0000
0000
,
0010
0000
0000
0000
,
0001
0000
0000
0000
,
0100
0000
0000
0000
,
0100
0000
0000
0000
,
1000
0000
0000
0000
,
1000
0000
0000
0000
,
0010
0000
0000
0000
,
0001
0000
0000
0000
,
0001
0000
0000
0000
,
0100
0000
0000
0000
,
1000
0000
0000
0000
,
1000
0000
0000
0000
,
0100
0000
0000
0000
,
0001
0000
0010
0000
,
0100
0000
0000
0000
,
0001
0000
1000
0000
,
0010
0000
0000
0000
,
0001
0000
0100
0000
,
0100
0000
0000
0000
,
1000
0000
0010
0000
,
0001
0000
0000
0000
,
0100
0000
1001
0000
,
1000
0000
0000
0000
,
0100
0000
1001
0000
,
0001
0000
0000
0000
,
0100
0000
1000
0000
,
1000
0000
0000
0000
,
0100
0000
0001
0000
;

//--------------- dance-single - Jenro Jupitel (2024) ----------------
#NOTES:
     dance-single:
     Jenro Jupitel (2024):
     Easy:
     3:
     0,0,0,0,0:
0000
0000
0000
0000
,
0000
0000
0000
0000
,
0000
0000
0000
0000
,
0000
0000
0000
0000
,
0020
0000
0000
0000
,
0130
0000
0100
0000
,
0200
0000
0000
0000
,
0310
0010
0010
0010
,
0002
0000
1003
0000
,
0200
0000
0310
0000
,
0002
0000
0103
0000
,
2000
0000
3100
0000
,
0020
0000
0000
0030
,
0100
0100
0100
0000
,
0002
0000
0000
0000
,
0010
1000
0103
0000
,
2000
0000
0000
3000
,
0020
0000
0000
0030
,
0002
0000
2000
3003
,
0200
0000
0020
0330
,
0002
0003
0020
0030
,
0200
0300
2000
3000
,
0002
0000
0000
0003
,
0002
0000
0000
0003
,
0100
0100
0100
0000
,
2000
0000
0002
3003
,
0010
0010
0010
0000
,
0002
0000
2000
3003
,
0100
0100
0100
0000
,
2000
0000
0002
3003
,
0010
0010
0010
0000
,
0002
0000
2000
3003
,
0100
0100
0100
0100
,
0010
1000
0200
0300
,
0100
0100
0100
0100
,
0010
0001
0100
0000
,
0200
0000
0000
0000
,
0000
0000
0000
0300
,
0010
0000
0000
0000
,
0010
0000
0000
0000
,
0001
0000
0000
0000
,
1000
0000
0100
0000
;

//--------------- dance-single - Jenro Jupitel (2024) ----------------
#NOTES:
     dance-single:
     Jenro Jupitel (2024):
     Medium:
     5:
     0,0,0,0,0:
0000
0000
0000
0000
,
0000
0000
0000
0000
,
0000
0000
0000
0000
,
0000
0000
0000
0000
,
1000
0000
0010
0000
0001
0010
0100
0000
,
1000
1000
0010
0000
0001
0001
0010
0000
,
0100
0000
0100
0000
0001
1000
0100
0000
,
0101
0100
1100
0100
,
0010
0000
0001
0000
0100
0010
1000
0000
,
1000
0010
0100
0000
0100
0001
0010
0000
,
0010
0100
1000
0000
0001
0000
0100
0000
,
0001
1000
0001
1000
,
0010
0010
0010
0000
0100
0000
0001
0000
,
1000
1000
1000
0000
0100
0000
0010
0000
,
0010
0001
0100
0001
,
0010
1000
0010
0001
,
2001
0100
0010
0001
,
3002
1003
0002
0103
,
1002
0100
0010
1000
,
2003
3001
2000
3100
,
0020
0100
1000
0031
,
0200
0010
1000
0301
,
2000
3002
2003
3002
,
0203
0010
0310
0110
,
1000
0000
0010
0000
0001
0010
0100
0000
,
1000
1000
0010
0000
0001
0001
0010
0000
,
0100
0000
0100
0000
0001
1000
0100
0000
,
0101
0100
1100
1000
,
1000
0000
0010
0000
0010
0001
0100
0000
,
0100
0010
1000
0000
1000
0000
0010
0000
,
0100
0000
0100
0000
0001
0001
0100
0000
,
0001
1010
0010
0011
,
0010
0100
1000
0001
,
1000
1001
0001
0101
,
0100
0010
0001
1000
,
0001
1001
1000
1010
,
0100
0001
0200
0000
0010
0000
0310
0000
,
2000
3100
0002
0103
,
0010
0000
0000
0000
,
0010
0000
0100
0000
,
0100
0000
0000
0000
,
0100
0000
0010
0000
;

//--------------- dance-single - Jenro Jupitel (2024) ----------------
#NOTES:
     dance-single:
     Jenro Jupitel (2024):
     Hard:
     8:
     0,0,0,0,0:
0000
0000
0000
0000
,
0000
0000
0000
0000
,
0000
0000
0000
0000
,
0000
0000
0000
0000
,
0100
0000
0100
0000
1000
0100
0010
0000
,
0100
1000
0010
0000
0010
0000
0001
0000
,
0100
0000
0100
0000
0001
0100
0010
0000
,
0100
0001
0010
0000
0010
0000
1000
0000
,
0001
1000
1000
0001
,
0100
0010
0010
0100
,
0001
0010
0100
0000
0100
0000
1000
0000
,
1000
0010
0100
0000
0100
0000
0001
0000
,
1000
0000
0001
0000
1000
0001
1000
0000
,
0001
0000
1000
0000
0001
1000
0001
0000
,
0100
0100
0110
0100
,
0010
0000
0001
0000
1000
0000
0100
0100
,
0100
0010
0001
1000
,
0002
0000
0000
0013
0000
1100
1100
0000
,
1000
0010
0002
1003
,
0100
0000
0000
0101
0000
0010
0010
0000
,
0002
1000
0100
1003
,
2000
0001
0100
3001
,
0020
0130
0020
0130
,
1000
0001
1000
0001
1000
0000
0011
0000
,
0100
1000
0100
0000
1000
0100
0010
0000
,
0100
1000
0010
0000
0010
0100
0100
0000
,
0100
0001
0100
0000
0001
0100
0010
0000
,
0100
0001
0010
0000
0010
0001
1000
0000
,
0001
1000
0001
0000
1000
0001
1000
0000
,
0100
0000
0110
0000
1000
0100
0100
0000
,
0010
0001
1000
0001
,
0010
0001
1000
0001
0010
0000
0100
0000
,
1200
0320
0032
0203
,
0301
1000
1000
0000
0001
0010
0010
0000
,
0200
1300
0200
1300
0200
1300
0010
0000
,
0101
0011
1100
1010
,
0100
0001
1000
0010
0100
0001
1000
0100
,
0010
0001
1000
0100
,
0010
1000
0001
0100
0010
1000
0001
0010
,
0100
1000
0001
0010
,
0100
0000
0000
0000
,
0100
0000
0100
0000
;

//--------------- dance-single - Jenro Jupitel (2024) ----------------
#NOTES:
     dance-single:
     Jenro Jupitel (2024):
     Challenge:
     16:
     0,0,0,0,0:
0000
0000
0000
0000
,
0000
0000
0000
0000
,
0000
0000
0000
0000
,
0000
0000
0000
0000
,
0010
0001
1000
0001
0100
0001
0010
0100
1000
0000
0100
0000
0010
0000
0000
0000
,
0100
1000
0001
1000
0100
0000
0000
0000
0001
1000
0100
1000
0001
0000
0000
0000
,
0010
1000
0001
1000
0100
1000
0010
0100
0001
0000
0100
0000
0010
0000
0000
0000
,
0100
0000
0010
0100
0001
0000
0000
0000
0100
0000
0010
0100
1000
0000
0000
0000
,
1000
0010
0100
0001
0100
0001
0100
0010
1000
0100
0010
0001
0010
0001
0010
0100
,
1000
0001
0100
0001
0100
0001
1000
0000
0010
1000
0001
0000
0101
0000
1100
0000
,
0001
0100
0001
0100
0010
0100
0001
1000
0100
0010
0100
0010
0001
0010
0100
0010
,
0001
0000
0010
0001
0100
0000
1000
0001
1000
0001
1000
0001
0100
0000
0011
0000
,
1100
0000
1000
0010
0000
0100
0001
0000
1000
0100
0010
0001
1000
0100
1000
0000
,
0001
0100
0001
1000
0100
1000
0010
0100
0001
0010
0100
1000
0001
0100
0001
1000
,
0010
0000
0100
0010
0100
0000
0010
0000
0100
0001
1000
0100
0010
0000
0001
0000
,
0100
0001
1000
0100
0010
0000
0001
0000
1000
0100
1000
0001
1000
0000
1010
0000
,
0101
0000
0100
0001
0100
0001
0100
0001
0100
0010
1000
0010
0100
0001
0100
0010
,
1000
0100
0010
0001
0010
0100
0010
0001
1000
0010
0100
0001
1000
0000
0001
0001
,
1000
0000
0100
1000
0010
1000
0001
1000
0010
1000
0001
1000
0100
0000
0000
0000
,
1001
0000
0001
1000
0001
0000
0110
0000
0011
0000
1000
0100
1000
0000
0001
0001
,
0001
0010
0100
0010
0001
1000
0100
0010
0100
1000
0010
0100
0010
0100
0001
0000
,
1000
0001
1000
0001
1000
0010
1000
0010
1000
0000
0110
0000
0101
0000
0001
0010
,
0100
1000
0010
0100
0001
1000
0010
0100
0001
0010
0100
1000
0001
0000
0110
0000
,
0010
0100
0010
0100
0010
0100
0010
0001
0100
0010
1000
0000
0002
0000
0000
0000
,
0013
0001
1000
0001
0100
0001
0010
0100
1000
0010
0100
0001
0010
0100
1000
0100
,
0001
1000
0001
1000
0100
0000
1001
0000
0001
1000
0100
1000
0001
0000
1001
0000
,
0010
1000
0001
1000
0100
1000
0010
0100
0001
0010
0100
1000
0010
0000
1001
0000
,
0101
0000
0010
0100
0001
0000
1001
0000
1100
0000
0010
0100
1000
0000
0001
0000
,
0010
1000
0001
1000
0100
1000
0010
0100
0001
0010
0100
1000
0010
0100
0001
0100
,
1000
0001
1000
0001
0100
0000
1001
0000
1000
0001
0100
0001
1000
0000
1001
0000
,
0010
0001
1000
0001
0100
0001
0010
0100
1000
0010
0100
0001
0010
0000
1001
0000
,
1100
0000
0010
0100
1000
0000
1001
0000
0101
0000
0010
0100
0001
0000
1000
0000
,
0020
0230
0301
0000
0002
0023
0031
0000
0020
0230
0310
0000
0200
2300
3100
0000
,
0010
0100
0001
1000
0010
1000
0001
0100
0010
0100
0001
1000
0100
0010
0001
0100
,
0002
0023
0031
0000
2000
3200
1300
0000
0002
0203
0301
0000
2000
3020
1030
0000
,
0010
0100
0001
0100
1000
0000
0010
0000
1000
0100
0001
0100
1000
0000
0001
1000
,
0001
0100
0010
0100
0001
1000
0100
0010
0100
0010
0001
0010
0100
0010
0100
1000
,
0001
0100
0001
0100
0010
1000
0010
1000
0001
0100
0010
1000
0100
0010
0001
0010
,
0001
0010
0100
0010
0001
1000
0010
0100
0010
0100
0001
0100
0010
0100
0010
1000
,
0001
0010
0001
0010
0100
1000
0100
1000
0001
0010
0100
1000
0010
0100
0001
0100
,
1000
0000
0000
0100
0000
0000
0001
0000
0000
0000
0010
0000
0000
0000
0000
0000
,
0100
0000
0000
0100
0000
0000
1000
0000
0100
0000
0000
0001
0000
0000
0001
0000
;
