#TITLE:GENTO;
#SUBTITLE:;
#ARTIST:SB19;
#TITLETRANSLIT:;
#SUBTITLETRANSLIT:;
#ARTISTTRANSLIT:;
#GENRE:;
#CREDIT:Jenro Jupitel (2024);
#MUSIC:GENTO.ogg;
#BANNER:GENTO-bn.png;
#BACKGROUND:GENTO-bg.png;
#CDTITLE:cdtitle.png;
#SAMPLESTART:53.566;
#SAMPLELENGTH:10.105;
#SELECTABLE:YES;
#OFFSET:-0.671;
#BPMS:0.000=190.000
,232.000=95.000
,248.000=190.000
,249.000=95.000
,263.000=22.353
,263.063=380.000
,264.000=190.000
;
#STOPS:248.000=0.105
,248.333=0.105
,248.667=0.105
,263.000=0.168
,263.063=0.010
,263.125=0.010
,263.188=0.010
,263.250=0.010
,263.313=0.010
,263.375=0.010
,263.438=0.010
,263.500=0.010
,263.563=0.010
,263.625=0.010
,263.688=0.010
,263.750=0.010
,263.813=0.010
,263.875=0.010
,263.938=0.010
;
#DISPLAYBPM:95.000:190.000;
#BGCHANGES:-1.342=GENTO.mp4=1.000=1=0=0=StretchNoLoop==CrossFade==,
99999.000=-nosongbg-=1.000=0=0=0=StretchNoLoop====
;
#FGCHANGES:;

//--------------- dance-single - Jenro Jupitel (2024) ----------------
#NOTES:
     dance-single:
     Jenro Jupitel (2024):
     Beginner:
     2:
     0,0,0,0,0:
0000
0000
0000
0000
,
0000
0000
0000
0000
,
0000
0000
0000
0000
,
0000
0000
0000
0000
,
0000
0000
0000
0000
,
0000
0000
0000
0000
,
0000
0000
0000
0000
,
0000
0000
0000
0000
,
0100
0000
0000
0000
,
0100
0000
0000
0000
,
1000
0000
0000
0000
,
0100
0000
0000
0000
,
0100
0000
0000
0000
,
0100
0000
0000
0000
,
0001
0000
0000
0000
,
0100
0000
0000
0000
,
0100
0000
0000
0000
,
1000
0000
0000
0000
,
0001
0000
0000
0000
,
0010
0000
0000
0000
,
0100
0000
0000
0000
,
0100
0000
0000
0000
,
0001
0000
0000
0000
,
1000
0000
0000
0000
,
0010
0000
0010
0000
,
0010
0000
0000
0000
,
1000
0000
1000
0000
,
1000
0000
0000
0000
,
0001
0000
0001
0000
,
0001
0000
0000
0000
,
0100
0000
0100
0000
,
0100
0000
0000
0000
,
0010
0000
0000
0000
,
1000
0000
0000
0000
,
0001
0000
0000
0000
,
0100
0000
0000
0000
,
0010
0000
0000
0000
,
1000
0000
0000
0000
,
0001
0000
0000
0000
,
0100
0000
0000
0000
,
0000
0000
0000
0000
,
0000
0000
0000
0000
,
0010
0000
1000
0000
,
0001
0000
0100
0000
,
0010
0000
1000
0000
,
0001
0000
0100
0000
,
0010
0000
0010
0000
,
1000
0000
1000
0000
,
0001
0000
0001
0000
,
0100
0000
0100
0000
,
0010
0000
0001
0000
,
1000
0000
0100
0000
,
0010
0000
0001
0000
,
1000
0000
0100
0000
,
0010
0000
0010
0000
,
0001
0000
0001
0000
,
1000
0000
1000
0000
,
0100
0000
0000
0000
,
0100
0100
0100
1000
,
1000
1000
0001
0000
,
0001
0010
0010
0010
,
0100
0100
0100
1000
,
1000
0010
0010
0100
,
0100
0001
0001
0001
,
0001
0001
0010
0010
,
0010
0010
0000
0000
,
0100
0000
0000
0000
,
0100
0000
0000
0000
,
0100
0000
0000
0000
,
1000
0000
0000
0000
,
0100
0000
0000
0000
,
0100
0000
0000
0000
,
0001
0000
0000
0000
,
0100
0000
0000
0000
,
0100
0000
0000
0000
;

//--------------- dance-single - Jenro Jupitel (2024) ----------------
#NOTES:
     dance-single:
     Jenro Jupitel (2024):
     Easy:
     5:
     0,0,0,0,0:
0000
0000
0000
0000
,
0000
0000
0000
0000
,
0000
0000
0000
0000
,
0000
0000
0000
0000
,
0000
0000
0000
0000
,
0000
0000
0000
0000
,
0000
0000
0000
0000
,
0000
0000
0000
0000
,
0100
0100
0100
0000
,
1010
0100
0001
0000
,
1000
1000
1000
0000
,
0011
0100
1000
0000
,
0001
1000
0010
1000
,
0001
0001
0001
0001
,
0010
0000
0110
0000
,
0100
0100
0100
0000
,
1000
0010
0010
0001
,
0010
0010
1000
0000
,
1000
0010
0010
0001
,
0010
0010
1000
0000
,
0010
1000
0010
0010
,
0010
0000
1001
0000
,
0001
1000
1000
1000
,
0100
0000
0000
0000
,
0010
0001
0001
0000
,
1001
0000
0100
0000
,
0010
0000
0100
0000
,
1000
0000
0100
0000
,
0001
0000
0001
0000
,
1000
0000
1000
0000
,
0010
0000
0010
0000
,
0010
0000
0010
0000
,
0110
0000
0000
0000
,
0110
0000
0000
0000
,
0110
0000
0000
0000
,
0110
0000
0000
0000
,
1000
0000
1000
0000
,
1000
0000
1000
0000
,
0001
0000
0001
0000
,
0001
0000
0001
0000
,
0000
0000
0000
0000
,
0000
0100
0010
0000
,
0001
1000
0100
0010
,
1000
0010
0100
0001
,
0001
1000
0010
0100
,
1000
0100
0010
0001
,
0001
0100
0001
1000
,
0100
1000
1000
0000
,
0110
0000
0101
0000
,
0110
0000
1010
0000
,
0010
0001
1000
0100
,
0001
0000
1000
0000
,
0010
0001
1000
0100
,
0001
0000
1000
0000
,
0001
0100
1000
0100
,
0001
0000
1000
0000
,
0001
0010
0001
0010
,
0001
0001
0001
0001
,
0101
0011
0110
0110
,
1010
0110
1010
1001
,
0100
1000
1000
0100
,
0001
0010
1001
0110
,
0001
0101
1010
0110
,
0101
0110
1001
1100
,
0101
0110
1010
0110
,
1100
1100
0101
0001
,
0100
0000
0100
0000
,
0100
0000
0000
0000
,
0100
0000
0100
0000
,
0100
0000
0000
0000
,
1000
0000
1000
0000
,
0001
0000
0000
0000
,
0001
0000
0001
0000
,
0010
0000
0100
0000
;

//--------------- dance-single - Jenro Jupitel (2024) ----------------
#NOTES:
     dance-single:
     Jenro Jupitel (2024):
     Medium:
     10:
     0,0,0,0,0:
0000
0000
0000
0000
,
0000
0000
0000
0000
,
0000
0000
0000
0000
,
0000
0000
0000
0000
,
0000
0000
0000
0000
,
0000
0000
0000
0000
,
0000
0000
0000
0000
,
0000
0000
0000
0000
,
0100
1000
0100
0000
,
0001
0100
0001
0000
,
0010
1000
0010
0000
,
0001
0010
0001
0000
,
1000
0001
0001
0000
,
0001
0001
0010
0000
,
0100
0000
0110
0000
,
0001
0000
1010
0000
,
0010
1000
0010
0001
,
0010
0001
1000
0000
,
0001
1000
0010
0100
,
0100
0000
0110
0000
,
1000
0100
0001
1000
,
0100
0001
0010
0000
,
0011
0000
1100
0000
,
0100
0001
0010
0000
,
0001
0000
0010
0000
0001
0010
0001
0000
,
0010
0000
0100
0000
0010
0100
0010
0000
,
0100
0000
1000
0000
0100
1000
0100
0000
,
1000
0000
0010
0000
1000
0010
1000
0000
,
0010
0000
0100
0000
0010
0100
0010
0000
,
0100
0000
0001
0000
0100
0001
0100
0000
,
0001
0010
0100
1000
,
0010
0100
0001
0000
,
1001
0000
1000
0000
,
1001
0000
1000
0000
,
1001
0000
1000
0000
,
1001
0000
0001
0000
,
1000
0000
0001
0000
,
0100
0000
0010
0000
,
0100
0100
0100
0010
,
0100
0100
0010
0100
,
0000
0000
0000
0000
,
0000
0100
0010
0000
,
1000
1001
0001
0100
,
0001
0000
1000
0100
1000
0000
0010
0000
,
1000
1001
0001
0010
,
0001
0000
1000
0010
1000
0000
0100
0000
,
0001
1001
1000
0100
,
1000
0000
0001
0100
0001
0000
0010
0000
,
0001
1001
1000
0010
,
1000
0000
0001
0010
0001
0000
0100
0000
,
0010
0100
0010
0100
,
0001
0000
1000
0100
1000
0100
1000
0000
,
0010
0100
0010
0100
,
0001
0000
1000
0100
1000
0100
1000
0000
,
0011
0000
0011
0000
,
0011
0000
0011
0000
,
0100
1000
0100
1000
,
0001
1000
0001
1000
0001
0000
1000
0000
,
0001
0100
1000
0100
1001
0100
0001
0100
,
1000
0100
1001
0100
1001
0100
0001
0100
,
1000
1100
1001
0101
1001
0010
1001
0100
,
1001
0010
1001
0100
1001
0100
1001
0100
,
0010
0000
0010
0000
0010
0000
1000
0000
0000
0001
0000
0000
1000
0000
0000
0100
0000
0000
1000
0000
0000
0010
0000
0000
,
0001
0000
0010
0000
1000
0000
0001
0100
0101
0000
0110
0000
0010
0000
1100
0000
,
0100
1100
0101
0010
0101
1000
0101
1000
,
0101
0010
1010
0100
0101
0010
0100
0000
,
0000
0001
1000
0100
,
1000
0010
0100
0000
,
0000
1000
0100
0100
,
0001
0001
0100
0100
,
0000
0010
0010
0010
,
0100
0100
0001
0000
,
1000
0001
0001
0010
,
0100
0001
1000
1000
;

//--------------- dance-single - Jenro Jupitel (2024) ----------------
#NOTES:
     dance-single:
     Jenro Jupitel (2024):
     Hard:
     12:
     0,0,0,0,0:
0000
0000
0000
0000
,
0000
0000
0000
0000
,
0000
0000
0000
0000
,
0000
0000
0000
0000
,
0000
0000
0000
0000
,
0000
0000
0000
0000
,
0000
0000
0000
0000
,
0000
0000
0000
0000
,
0100
0000
0001
0000
0100
0000
0010
1000
,
0000
0001
0000
0000
0011
0000
0000
0000
,
0100
0000
1000
0000
0100
0000
0010
0001
,
0000
1000
0000
0000
1010
0000
0000
0000
,
1000
0000
0001
0000
1001
0000
1000
0100
,
0000
0010
0000
0000
0100
0000
0010
0000
,
0010
0001
0000
1000
0000
0001
0000
0100
,
0000
0001
0000
1000
0100
0000
0001
0000
,
0010
1000
0010
1000
0010
1000
0100
1000
,
0000
0001
0010
0000
0100
0000
0010
0001
,
0100
0001
1000
0010
0100
0001
0010
0001
,
0000
0010
0100
0000
1000
0000
1000
0001
,
0100
0001
1000
0001
0100
0001
0010
0001
,
0000
0100
0001
0000
0100
0000
0001
0010
,
0100
0010
0001
0010
0100
0010
0001
0010
,
0000
0000
0000
0000
1000
1000
1000
0000
,
0010
0000
0100
0000
0001
1000
0100
1000
,
0100
0000
0010
0000
0100
1000
0100
0000
,
0110
0000
0001
0010
0100
1000
0100
1000
,
0100
0000
1000
0000
0100
1000
0100
0000
,
0001
0000
1000
0001
0100
0001
1000
0100
,
1000
0010
0110
0100
,
0001
1000
0010
1000
0001
0010
0001
0010
,
0100
0010
0100
1000
0001
0000
0100
0000
,
0001
1000
1000
0001
,
1000
1000
0010
1000
,
0100
1000
1000
0100
,
1000
1000
1000
1000
,
0001
0010
0100
1000
,
0100
0000
1000
0000
0100
0000
1000
0010
,
1000
0100
1000
0010
1000
0100
0010
0001
,
0100
0010
1000
0000
0001
0000
1001
0000
,
0000
0000
0000
0000
,
0000
0100
0010
0000
,
0010
0100
0100
0001
,
1001
0000
0100
0001
0100
0001
0100
0001
,
0010
0100
1000
0010
,
0100
0000
0001
0100
0010
1000
0100
0010
,
0001
0010
0100
1000
,
0010
0000
0100
0001
1000
0001
0100
0000
,
0010
1000
0001
0100
0001
1000
0010
0100
,
0001
0010
0001
1000
0010
1000
0100
0010
,
0001
1000
0100
0001
,
0100
0000
1000
0001
1000
0010
1000
0001
,
1000
0100
0001
0100
,
1000
0000
0010
0100
0001
0100
0010
1000
,
0001
0100
1000
0100
,
0001
0000
1000
0010
1000
0010
1000
0000
,
0100
1000
0100
1000
0001
1000
0001
1000
,
0010
0100
0010
0100
0010
0000
0110
0000
,
0100
0100
0100
0001
0100
0001
0100
0000
0101
0000
0000
0000
0100
0001
0101
0000
,
0100
0001
0100
0000
0101
0000
0011
0000
0011
0000
0100
0000
1100
0000
0101
0000
,
1100
0010
1100
0010
0101
0100
1001
0010
,
0101
1000
0110
0001
1001
0100
0011
0001
,
1000
0000
0010
0000
0100
0000
0001
0000
0000
0100
0000
0000
0110
0000
0000
0001
0000
0000
1001
0000
0000
0100
0000
0000
,
1001
1000
0110
0010
1001
0100
0011
0001
,
1001
0010
1100
0100
1001
0010
1100
0001
,
0110
1000
0101
0100
1010
0001
0101
0000
,
0001
0000
0100
1000
0100
1000
0001
0000
,
1000
0000
0001
0010
0001
0000
0000
0000
,
0010
0000
0100
1000
0100
1000
0001
0000
,
0001
0000
0000
0010
0001
0010
0100
0000
0000
0010
0000
0000
,
0010
0000
0001
0100
0001
0100
0010
0000
,
1000
0000
0000
0100
1000
0100
0010
0000
0000
0001
0000
0000
,
1000
0000
0100
0010
0001
0010
0100
0000
,
1001
0100
1001
0010
;
