#TITLE:Free;
#SUBTITLE:;
#ARTIST:Kidwolf, BV;
#TITLETRANSLIT:;
#SUBTITLETRANSLIT:;
#ARTISTTRANSLIT:;
#GENRE:;
#CREDIT:Jenro Jupitel (2024);
#MUSIC:Free.ogg;
#BANNER:Free-bn.png;
#BACKGROUND:Free-bg.png;
#CDTITLE:cdtitle.png;
#SAMPLESTART:75.194;
#SAMPLELENGTH:15.000;
#SELECTABLE:YES;
#OFFSET:-0.194;
#BPMS:0.000=128.000;
#STOPS:;
#BGCHANGES:-0.388=Free.mp4=1.000=1=0=0=StretchNoLoop==CrossFade==,
99999.000=-nosongbg-=1.000=0=0=0=StretchNoLoop====
;
#FGCHANGES:;

//--------------- dance-single - Jenro Jupitel (2024) ----------------
#NOTES:
     dance-single:
     Jenro Jupitel (2024):
     Beginner:
     3:
     0,0,0,0,0:
0000
0000
0000
0000
,
0000
0000
0000
0000
,
0000
0000
0000
0000
,
0000
0000
0000
0000
,
0000
0000
0000
0000
,
0000
0000
0000
0000
,
0000
0000
0000
0000
,
0000
0000
0000
0000
,
0010
0000
0100
0000
,
0001
0000
0100
0000
,
1000
0000
0001
0000
,
0010
0000
0100
0000
,
0001
0000
1000
0000
,
0001
0000
1000
0000
,
0100
0000
0001
0000
,
0100
0000
1000
0000
,
0010
0010
0100
0000
,
0001
0000
0100
0000
,
1000
0000
0001
0000
,
0010
0000
0100
0000
,
0010
0010
0100
0000
,
1000
0000
0100
0000
,
0001
0000
1000
0000
,
0010
0000
0100
0000
,
0001
0000
0000
0000
,
1000
0000
0000
0000
,
0010
0000
0100
0000
,
0010
0000
0000
0000
,
0100
0000
0000
0000
,
0010
0000
0000
0000
,
0100
0000
0000
0000
,
1000
0000
0001
0000
,
1000
1000
1000
0000
,
0001
0000
0010
0000
,
0001
0001
0001
0000
,
1000
0000
0100
0000
,
0010
0010
0010
0000
,
0100
0000
1000
0000
,
0100
0100
0100
0000
,
0010
0000
0001
0000
,
1000
1000
0001
0000
,
0001
0001
0010
0000
,
1000
1000
0001
0000
,
1000
1000
0100
0000
,
0001
0001
1000
0000
,
1000
1000
0010
0000
,
0001
0001
1000
0000
,
0001
0001
0100
0000
,
0010
0010
0010
0000
,
0100
0010
1000
0001
,
0100
0100
0100
0000
,
0010
0100
0001
1000
,
0001
0001
0001
0000
,
1000
0001
0100
0010
,
1000
1000
1000
0000
,
0001
1000
0010
0100
,
0001
0000
0000
0000
;

//--------------- dance-single - Jenro Jupitel (2024) ----------------
#NOTES:
     dance-single:
     Jenro Jupitel (2024):
     Easy:
     4:
     0,0,0,0,0:
0000
0000
0000
0000
,
0000
0000
0000
0000
,
0000
0000
0000
0000
,
0000
0000
0000
0000
,
0000
0000
0000
0000
,
0000
0000
0000
0000
,
0000
0000
0000
0000
,
0000
0000
0000
0000
,
0100
0000
0010
0000
,
0100
0001
1000
0000
,
0100
0000
0010
0000
,
0100
1000
0001
0000
,
1000
0001
0001
0010
,
0000
0001
0010
0001
,
0000
1000
0010
1000
,
0000
0000
0110
0000
,
0010
0001
1000
0100
,
0010
1000
0100
0000
,
0001
0000
0101
0000
,
0010
0000
1010
0000
,
0010
1000
0001
0100
,
0010
0001
0100
0000
,
1100
0000
0000
0000
,
0011
0000
0000
0000
,
0100
0010
0100
0001
,
1000
0000
0100
0000
,
0100
0010
0100
1000
,
0001
0000
0100
0000
,
1000
0000
0000
0010
,
0001
0010
0001
0000
,
0001
0000
0000
0010
,
1000
0010
1000
0000
,
0100
0010
0100
0000
,
1000
0100
0001
0000
,
0100
0010
0100
0000
,
0001
0100
1000
0000
,
0010
0001
1000
0010
,
0100
0001
0100
0000
,
0010
0000
1000
0001
,
1000
0000
0110
0000
,
0100
0010
0100
0001
,
1000
0100
0001
1000
,
0100
0010
0100
1000
,
0001
0100
1000
0001
,
0010
0001
1000
0010
,
0100
0001
0100
0100
,
0010
0010
1000
0001
,
1000
0001
0010
0100
,
0100
0010
0100
0001
,
1000
0100
0001
1000
,
0100
0010
0100
1000
,
0001
0100
1000
0001
,
0010
0001
1000
0010
,
0100
0001
0100
0100
,
0010
0010
1000
0001
,
1000
0001
0010
0100
;

//--------------- dance-single - Jenro Jupitel (2024) ----------------
#NOTES:
     dance-single:
     Jenro Jupitel (2024):
     Medium:
     5:
     0,0,0,0,0:
0000
0000
0000
0000
,
0000
0000
0000
0000
,
0000
0000
0000
0000
,
0000
0000
0000
0000
,
0000
0000
0000
0000
,
0000
0000
0000
0000
,
0000
0000
0000
0000
,
0000
0000
0000
0000
,
0100
1000
1000
0001
,
0100
0010
0001
0100
,
0010
1000
0100
0001
,
1000
1000
0001
0100
,
0010
1000
1000
0001
,
0010
0100
0001
0010
,
0100
1000
0010
0001
,
1000
1000
0001
0010
,
0001
0000
0010
0000
0001
0000
0100
0010
,
0100
1000
0100
0010
,
0001
0000
0000
0001
0010
0001
0000
1000
,
0000
0001
0000
1000
0010
0000
1000
0000
,
1000
0000
0100
0000
1000
0000
0010
0100
,
0010
0001
0010
0100
,
1000
0000
0000
0000
0000
0100
1000
0001
,
0000
1000
0000
0001
0000
0100
0000
0000
,
0010
0000
0000
1000
0000
0100
0000
0000
,
0001
1000
0010
0000
,
0010
0000
0100
0000
,
1000
0000
1001
0000
,
0100
0000
0000
0001
0000
0010
0000
0000
,
1000
0001
0100
0000
,
0100
0000
0010
0000
,
0001
0000
1001
0000
,
0100
1000
1000
0001
,
0100
0000
0010
0000
0001
1000
0100
0000
,
0010
1000
0100
0001
,
1000
0000
0001
1000
0001
0000
0100
0000
,
0010
1000
1000
0001
,
0010
0000
0100
0000
0001
1000
0010
0000
,
0100
1000
0010
0001
,
1000
0001
1000
0000
0001
0000
0010
0000
,
0100
1000
1000
0000
1000
0001
0001
0000
,
0100
0000
0010
0000
0001
1000
0100
0000
,
0010
1001
0100
0001
,
1000
0000
0001
0000
0001
1000
0100
0010
,
0010
0001
0001
0000
0001
1000
1000
0000
,
0010
0000
0100
0000
1000
0001
0010
0000
,
0100
1001
0010
1000
,
0001
0000
1000
0000
1000
0001
0010
0100
,
0100
0000
1000
0001
1000
0000
0001
0000
,
0100
0000
0010
1000
0001
1000
0100
0000
,
0010
0000
1000
0001
0100
0000
0001
0000
,
1000
0000
0001
1000
0001
0000
0100
0000
,
0010
0000
0001
1000
0001
0000
1000
0001
,
0010
0000
0100
0001
1000
0001
0010
0000
,
0100
0000
0001
1000
0010
0000
1000
0001
,
0001
0000
1000
0001
1000
0000
0010
0000
,
0001
0000
0000
0000
;

//--------------- dance-single - Jenro Jupitel (2024) ----------------
#NOTES:
     dance-single:
     Jenro Jupitel (2024):
     Hard:
     10:
     0,0,0,0,0:
0000
0000
0000
0000
,
0000
0000
0000
0000
,
0000
0000
0000
0000
,
0000
0000
0000
0000
,
0000
0000
0000
0000
,
0000
0000
0000
0000
,
0000
0000
0000
0000
,
0000
0000
0000
0000
,
0010
0100
0100
0001
0010
0100
0001
0000
,
1000
0001
1000
0001
1000
0010
0100
0000
,
0100
0100
0001
0010
0100
1000
1000
0001
,
1000
0010
0100
0001
1000
0001
0001
0000
,
0100
0010
0010
1000
0100
0010
1000
0000
,
0001
1000
0001
1000
0001
0100
0010
0000
,
0010
0010
1000
0100
0010
0001
0001
1000
,
0001
0100
0010
1000
0001
1000
1000
0000
,
0001
0100
0001
0100
0001
0010
0001
0100
,
0010
0010
0100
0100
0100
0001
1000
0100
,
1000
0001
0001
1000
0100
1000
0010
1000
,
0010
1000
0010
1000
0010
0100
0100
0000
,
1000
0010
1000
0010
1000
0100
1000
0010
,
0100
0100
0010
0010
0010
1000
0001
0010
,
0001
1000
1000
0001
0010
0001
0100
0001
,
0100
0001
0100
0001
0100
0010
0010
0000
,
0100
0100
0100
0200
0000
0310
0010
0100
,
0010
0100
0010
0100
0100
0010
0110
0000
,
1000
0100
1000
1000
1000
0100
1000
0100
,
1000
0100
0010
0001
1000
0100
1000
0100
,
0010
0010
0010
0020
0000
0130
0100
0010
,
0100
0010
0100
0010
0010
0100
0100
0000
,
0001
0010
0001
0001
0001
0010
0001
0010
,
0001
0010
0100
1000
0001
0100
0001
1000
,
0010
0100
0010
0100
0010
0100
0001
1000
,
0010
0100
0010
0100
0010
1000
0001
0100
,
0001
1000
0010
1000
0010
1000
0001
1000
,
0010
1000
0001
0010
0001
0000
1010
0000
,
0100
0010
0100
0010
0100
0010
1000
0001
,
0100
0010
0100
0010
0100
0001
1000
0010
,
1000
0001
0100
0001
0100
0001
1000
0001
,
0100
0001
1000
0100
1000
0000
0101
0000
,
0010
0100
0100
1000
0010
0100
0001
1000
,
1000
0001
1000
0001
1000
0010
0100
0010
,
0100
0100
0001
0010
0100
1000
1000
0001
,
1000
0010
0100
0001
1000
0001
0001
1000
,
0100
0010
0010
0001
0100
0010
1000
0001
,
0001
1000
0001
1000
0001
0100
0010
0100
,
0010
0010
1000
0100
0010
0001
0001
1000
,
0001
0100
0010
1000
0001
1000
1001
0000
,
0010
0100
0010
0100
0010
0100
0001
1000
,
0010
0100
0010
0100
0010
1000
0001
0100
,
0001
1000
0010
1000
0010
1000
0001
1000
,
0010
1000
0001
0010
0001
0000
1010
0000
,
0100
0010
1000
0001
0100
0010
1000
0001
,
0100
0010
0100
0001
1000
0100
0010
0100
,
1000
0001
0100
0001
0010
0001
1000
0001
,
0100
0001
1000
0100
1100
0000
0011
0000
;
