#TITLE:Follow Me;
#SUBTITLE:;
#ARTIST:Ryan Bang;
#TITLETRANSLIT:;
#SUBTITLETRANSLIT:;
#ARTISTTRANSLIT:;
#GENRE:;
#CREDIT:Jenro Jupitel (2024);
#MUSIC:Follow Me.ogg;
#BANNER:Follow Me-bn.png;
#BACKGROUND:Follow Me-bg.png;
#CDTITLE:cdtitle.png;
#SAMPLESTART:58.637;
#SAMPLELENGTH:14.545;
#SELECTABLE:YES;
#OFFSET:-0.455;
#BPMS:0.000=132.000
,120.000=264.000
,124.000=66.000
,126.000=132.000
;
#STOPS:120.000=0.057
,120.250=0.057
,120.500=0.057
,120.750=0.057
,121.000=0.057
,121.250=0.057
,121.500=0.057
,121.750=0.057
,122.000=0.057
,122.250=0.057
,122.500=0.057
,122.750=0.057
,123.000=0.057
,123.250=0.057
,123.500=0.057
,123.750=0.057
;
#DISPLAYBPM:132.000;
#BGCHANGES:-0.455=Follow Me.mp4=1.000=1=0=0=StretchNoLoop==CrossFade==,
99999.000=-nosongbg-=1.000=0=0=0=StretchNoLoop====
;
#FGCHANGES:;

//--------------- dance-single - Jenro Jupitel (2024) ----------------
#NOTES:
     dance-single:
     Jenro Jupitel (2024):
     Beginner:
     2:
     0,0,0,0,0:
0000
0000
0000
0000
,
0000
0000
0000
0000
,
0000
0000
0000
0000
,
0000
0000
0000
0000
,
0100
0000
0000
0000
,
1000
0000
0000
0000
,
0001
0000
0000
0000
,
0010
0000
0000
0000
,
0100
0000
1000
0000
,
0001
0000
0010
0000
,
0100
0000
0001
0000
,
1000
0000
0010
0000
,
0100
0000
0100
0000
,
0001
0000
1000
0000
,
0100
0000
0100
0000
,
1000
0000
0001
0000
,
0000
0100
0000
0100
,
0000
0100
0000
0001
,
0000
1000
0000
0010
,
0000
0010
0000
0000
,
0100
0000
1000
0000
,
0001
0000
0010
0000
,
0100
0000
0001
0000
,
1000
0000
0010
0000
,
0100
0000
0100
0000
,
0001
0000
1000
0000
,
0100
0000
0100
0000
,
1000
0000
0001
0000
,
0100
0000
0100
0000
,
0100
0100
0100
0100
,
0100
0000
0000
0000
,
0000
0000
0100
0000
,
1000
0000
0001
0000
,
0010
0000
0100
0000
,
0001
0000
1000
0000
,
0010
0000
0100
0000
,
0100
0000
0001
0000
,
1000
0000
0100
0000
,
0100
0000
1000
0000
,
0001
0000
0100
0000
,
1000
0000
0001
0000
,
0010
0000
0100
0000
,
0001
0000
1000
0000
,
0010
0000
0100
0000
,
0100
0000
0001
0000
,
1000
0000
0100
0000
,
0100
0000
1000
0000
,
0001
0000
0000
0000
;

//--------------- dance-single - Jenro Jupitel (2024) ----------------
#NOTES:
     dance-single:
     Jenro Jupitel (2024):
     Easy:
     4:
     0,0,0,0,0:
0000
0000
0000
0000
,
0000
0000
0000
0000
,
0000
0000
0000
0000
,
0000
0000
0000
0000
,
0001
1000
0100
0001
,
0001
1000
0010
0001
,
0001
0100
1000
0010
,
0001
0000
0000
0000
,
0010
0100
1000
0011
,
0100
0010
1000
0001
,
1000
0100
0001
0001
,
0010
1000
0100
1001
,
0100
0001
0100
0010
,
0010
1000
0100
1000
,
0100
1000
0100
0010
,
0010
0001
0100
0001
,
0000
1000
1001
0001
,
0100
0010
0100
0001
,
1001
1000
0100
0010
,
0200
0000
0310
1001
,
0100
0001
0001
0010
,
1000
0100
0001
0000
,
0000
0101
1100
1000
,
0001
0000
0010
1001
,
0100
0001
0100
0100
,
0100
1000
0100
0100
,
0100
1000
0100
0100
,
0100
0001
0100
0100
,
1000
1000
1000
0000
0001
0001
0001
0000
,
1000
0010
0001
0001
,
0100
1000
0010
0001
,
0110
0000
1001
1000
,
0100
0001
0001
1000
,
0010
0001
0001
0100
,
1000
0010
0002
0000
,
1003
0110
1000
0001
,
0100
1000
1000
0001
,
0010
1000
1000
0100
,
0001
0010
2000
0000
,
3001
0110
0100
0010
,
0001
1100
0010
0100
,
1000
1000
1000
0000
0001
0000
0010
0000
,
1000
1000
0100
0001
,
0010
1001
0010
1000
,
0010
0100
0100
0001
,
0010
0010
0010
0000
0001
0000
0010
0000
,
0001
0100
0100
1000
,
0010
1000
0000
0000
;

//--------------- dance-single - Jenro Jupitel (2024) ----------------
#NOTES:
     dance-single:
     Jenro Jupitel (2024):
     Medium:
     7:
     0,0,0,0,0:
0000
0000
0000
0000
,
0000
0000
0000
0000
,
0000
0000
0000
0000
,
0000
0000
0000
0000
,
0001
0000
0010
0010
,
0001
1000
0001
0010
,
0001
0000
0100
1000
,
1000
0000
0000
0010
,
0001
0100
0010
0000
1000
0100
0010
0000
,
1000
0100
1000
0000
1000
0010
1000
0000
,
0001
0100
0001
0000
1000
0100
1000
0000
,
0001
0100
1000
0000
1000
0100
0001
0000
,
0001
0010
0100
1000
,
0001
0010
0100
1000
,
2000
0001
0001
3001
,
1000
0000
0010
0000
0001
1000
0001
0000
,
0100
0000
1000
0000
0010
0001
0100
0000
,
0001
0000
0010
0000
1000
0001
1000
0000
,
0100
1000
0010
0110
,
0100
1000
0100
0000
0100
0001
0100
0000
,
1000
0000
0001
0000
0010
0001
1000
0000
,
0001
0010
1000
0100
,
0001
0100
1000
0000
0001
0100
1000
0000
,
0100
1000
0010
0110
,
0100
0000
0001
0000
0010
0100
1000
0000
,
1000
0001
1000
0000
0001
1000
0010
0000
,
0100
0000
0001
0000
0010
0100
1000
0000
,
0100
0000
1000
0000
0010
0100
0001
0000
,
0001
1000
0100
0000
1000
0001
1000
0000
,
0010
1000
0100
0000
0001
1000
0001
0000
,
1001
0100
0001
0100
,
1000
0100
0001
0100
1001
0000
1000
0100
,
0010
0000
0001
1000
0001
0100
0000
0001
,
1000
0000
1001
0000
0100
0000
0001
1000
,
0010
0000
0010
0100
1000
0001
0000
0001
,
1000
0000
0110
0000
0100
1000
0100
0001
,
0100
1000
0100
0000
1000
0001
0010
0001
,
1000
0001
0010
0000
0001
1001
1000
0100
,
0100
0000
0010
0001
0010
0000
0010
0100
,
1000
0000
0000
0000
1000
0010
0100
0001
,
1000
0001
0010
0000
0100
0010
0100
0000
,
0100
1000
0001
0000
0100
0010
0100
0000
,
1000
0001
0100
0001
0010
0100
0010
0000
,
1000
0010
1000
0000
0100
0010
0001
0000
,
1000
0100
0010
0001
1000
0001
1000
0000
,
0010
0010
0001
0001
,
1000
1000
0010
0000
;

//--------------- dance-single - Jenro Jupitel (2024) ----------------
#NOTES:
     dance-single:
     Jenro Jupitel (2024):
     Hard:
     11:
     0,0,0,0,0:
0000
0000
0000
0000
,
0000
0000
0000
0000
,
0000
0000
0000
0000
,
0000
0000
0000
0000
,
0001
0000
0000
0000
0001
0000
0000
0000
0010
0000
0000
0010
0000
0000
0001
0000
,
1000
0000
0000
0000
0001
0000
0000
0000
0100
0000
0000
1000
0000
0000
0100
0000
,
1000
0000
0000
0000
1000
0000
0000
0000
0001
0000
0000
0010
0000
0000
0010
0000
,
0001
0000
0000
0000
0000
0000
0000
0000
0000
0000
0000
0000
1001
0000
0000
0001
,
0100
0000
0001
0100
0001
0000
1000
0000
0100
0000
0000
0000
0001
0000
0000
0000
,
0010
0000
0001
0000
1000
0000
0001
0000
0100
0000
0001
1000
0000
0000
0000
0000
,
1000
0000
0010
0100
0001
0000
1000
0000
0100
0000
0010
0000
0001
0000
0000
1000
,
0010
0000
0100
0000
0001
0000
1000
0000
0100
0000
1000
0001
0000
0000
0000
0000
,
0001
0000
0001
0000
1000
0000
0001
0000
0010
0000
0001
1000
0000
0000
0100
0000
,
0010
0000
0001
0000
0100
0000
0000
0000
0001
0000
1000
0100
0000
0000
0010
0000
,
0001
0000
1000
0001
0000
0000
1000
0000
0001
1000
0000
0001
0000
0000
1000
0000
,
0001
0000
0010
0100
0000
0000
1000
0000
0001
0000
0010
0000
0100
0000
0000
0000
,
0000
0000
0001
0100
0001
0000
0010
0001
0010
0000
0100
0010
0100
0000
1000
0000
,
0100
0001
0100
1000
0100
0001
0100
0000
,
1000
0001
1000
0000
0010
1000
0010
0000
,
0100
0010
0100
0000
0110
0000
1001
0000
,
1000
0000
0010
0000
1000
0000
0000
0000
0100
0000
1000
0100
0000
0000
0010
0000
,
0100
0010
0001
0010
0010
0001
0000
0000
,
0000
0000
0001
0100
0001
0000
0010
0001
0010
0000
0100
0000
0010
0000
0100
0000
,
1000
0001
0001
0000
0010
0001
1001
0000
,
1000
0100
1000
0001
0100
0010
1000
0001
,
1000
0100
1000
0001
0010
0100
1000
0000
,
0100
0001
1000
0001
0100
0010
1000
0001
,
0010
0100
1000
1000
0001
1000
0010
0000
,
1000
0001
0010
0000
1000
0100
0001
0000
,
0001
0010
1000
0010
0001
0010
1000
0010
,
0001
0010
0001
0010
0001
0010
0001
0010
,
0100
0001
0000
1000
0010
0100
0001
0000
1001
0000
1000
0000
0001
0000
0010
0000
,
0100
0000
1000
0000
0001
0000
0100
0001
0010
0000
0100
0000
1000
0000
0001
0000
,
0100
0010
1000
0100
0010
0001
1000
0010
,
0100
0000
0010
0000
1000
0000
0100
1000
0001
0000
0100
0000
0001
0010
0100
0000
,
0100
1000
0110
0000
0010
0100
0001
1000
,
0001
0000
0010
0000
0100
0000
0010
0100
0010
0000
0100
0000
1000
0000
0010
0000
,
0100
0001
1000
0100
1000
0010
0100
0010
,
1000
0000
0001
0000
0010
0000
0001
0100
0010
0000
1000
0000
0001
0010
0100
0000
,
1000
0000
0001
0000
0100
0000
0000
0000
0001
1000
0001
0000
0001
0000
0010
0000
,
0100
1000
0001
0000
0001
0000
0100
0001
0010
0000
0100
0000
1000
0001
0100
0000
,
0100
0000
0010
0000
1000
0000
0100
0000
0010
0001
1000
0000
1000
0000
0010
0100
,
0010
0000
0010
0000
1000
0000
0100
1000
0001
0000
0100
0000
0001
0010
0100
0000
,
1000
0000
0010
0000
0110
0000
0000
0000
0010
0000
0100
0000
0001
0000
1000
0001
,
0010
0000
0010
0000
0100
0000
1000
0010
0100
0000
0001
0000
1000
0001
1000
0000
,
1000
0000
0100
0000
1000
0000
0010
0000
1000
0000
0001
0000
0010
0001
0100
0000
,
0100
0000
0001
0000
1000
0000
0100
1000
0010
0000
0100
0000
0000
0000
0010
0000
,
0100
0001
1000
0000
0000
0000
0000
0000
;
