#TITLE:First Day High;
#SUBTITLE:;
#ARTIST:Kamikazee;
#TITLETRANSLIT:;
#SUBTITLETRANSLIT:;
#ARTISTTRANSLIT:;
#GENRE:;
#CREDIT:Jenro;
#MUSIC:First Day High.ogg;
#BANNER:firstdayhigh-bn.jpg;
#BACKGROUND:firstdayhigh-bg.jpg;
#CDTITLE:;
#SAMPLESTART:57.617;
#SAMPLELENGTH:19.119;
#SELECTABLE:YES;
#OFFSET:-0.534;
#BPMS:0.000=218.895
,20.000=212.000
,51.333=136.000
,52.000=203.500
,68.000=200.804
,83.667=127.000
,84.000=204.000
,96.000=206.187
,100.000=206.557
,116.000=204.324
,132.000=202.371
,148.000=201.808
,180.000=210.702
,186.000=171.000
,187.000=213.740
,196.000=205.220
,212.000=202.170
,227.833=170.000
,228.000=200.000
,244.000=196.597
,260.000=203.241
,276.000=203.931
,292.000=204.942
,308.000=202.588
,324.000=200.363
,340.000=197.647
,356.000=195.306
,371.667=170.000
,372.000=200.000
,384.000=194.295
;
#STOPS:;
#DISPLAYBPM:200.000:220.000;
#BGCHANGES:;
#FGCHANGES:;

//--------------- dance-single - Jenro (2021) ----------------
#NOTES:
     dance-single:
     Jenro (2021):
     Beginner:
     4:
     0,0,0,0,0:
0000
0000
0000
0000
,
0000
0000
0000
0000
,
0000
0000
0000
0000
,
0000
0000
0000
0000
,
0001
0000
0110
0000
,
0001
0000
1000
0000
,
0001
0000
1000
0000
,
0010
0000
0010
0000
,
1000
0000
0001
0000
,
1000
0000
0010
0000
,
0001
0000
0010
0000
,
1000
0000
0001
0000
,
0110
0000
0001
0000
,
1000
0000
0000
0000
,
0100
0000
0000
0000
,
1000
0000
0000
0000
,
0100
0000
0000
0000
,
0001
0000
0000
0000
,
0001
0000
0000
0000
,
0100
0000
0000
0000
,
0001
0000
0000
0000
,
0010
0000
0000
0000
,
0010
0000
0000
0000
,
0010
0000
0000
0000
,
0110
0000
0100
0100
,
0001
0000
1000
0000
,
0001
0000
1000
0000
,
0010
0000
0010
0000
,
1000
0000
0001
0000
,
1000
0000
0010
0000
,
0001
0000
0010
0000
,
1000
0000
0001
0000
,
0110
0000
0001
0000
,
0001
0001
0001
0001
,
0001
0000
0000
0000
,
0100
0100
0100
0100
,
0100
0000
0000
0000
,
0001
0001
0001
0001
,
0001
0000
0000
0000
,
0100
0100
0100
0100
,
0100
0000
0000
0000
,
1000
1000
1000
1000
,
1000
0000
0000
0000
,
0010
0000
0010
0000
,
1001
0000
0000
0000
,
0110
0000
0000
0000
,
0000
0000
0000
0000
,
0000
0000
0000
0000
,
0001
0001
0001
0000
,
0000
0001
0000
1000
,
0000
0001
0000
1000
,
0000
0010
0000
0010
,
0000
1000
0000
0001
,
0000
1000
0000
0010
,
0000
0001
0000
0010
,
0000
1000
0000
0001
,
0000
0110
0000
0001
,
0000
1000
0000
0100
,
0000
0001
0000
0100
,
0000
0001
0000
0100
,
0000
1000
0000
0100
,
0000
1000
0000
0001
,
0000
1000
0000
0000
,
0010
0010
0010
0000
,
0001
1000
0001
0000
,
1000
0000
0010
0000
,
0001
0001
0001
0000
,
1000
1000
1000
0000
,
0001
1000
0001
0000
,
0001
0000
0010
0000
,
1000
1000
1000
0000
,
0001
0001
0001
0000
,
1000
0001
1000
0000
,
1000
0000
0010
0000
,
0001
0001
0001
0000
,
1000
1000
1000
0000
,
0001
1000
0001
0000
,
0000
0001
0000
1000
,
0000
0001
0000
1000
,
0000
0010
0000
0010
,
0000
1000
0000
0001
,
0000
1000
0000
0010
,
0000
0001
0000
0010
,
0000
1000
0000
0001
,
0000
0110
0000
0001
,
0000
1000
0000
0100
,
0000
0001
0000
0001
,
0000
0001
0000
0100
,
0000
1000
0000
1000
,
0000
0010
0000
0010
,
0000
0010
0000
0010
,
0000
0010
0000
0010
,
0000
1001
0000
0000
,
0100
0000
0000
0000
,
0100
0000
0000
0000
,
0010
0000
0000
0000
,
0010
0000
0000
0000
,
1001
0000
0000
0000
;

//--------------- dance-single - Jenro (2021) ----------------
#NOTES:
     dance-single:
     Jenro (2021):
     Easy:
     7:
     0,0,0,0,0:
0000
0000
0000
0000
,
0000
0000
0000
0000
,
0000
0000
0000
0000
,
0000
0000
0000
0000
,
0020
0000
0000
0030
,
1000
0000
0001
0000
,
1000
0000
0010
0000
,
0001
0000
0010
0000
,
0100
0000
0001
0000
,
0100
0000
0100
0000
,
0010
0000
0010
0000
,
1000
0000
0001
0000
,
0020
0000
0030
0000
,
1000
0000
0100
0000
,
1000
0000
0001
0000
,
0001
0000
0100
0000
,
0001
0000
1000
0000
,
1000
0000
0010
0000
,
0001
0000
0010
0000
,
0100
0000
0100
0000
,
0100
0000
0010
0000
,
0001
0000
1000
0000
,
0001
0000
0010
0000
,
0100
0000
0001
0000
,
1000
0000
1000
0000
,
0010
0000
1000
0000
,
0001
0000
0001
0000
,
1000
0000
1000
0000
,
0100
0000
0100
0000
,
0001
0000
1000
0000
,
1000
0000
1000
0000
,
0001
0000
0001
0000
,
1001
0000
0000
0000
,
1000
0000
1100
0000
,
0001
0000
0011
0000
,
0001
0000
0101
0000
,
1000
0000
1010
0000
,
1000
0000
1001
0000
,
1000
0000
0011
0000
,
0001
0000
1001
0000
,
0001
0000
1100
0000
,
1000
0000
0100
0000
,
1001
0000
0010
0000
,
0100
0000
0100
0000
,
0001
0000
1000
0000
,
1000
0000
1000
0000
,
1000
0000
1000
0000
,
1000
0000
1000
0000
,
0020
0000
0030
0001
,
0000
0100
0000
0100
,
0000
1000
0000
1000
,
0000
0001
0000
0001
,
0000
0100
0000
0100
,
0000
0010
0000
1000
,
0000
0010
0000
0001
,
0000
0010
0000
0100
,
1000
0001
0010
0001
,
1000
0000
0001
0000
,
1000
0000
0010
0000
,
0001
0000
0010
0000
,
0001
0000
0100
0000
,
1000
0000
0001
0000
,
1000
0000
0010
0000
,
0100
0100
0100
0000
,
0010
0010
0010
0000
,
0100
0000
1001
0000
,
0100
0100
1001
0000
,
0100
1001
0010
0000
,
0100
1001
0010
0000
,
0100
0000
1001
0000
,
0100
0100
1001
0000
,
0100
1001
0010
0000
,
0100
1001
0010
0000
,
0100
0100
0100
1001
,
0100
0100
1001
0000
,
0100
1001
0010
0000
,
0100
1001
0010
1001
,
0010
1000
1000
1000
,
0000
0001
0001
0001
,
0000
0100
0000
0100
,
0000
0010
0010
0010
,
0000
1000
0000
0001
,
0000
1000
0000
0010
,
0000
0001
0000
0010
,
0100
1000
0001
0000
,
1000
0001
0100
0000
,
1000
0001
0100
0000
,
1000
0010
0100
0000
,
0001
0010
0100
0000
,
1000
0000
0010
0000
,
0100
0000
0001
0000
,
1000
0001
0010
0000
,
0100
1000
0010
0000
,
0200
0300
0200
0300
,
0200
0300
0010
0010
,
0200
0300
0200
0300
,
0200
0300
0010
0100
,
2002
0000
0000
3003
;

//--------------- dance-single - Jenro (2021) ----------------
#NOTES:
     dance-single:
     Jenro (2021):
     Medium:
     9:
     0,0,0,0,0:
0000
0000
0000
0000
,
0000
0000
0000
0000
,
0000
0000
0000
0000
,
0000
0000
0000
0000
,
1100
1001
0012
1003
,
0001
1000
0100
1000
,
0001
1000
0100
1000
,
0001
0010
0001
0010
,
0001
0010
0001
0010
,
0010
0010
1000
0010
,
0010
0010
0001
0010
,
0010
0100
1000
0001
,
1100
1001
0022
0033
,
1000
0000
0010
0000
,
1000
0000
0010
0000
,
1000
0010
1000
0010
,
0001
0010
0001
0010
,
1000
0000
0001
0000
,
1000
0000
0001
0000
,
1000
0100
1000
0100
,
1000
0001
1000
0001
,
0010
0000
0010
0000
,
0100
0000
0010
0100
,
0010
0000
0100
0100
,
1001
0000
1100
1001
,
0012
1003
0100
1000
,
0001
1000
0100
1000
,
0001
0010
0001
0010
,
0001
0010
0001
0010
,
0010
0010
1000
0010
,
0010
0010
0001
0010
,
0010
0100
1000
0001
,
1100
1001
0022
0033
,
0000
0001
0100
0010
,
0100
0000
0201
0300
,
1000
0001
0010
0100
,
0001
0000
1200
0300
,
0000
0001
0001
0010
,
0001
0000
0012
0003
,
0000
0100
0100
1000
,
0010
0000
0210
0300
,
0000
1000
0010
1000
,
0010
0000
1020
0000
,
0130
0001
0001
1000
,
0001
1000
1000
0010
,
0002
0000
0000
0000
,
0000
0000
0000
1003
,
0100
1000
0001
0100
,
1100
1001
0012
0000
,
0003
1000
0100
1000
,
0001
1000
0100
1000
,
0001
0010
0001
0010
,
0001
0010
0001
0010
,
0010
0010
1000
0010
,
0010
0010
0001
0010
,
0010
0100
1000
0001
,
1100
1001
0022
0033
,
0000
1000
0100
0001
,
0100
1000
0100
0001
,
1000
0010
0001
0010
,
1000
0010
0002
0000
,
0003
1000
0100
1000
,
0001
1000
0010
1000
,
0001
0001
0001
0010
,
1100
1001
0012
0003
,
2000
3000
0002
0003
,
0010
0100
2000
3000
,
1000
0100
0020
0030
,
1100
1001
0011
0000
,
2000
3000
0002
0003
,
0010
0100
2000
3000
,
1000
0100
0020
0030
,
1100
1001
0011
0000
,
2000
3000
0002
0003
,
0010
0100
2000
3000
,
1000
0100
0020
0030
,
1100
1001
0012
0000
,
0003
1000
0100
1000
,
0001
1000
0100
1000
,
0001
0010
0001
0010
,
0001
0010
0001
0010
,
0010
0010
1000
0010
,
0010
0010
0001
0010
,
0010
0100
1000
0001
,
1100
1001
0022
0033
,
1000
0100
0001
0100
,
1000
0100
0001
0100
,
1000
0010
0001
0010
,
1000
0010
0001
0010
,
0100
1000
0100
1000
,
0100
0001
0100
0001
,
0100
0010
1000
0001
,
1001
0110
1001
0110
,
0002
1000
1000
1000
,
1000
1003
1001
0110
,
2000
0001
0001
0001
,
0001
3001
1001
0110
,
2002
0000
0000
3003
;

//--------------- dance-single - Jenro (2021) ----------------
#NOTES:
     dance-single:
     Jenro (2021):
     Hard:
     14:
     0,0,0,0,0:
0000
0000
0000
0000
,
0000
0000
0000
0000
,
0000
0000
0000
0000
,
0000
0000
0000
0000
,
0100
0001
0100
0001
0100
0000
1100
0000
,
0101
0000
1000
0000
1000
0010
0110
0000
,
0101
0000
0001
0000
0010
0100
1100
0000
,
1000
0001
0100
0001
1000
0010
1000
0001
,
0100
0001
1000
0100
0010
0100
0001
0100
,
1000
0000
0110
0000
0010
0100
1100
0000
,
0001
0000
0101
0000
0001
0100
0110
0000
,
0010
1000
0010
1000
0001
0100
0001
1000
,
1100
1001
0022
0033
,
1000
0100
0010
0000
0100
0000
1000
0000
,
1000
0100
0010
0000
0100
0000
1000
0000
,
0001
0100
0010
0100
0001
0000
0100
0000
,
0001
0100
0010
0100
0001
0000
0100
0000
,
0010
0100
0001
0000
2000
0000
3100
0000
,
1000
0100
0010
0000
2000
0000
3100
0000
,
1000
0010
1000
0010
1000
0001
1000
0001
,
0100
0001
1000
0001
1000
0010
0100
0000
,
1001
0000
0001
0000
1100
1000
1000
0000
,
1001
0000
1000
0000
0101
0001
0001
0000
,
1000
0001
0100
0000
0010
0100
0010
0100
,
0000
0001
1000
0100
1100
0000
1001
0000
,
0011
0000
1000
0000
1000
0010
0110
0000
,
0101
0000
0001
0000
0010
0100
1100
0000
,
1000
0001
0100
0001
1000
0010
1000
0001
,
0100
0001
1000
0100
0010
0100
0001
0100
,
1000
0000
0110
0000
0010
0100
1100
0000
,
0001
0000
0101
0000
0001
0100
0110
0000
,
0010
1000
0010
1000
0001
0100
0001
1000
,
1100
1001
0022
0033
,
1000
0000
0001
0100
1000
0000
1000
0100
,
0001
0110
0012
0103
,
1001
0000
0001
0100
1000
0000
0010
0010
,
0010
1000
1010
1100
,
0001
1000
0001
1000
0001
1000
0001
1000
,
0001
0010
2002
3000
,
1003
0100
1000
0100
,
1000
1100
1100
1100
,
0110
0000
0010
0100
0010
0100
0010
0100
,
0010
0001
0110
1001
,
0110
0000
1000
0001
0100
0010
1000
0001
,
0000
1000
0100
1000
1100
0000
1001
0000
,
0014
0000
0000
0000
,
0000
0000
0000
1003
,
0100
1000
0100
1000
,
1100
0000
1001
0000
0011
0001
0001
0000
,
1001
0000
1000
0000
1000
0010
0110
0000
,
0101
0000
0001
0000
0010
0100
1100
0000
,
1000
0001
0100
0001
1000
0010
1000
0001
,
0100
0001
1000
0100
0010
0100
0001
0100
,
1000
0000
0110
0000
0010
0100
1100
0000
,
0001
0000
0101
0000
0001
0100
0110
0000
,
0010
1000
0010
1000
0001
0100
0001
1000
,
1100
1001
0022
0033
,
1000
0100
0001
0100
1000
0100
0001
0000
,
1000
0010
0001
0010
1000
0010
0001
0000
,
1000
0100
1000
0001
0100
0001
1000
0100
,
0010
0100
0010
0001
0000
1100
0000
0101
,
0000
0000
1000
0001
1000
0000
0001
1000
,
0001
0000
0010
0110
0000
0100
0100
0000
,
1000
0100
0010
0100
0010
0001
1000
0010
,
0100
0001
0100
0001
1000
0100
1000
0000
,
0001
0100
0010
0100
0001
0100
0010
0100
,
0001
1000
0010
1000
0001
1000
0010
1000
,
0100
1000
0010
0100
0100
1000
0010
0100
,
0001
0100
0010
1000
0001
0100
0010
1000
,
1000
0100
0010
0100
1000
0100
0010
0100
,
1000
0001
0010
0001
1000
0001
0010
0001
,
0100
0001
0010
0100
0100
0001
0010
0100
,
1000
0100
0010
0001
1000
0100
0010
0001
,
0001
0010
0100
0010
0001
0010
0100
0010
,
0001
1000
0100
1000
0001
1000
0100
1000
,
0010
1000
0100
0010
0010
1000
0100
0010
,
0001
0010
0100
1000
0001
0010
0100
1000
,
1001
0000
0001
0000
0001
0100
0110
0000
,
1010
0000
1000
0000
0100
0010
0011
0000
,
0001
1000
0010
1000
0001
0100
0001
1000
,
0010
1000
0001
0010
0100
0010
1000
0010
,
0001
0000
0110
0000
0100
0010
0011
0000
,
1000
0000
1010
0000
1000
0010
0110
0000
,
0100
0001
0100
0001
1000
0010
1000
0001
,
1100
1001
0022
0033
,
1000
0100
0001
0100
1000
0100
0001
0000
,
1000
0010
0001
0010
1000
0010
0001
0000
,
1000
0100
0010
0001
1000
0100
0010
0001
,
0001
0010
1000
0010
0001
0101
0000
1100
,
0000
0000
1000
0001
1000
0001
1000
0000
,
0001
1000
0001
1000
0001
1000
0001
0000
,
1100
0110
1001
0011
,
1001
0101
0110
1001
,
0002
0003
2000
3000
,
0002
0003
1100
1001
,
0012
0000
2003
3000
,
0002
0003
1100
1001
,
0022
0000
0000
0033
;

//--------------- dance-double - Jenro (2021) ----------------
#NOTES:
     dance-double:
     Jenro (2021):
     Challenge:
     10:
     0,0,0,0,0:
00000000
00000000
00000000
00000000
,
00000000
00000000
00000000
00000000
,
00000000
00000000
00000000
00000000
,
00000000
00000000
00000000
00000000
,
00011000
00101000
00010010
00000000
,
00010000
01000000
00001000
01000000
,
00010000
00001000
00000100
00010000
,
00001000
00010000
00001000
00010000
,
00010000
00000010
00010000
00000010
,
00000100
00000100
00000001
00000001
,
00000010
00000010
00000100
00000100
,
00001000
00001000
00010000
00100000
,
00101000
10010000
10100000
00000000
,
10000000
01000000
00010000
01000000
,
00001000
00100000
00001000
00010000
,
00000010
00010000
00000001
00000100
,
00000001
00001000
00010000
00000010
,
00010000
00010000
00001000
01000000
,
10000000
01000000
00010000
00001000
,
00000010
00001000
00000010
00001000
,
00010000
01000000
00010000
10000000
,
01000000
00100000
10010000
01000000
,
01000000
00100000
10010000
01000000
,
00010000
00010000
01000000
00001000
,
00100000
00001000
00101000
00010010
,
00011000
01000000
00100000
01000000
,
00010000
01000000
00010000
01000000
,
00001000
00100000
00000100
00010000
,
00001000
00100000
00000100
00010000
,
00001000
00001000
00001100
00000100
,
00010000
00010000
00110000
00100000
,
00100000
00010000
01000000
10000000
,
10010000
00110000
10100000
00000000
,
10000000
01000000
00100000
00010000
,
00100000
00000000
00220000
00330000
,
00001000
00000001
00000010
00000010
,
00000100
00000000
00002200
00003300
,
00010000
00001000
00100000
10000000
,
01000000
00000000
20020000
30030000
,
00001000
00001000
00010000
00001000
,
00010000
00000000
00022000
00033000
,
00000010
00000100
00000010
00000100
,
00000010
00000000
00000220
00000330
,
00001000
00010000
00000100
00010000
,
00000010
00001000
00000100
00000001
,
00002002
00000000
00000000
00000000
,
00003003
00000000
00000000
00001010
,
00000010
00000010
00000100
00000100
,
00000011
00001010
00001001
00000000
,
00010000
01000000
00001000
01000000
,
00010000
00001000
00000100
00010000
,
00001000
00010000
00001000
00010000
,
00010000
00000010
00010000
00000010
,
00000100
00000100
00000001
00000001
,
00000010
00000010
00000100
00000100
,
00001000
00001000
00010000
00100000
,
00101000
10010000
10100000
00000000
,
10000000
01000000
00010000
01000000
,
10000000
01000000
00010000
01000000
,
00001000
00010000
00000010
00001000
,
00001000
00010000
00000010
00001000
,
00000010
00000010
00000100
00000100
,
00000001
00001000
00010000
00100000
,
10100000
00110000
10010000
00100000
,
00110000
10010000
10100000
00000000
,
20000000
00000000
30020000
00030000
,
00200000
00320000
00032000
00003000
,
00002000
00023000
00230000
00300000
,
00110000
10010000
10100000
00000000
,
20000000
00000000
30020000
00030000
,
00002000
00023000
00230000
00300000
,
00200000
00320000
00032000
00003000
,
00110000
10010000
10100000
00000000
,
20000000
00000000
30020000
00030000
,
00002000
00023000
00230000
00300000
,
00200000
00320000
00032000
00003000
,
00110000
10010000
10100000
10010000
,
01100000
01000000
01000000
10000000
,
01000000
01000000
10000000
10000000
,
00010000
00010000
00001000
00001000
,
00000100
00000100
00000010
00000010
,
00001000
00010000
00100000
00100000
,
00100000
00010000
00001000
00001000
,
00001000
00100000
01000000
10000000
,
20020000
00000000
30030000
00000000
,
10000000
01000000
00010000
01000000
,
10000000
01000000
00010000
01000000
,
00001000
00010000
00000010
00001000
,
00001000
00010000
00000010
00001000
,
00000010
00000010
00000100
00000100
,
00000001
00001000
00010000
00100000
,
10100000
00110000
10010000
00100000
,
00110000
10010000
10100000
00000000
,
00001000
00010000
00001000
00010000
,
00001000
00010000
00012000
00003000
,
00001000
00010000
00001000
00010000
,
00001000
00010000
00012000
00003000
,
00202000
00000000
00303000
00000000
;
