#TITLE:Esem;
#SUBTITLE:;
#ARTIST:Yano;
#TITLETRANSLIT:;
#SUBTITLETRANSLIT:;
#ARTISTTRANSLIT:;
#GENRE:;
#CREDIT:;
#MUSIC:Esem.ogg;
#BANNER:Esem-bn.jpg;
#BACKGROUND:Esem-bg.jpg;
#CDTITLE:;
#SAMPLESTART:55.108;
#SAMPLELENGTH:15.647;
#SELECTABLE:YES;
#OFFSET:-0.343;
#BPMS:0.000=122.705
,208.000=123.322
,209.000=123.150
,216.000=119.150
,217.000=123.150
;
#STOPS:;
#BGCHANGES:;
#FGCHANGES:;

//--------------- dance-single - Jenro Jupitel (2021) ----------------
#NOTES:
     dance-single:
     Jenro Jupitel (2021):
     Beginner:
     2:
     0,0,0,0,0:
0000
0000
0000
0000
,
0000
0000
0000
0000
,
0000
0000
0000
0000
,
0000
0000
0000
0000
,
0000
1000
0000
1000
,
0000
0001
0000
0100
,
0000
0001
0000
0001
,
0000
1000
0000
0100
,
0000
0010
0000
0010
,
0000
0001
0000
0100
,
0000
0010
0000
0010
,
0000
1000
0000
0100
,
0000
0001
0000
0010
,
0000
1000
0000
1000
,
0000
0001
0000
0100
,
0000
1000
0000
1000
,
0000
1000
0000
1000
,
0000
0001
0000
0100
,
0000
0001
0000
0001
,
0000
1000
0000
0100
,
0000
0010
0000
0010
,
0000
1000
0000
0100
,
0000
0010
0000
0010
,
0000
0001
0000
0100
,
0000
0001
0000
0100
,
0000
1000
0000
1000
,
0000
1000
0000
0100
,
0000
0001
0000
0001
,
0000
1000
0000
0001
,
0000
0100
0100
0100
,
0000
0001
0000
1000
,
0000
0100
0100
0100
,
0000
1000
0000
0001
,
0000
0100
0100
0100
,
0000
0001
0000
1000
,
0000
0100
0100
0100
,
1000
0000
1000
0000
,
0001
0000
0100
0000
,
0001
0000
0001
0000
,
1000
0000
0100
0000
,
0010
0000
0010
0000
,
0001
0000
0100
0000
,
0010
0000
0010
0000
,
1000
0000
0100
0000
,
0001
0000
1000
0000
,
0100
0100
0100
0100
,
0000
1000
0000
0001
,
0000
0100
0100
0100
,
0100
0000
0001
0000
,
1000
0000
0100
0100
,
0100
0000
1000
0000
,
0001
0000
0100
0100
,
0100
0000
0001
0000
,
1000
0000
0100
0001
,
1000
0000
0001
0000
,
1000
0000
0100
1000
,
0001
0000
1000
0000
,
0001
0000
0010
0010
,
0010
0000
0001
0000
,
1000
0000
0010
0010
,
0010
0000
0000
0000
;

//--------------- dance-single - Jenro Jupitel (2021) ----------------
#NOTES:
     dance-single:
     Jenro Jupitel (2021):
     Easy:
     4:
     0,0,0,0,0:
0000
0000
0000
0000
,
0000
0000
0000
0000
,
0000
0000
0000
0000
,
0000
0000
0000
0000
,
1000
0100
0001
0010
,
1000
0100
0001
0010
,
2000
3000
0002
0003
,
1000
0100
0001
0010
,
0200
0300
2000
3000
,
0002
0003
0200
0300
,
2000
3000
0200
0300
,
0001
0002
0103
0200
,
0300
0010
0000
0010
,
0000
0100
0110
0001
,
0000
2000
3000
2000
,
3001
0001
1000
0010
,
0200
0300
0000
0002
,
0103
0000
0000
2000
,
3100
0000
0000
0002
,
0103
0000
0000
0000
,
1000
0100
0001
0010
,
0000
0001
0010
1000
,
0000
1000
1000
0001
,
0001
1000
0010
0100
,
0110
0000
0110
0000
,
0110
0000
1002
0103
,
2000
3001
0001
1000
,
0020
0100
0031
1000
,
0100
0000
0010
0010
0000
0001
0000
1000
,
0000
0100
0100
0010
,
1000
0000
0100
0100
0000
1000
0000
0001
,
0000
0010
0010
0100
,
0001
0000
0010
0010
0000
1000
0000
0001
,
0000
0100
0100
0010
,
0001
0000
0100
0100
0000
0001
0000
1000
,
0000
0010
0010
0100
,
1000
0100
0001
0010
,
1000
0100
0001
0010
,
2000
3000
0002
0003
,
1000
0100
0001
0010
,
0200
0001
0001
0301
,
0200
1000
1000
1300
,
0002
1003
0002
1003
,
0001
0000
0100
0000
0001
1000
0001
1000
,
0001
0000
0100
0100
0000
1000
0000
0001
,
0000
0010
0010
0110
,
0001
0000
0010
0010
0000
0001
0000
1000
,
0000
0100
0100
0110
,
1000
0000
0100
0100
0000
0001
0000
1000
,
0000
0010
0010
0110
,
1000
0000
0010
0010
0000
1000
0000
0001
,
0000
0010
0010
0110
,
1000
0000
0010
0010
0000
0001
0000
1000
,
0000
0100
1010
0110
,
1000
0000
0100
0100
0000
1000
0000
0001
,
0000
0010
0011
0110
,
0001
0000
0010
0010
0000
1000
0000
0001
,
0000
0100
1100
0110
,
0001
0100
0100
0100
0000
0001
0000
1000
,
0000
0100
0101
1001
,
0110
0000
0000
0000
;

//--------------- dance-single - Jenro Jupitel (2021) ----------------
#NOTES:
     dance-single:
     Jenro Jupitel (2021):
     Medium:
     11:
     0,0,0,0,0:
0000
0000
0000
0000
,
0000
0000
0000
0000
,
0000
0000
0000
0000
,
0000
0000
0000
0000
,
1000
0100
0010
0100
1000
0100
0010
0100
,
0010
0001
0010
0100
0010
0001
0010
0100
,
1000
0001
0010
0100
1000
0001
0010
0100
,
1000
0000
0001
0000
0100
0000
0010
0000
0000
0000
0010
0000
0010
0000
1000
0001
,
0100
0000
2000
0000
3010
0100
0001
0000
,
0200
0000
0301
0000
0010
0100
1000
0000
,
1000
0100
2000
3000
0001
0100
0002
0003
,
1000
1000
0001
0010
0001
1000
0100
0010
,
0100
0000
1001
0000
0100
0001
0100
0000
,
0100
0100
0010
0010
1000
0100
0110
0000
,
1000
1000
0001
0001
0100
1000
1100
0000
,
1000
0100
0010
0100
0010
0001
0100
0010
,
1000
0200
0000
0310
0000
1000
0010
0100
,
0001
0020
0000
0230
0000
2300
0000
3002
,
0000
0000
0103
0001
0200
0000
0300
0000
0000
0000
0000
0010
0100
0000
0000
0000
,
0001
0100
0000
1000
0000
0100
0100
0100
,
0100
0000
0010
0100
0000
1000
0001
0010
,
0100
0000
0010
0100
0000
1000
0010
0100
,
0001
0000
0010
0100
0000
1000
0001
0010
,
0100
0000
0001
0100
0010
1000
0100
0001
,
1001
0101
1001
1100
,
0010
0010
1000
1000
0001
0100
0110
0000
,
1000
0100
1000
0100
0010
0001
0010
0000
,
0100
0000
1000
0000
0001
0000
0010
1000
0010
0000
0001
0000
1000
0001
1000
0000
,
1001
0000
0100
0010
0000
0001
0000
1001
,
0000
1000
0100
0001
0010
0001
0100
0001
,
1000
0000
1000
0010
0000
1001
0000
0101
,
0000
1000
0100
0010
0100
1000
0001
1000
,
0101
0000
0010
1100
0000
1001
0000
0101
,
0000
1000
0100
1000
0001
0010
0110
0001
,
1001
0000
0100
0110
0000
1010
0000
1100
,
0000
0010
0010
0001
1001
0100
1001
0100
,
1001
0000
0010
1000
0000
1000
0100
0010
,
0011
0000
1000
1100
0000
0001
0101
0100
,
0110
1000
0000
0010
0000
1100
0000
0001
,
1000
0001
1000
0000
0010
0000
1000
0001
0010
0000
1000
0000
0100
1000
0100
0000
,
1001
1000
0100
0001
1000
0001
1000
0001
,
1000
0100
0001
1000
0001
1000
0001
1000
,
1000
0010
0100
0000
0010
0000
0100
0000
0100
0001
0010
0000
0001
0000
1000
0000
,
0100
1000
0100
0000
0100
0000
0010
0000
0001
0010
0001
0000
0001
0000
0100
0000
,
0010
0000
1000
1001
0000
0110
0000
0011
,
0000
1000
0100
0010
1100
0010
1100
0010
,
1100
0000
1000
0010
0000
0100
0000
1001
,
0000
0010
0001
0100
0011
0100
0011
0100
,
0011
0000
1000
0101
0000
1010
0000
1100
,
0000
1000
0001
0010
0110
1000
1001
0100
,
0110
0000
0100
1001
0000
0101
0000
1010
,
0000
0000
1000
0000
0100
0000
0010
0000
1000
0001
1000
0000
0001
1000
0100
0000
,
0110
0000
1000
1100
0000
1001
0000
0101
,
0000
1000
0010
0100
0101
0010
0110
1000
,
1001
0100
0010
0110
0000
1100
0000
0101
,
0000
1000
0010
0100
1001
0010
0110
1000
,
1001
0000
1000
0110
0000
0101
0000
0100
,
0000
0000
0001
0000
1000
0100
0100
0000
1100
0000
0001
0000
1001
0000
0001
0000
,
0101
1000
0010
1010
0000
1001
0000
0101
,
0000
0000
0010
0000
1000
0001
0100
0000
0100
0000
0100
0000
0100
0000
0100
0000
,
0100
0010
0000
1000
0000
0001
0100
0010
,
1000
0000
0000
0000
;

//--------------- dance-single - Jenro Jupitel (2021) ----------------
#NOTES:
     dance-single:
     Jenro Jupitel (2021):
     Hard:
     14:
     0,0,0,0,0:
0000
0000
0000
0000
,
0000
0000
0000
0000
,
0000
0000
0000
0000
,
0000
0000
0000
0000
,
1000
0010
0101
0000
1000
0010
0101
0000
,
1000
0010
0101
0000
1000
0010
0101
0000
,
1000
0100
0001
0100
0001
0100
1000
0100
,
0010
1000
0101
0000
0010
1000
0102
0000
,
1003
0100
0001
0100
0001
1000
1000
0000
,
1000
0100
0001
0100
0001
1000
1002
0000
,
1003
0100
0001
0100
0001
1000
1000
0000
,
1000
0100
0001
0100
1002
1000
1003
1000
,
0002
0000
0103
0000
0002
0100
1003
0000
,
0002
0000
0103
0000
0002
0100
1003
0000
,
1000
0100
0001
0100
1000
0100
1000
0000
,
0001
0100
1000
0100
0001
0100
0001
0000
,
1000
0100
0001
0100
0010
0100
0001
0100
,
1000
0100
0001
0100
0010
0100
0001
0100
,
0001
0100
1000
0100
0010
0100
1000
0100
,
0001
0100
1000
0100
0010
0100
1000
0100
,
1000
0100
1000
0100
1000
0000
0001
0000
0001
0100
0001
0100
0001
0000
1000
0000
,
1000
0100
1000
0000
0001
0100
0001
0000
1000
0100
1000
0000
0001
0100
0001
0000
,
1000
0001
0100
0001
1000
0100
1000
0000
0001
0100
0001
1000
0100
1000
0001
0000
,
1000
0100
1000
0001
0100
0001
1000
0100
1000
0001
1000
0001
1000
0001
1000
0001
,
1000
0110
0001
1001
0110
0110
1001
0000
,
0001
1001
0110
1001
0110
0110
1001
0000
,
1000
0010
1000
0010
1000
0010
1000
0000
0001
0010
0001
0010
0001
0010
0001
0000
,
1000
0010
1000
0001
0010
0001
1000
0010
0100
0010
0100
0010
0100
0010
0100
0001
,
1000
0000
0001
0000
0100
0010
0001
0000
1000
0000
0001
0000
0100
0010
0001
0000
,
1000
0000
0001
0000
0100
0010
0001
0010
0100
0010
0001
0010
0100
0010
0001
0000
,
0001
0000
1000
0000
0100
0010
1000
0000
0001
0000
1000
0000
0100
0010
1000
0000
,
0001
0000
1000
0000
0100
0010
1000
0010
0100
0010
1000
0010
0100
0010
1000
0000
,
1000
0000
0001
0000
0010
0100
0001
0000
1000
0000
0001
0000
0010
0100
0001
0000
,
1000
0000
0001
0000
0010
0100
0001
0100
0010
0100
0001
0100
0010
0100
0001
0000
,
0001
0000
1000
0000
0010
0100
1000
0000
0001
0000
1000
0000
0010
0100
1000
0000
,
0001
0000
1000
0000
0010
0100
1000
0100
0010
0100
1000
0100
0010
0100
1000
0000
,
0001
0100
0001
0100
0010
0100
0010
0100
,
0001
0100
0010
0100
0001
0100
0010
0100
,
1000
1000
0100
0100
1000
1000
0100
0100
,
1000
1000
1000
1000
1000
1000
1000
1000
,
1000
0100
0001
0100
0001
0100
1000
0100
,
0010
1000
0101
0000
0010
1000
0102
0000
,
1003
0010
0001
0010
0001
0010
1000
0010
,
0100
1000
0011
0000
0100
1000
0012
0000
,
1003
0000
0000
0000
0001
0000
1000
0000
0001
0000
0000
0000
0010
0000
0000
0000
0001
0000
1000
0000
0100
0000
0000
0000
0010
0000
0000
0001
0010
0000
0000
0000
,
0000
0000
0100
0000
1000
0100
1000
0000
0100
1000
0100
1000
0100
0000
1100
0000
,
0001
0000
0000
0000
1000
0000
0001
0000
1000
0000
0000
0000
0010
0000
0000
0000
1000
0000
0001
0000
0100
0000
0000
0000
0010
0000
0000
1000
0010
0000
0000
0000
,
0000
0000
0100
0000
0001
0100
0001
0000
0100
0001
0100
0001
0100
0000
0101
0000
,
1000
0000
0000
0000
0001
0000
1000
0000
0001
0000
0000
0000
0100
0000
0000
0000
0001
0000
1000
0000
0010
0000
0000
0000
0100
0000
0000
0001
0100
0000
0000
0000
,
0000
0000
0010
0000
1000
0010
1000
0000
0010
1000
0010
1000
0010
0000
1010
0000
,
0001
0000
0000
0000
1000
0000
0001
0000
1000
0000
0000
0000
0100
0000
0000
0000
1000
0000
0001
0000
0010
0000
0000
0000
0100
0000
0000
1000
0100
0000
0000
0000
,
0000
0000
0010
0000
0001
0010
0001
0000
0010
0001
0010
0001
0010
0000
0011
0000
,
0001
0000
0000
0000
1001
0000
0000
0000
0100
0000
1000
0000
0001
0000
0000
0000
1000
0000
0000
0000
1001
0000
0000
0000
0100
0000
0000
0001
1000
0000
0000
0000
,
0010
0000
0100
0000
0010
0100
0010
0000
0100
0001
0100
0001
1000
0100
1000
0000
,
1000
0000
0000
0000
1001
0000
0000
0000
0100
0000
0001
0000
1000
0000
0000
0000
0001
0000
0000
0000
1001
0000
0000
0000
0100
0000
0000
1000
0001
0000
0000
0000
,
0010
0000
0100
0000
0010
0100
0010
0000
0100
1000
0100
1000
0001
0100
0001
0000
,
0001
0000
0000
0000
1001
0000
0000
0000
0010
0000
1000
0000
0001
0000
0000
0000
1000
0000
0000
0000
1001
0000
0000
0000
0010
0000
0000
0001
1000
0000
0000
0000
,
0100
0000
0010
0000
0100
0010
0100
0000
0010
0001
0010
0001
1000
0010
1000
0000
,
1000
0000
0000
0000
1001
0000
0000
0000
0010
0000
0001
0000
1000
0000
0000
0000
0001
0000
0000
0000
1001
0000
0000
0000
0010
0000
0000
1000
0001
0000
0000
0000
,
0100
0000
0010
0000
0100
0010
0100
0000
0010
1000
0010
1000
0001
0010
0001
0000
,
1000
0010
0101
0000
1000
0010
0101
0000
,
1000
0010
0101
0000
1000
0010
0110
0000
,
0001
0000
0000
0000
;

//--------------- dance-double - Jenro Jupitel (2021) ----------------
#NOTES:
     dance-double:
     Jenro Jupitel (2021):
     Challenge:
     11:
     0,0,0,0,0:
00000000
00000000
00000000
00000000
,
00000000
00000000
00000000
00000000
,
00000000
00000000
00000000
00000000
,
00000000
00000000
00000000
00000000
,
00001000
01000000
00100000
01000000
00001000
01000000
00100000
01000000
,
00100000
00001000
00100000
01000000
00100000
00001000
00100000
01000000
,
00010000
00001000
00000010
00000100
00010000
00001000
00000010
00000100
,
00001000
00000000
00000001
00000000
00000100
00000000
00000010
00000000
00000000
00000000
00000010
00000000
00000010
00000000
00001000
00000100
,
00010000
00000000
20000000
00000000
30100000
01000000
00010000
00000000
,
00000200
00000000
00000301
00000000
00000010
00000100
00011000
00000000
,
00010000
00000100
00020000
00030000
00001000
01000000
00002000
00003000
,
10000000
10000000
00010000
00100000
00010000
10000000
01000000
00100000
,
01000000
00000000
00011000
00000000
00000100
00010000
00001000
00000000
,
01000000
01000000
00100000
00100000
10000000
01000000
00110000
00000000
,
00001000
00001000
00010000
00010000
00000100
00010000
00010100
00000000
,
00001000
01000000
00100000
01000000
00100000
00001000
01000000
00100000
,
00010000
02000000
00000000
03001000
00000000
00001000
00000010
00000100
,
00000001
00000020
00000000
00000230
00000000
00020300
00000000
00032000
,
00000000
00000000
00000000
00000000
01003000
00000000
00010000
00000000
02000000
00000000
00000000
00000000
03000000
00000000
00000000
00000000
00000000
00000000
00000000
00000000
00000000
00000000
00000000
00100000
01000000
00000000
00000000
00000000
00000000
00000000
00000000
00000000
,
00010000
01000000
00000000
10000000
00000000
01000000
01000000
01000000
,
01000000
00000000
00100000
01000000
00000000
00001000
00010000
00000010
,
00000100
00000000
00010000
00001000
00000000
10000000
00100000
01000000
,
00010000
00000000
00010000
00001000
00000000
00001000
00000001
00000010
,
00000100
00000000
00010000
01000000
00100000
10000000
01000000
00010000
,
00011000
01001000
00011000
00010100
,
00000010
00000010
00010000
00010000
00001000
00000100
00000110
00000000
,
00001000
00000100
00001000
00000100
00000010
00000001
00000010
00000000
,
00000100
00000000
00010000
00000000
00001000
00000000
00100000
00001000
00100000
00000000
00010000
00000000
00001000
00010000
00001000
00000000
,
00011000
00000000
00000100
00010000
00000000
00001000
00000000
00110000
,
00000000
00001000
00010000
00010000
00000010
00010000
00001000
00010000
,
00010000
00000000
00001000
00100000
00000000
00011000
00000000
00010100
,
00000000
00010000
00000100
00000010
00000100
00010000
00001000
00010000
,
00010100
00000000
00001000
01010000
00000000
00011000
00000000
00010100
,
00000000
10000000
01000000
10000000
00010000
00100000
01100000
00010000
,
10010000
00000000
00010000
00011000
00000000
00110000
00000000
00010010
,
00000000
00000010
00000010
00000001
00001001
00000100
00011000
01000000
,
10010000
00000000
00100000
10000000
00000000
10000000
01000000
00100000
,
00110000
00000000
10000000
11000000
00000000
00010000
01010000
01000000
,
01100000
10000000
00000000
00100000
00000000
11000000
00000000
00010000
,
00001000
00010000
00001000
00000000
00100000
00000000
00001000
00100000
00001000
00000000
00001000
00000000
00000100
00001000
00000100
00000000
,
00001001
00000001
00000100
00001000
00000001
00001000
00000001
00001000
,
00000001
00000100
00001000
00000001
00001000
00000001
00001000
00000001
,
00000001
00000100
00000010
00000000
00000100
00000000
00000010
00000000
00000010
00001000
00000100
00000000
00001000
00000000
00000001
00000000
,
00000010
00000001
00000010
00000000
00000010
00000000
00000100
00000000
00001000
00000100
00001000
00000000
00001000
00000000
00000010
00000000
,
00000100
00000000
00010000
00011000
00000000
00110000
00000000
00101000
,
00000000
10000000
01000000
00100000
11000000
00100000
11000000
00100000
,
11000000
00000000
00010000
00011000
00000000
00001100
00000000
00010100
,
00000000
00000010
00000001
00000100
00000011
00000100
00000011
00000100
,
00000011
00000000
00001000
00011000
00000000
00010100
00000000
00101000
,
00000000
10000000
00010000
00100000
01100000
10000000
10010000
01000000
,
01100000
00000000
00010000
00011000
00000000
00101000
00000000
00010100
,
00000000
00000001
00001000
00000100
00000110
00000001
00001001
00000010
,
00000110
00000000
00001000
00011000
00000000
10010000
00000000
01010000
,
00000000
10000000
00100000
01000000
01010000
00100000
01100000
10000000
,
10010000
01000000
00010000
00011000
00000000
00001001
00000000
00001010
,
00000000
00000001
00000100
00000010
00001010
00000100
00000110
00000001
,
00001000
00000000
00000000
00000000
00011000
00000000
00000000
00000000
00100000
00000000
10000000
00000000
00010000
00000000
00000000
00000000
00010000
00000000
00000000
00000000
00011000
00000000
00000000
00000000
00000010
00000000
00000000
00010000
00001000
00000000
00000000
00000000
,
01000000
00000000
00100000
00000000
01000000
00100000
01000000
00000000
00100000
00010000
00100000
00010000
10000000
00100000
10000000
00000000
,
00010000
00000000
00000000
00000000
00011000
00000000
00000000
00000000
00000100
00000000
00000001
00000000
00001000
00000000
00000000
00000000
00001000
00000000
00000000
00000000
00011000
00000000
00000000
00000000
01000000
00000000
00000000
00001000
00010000
00000000
00000000
00000000
,
00000010
00000000
00000100
00000000
00000010
00000100
00000010
00000000
00000100
00001000
00000100
00001000
00000001
00000100
00000001
00000000
,
00000001
00000100
00010100
00000000
00010000
01000000
01001000
00000000
,
10000000
01000000
01001000
00000000
00001000
00000100
00010100
00000000
,
00010000
00000000
00000000
00000000
;
