#TITLE:Emergency;
#SUBTITLE:;
#ARTIST:DJ Johnrey, Prezioso, Marvin & Andrea Prezioso;
#TITLETRANSLIT:;
#SUBTITLETRANSLIT:;
#ARTISTTRANSLIT:;
#GENRE:;
#CREDIT:;
#MUSIC:Emergency.ogg;
#BANNER:Emergency-bn.png;
#BACKGROUND:Emergency-bg.png;
#CDTITLE:cdtitle.png;
#SAMPLESTART:93.716;
#SAMPLELENGTH:13.714;
#SELECTABLE:YES;
#OFFSET:0.399;
#BPMS:0.000=140.000
,168.000=335.595
,202.000=167.798
,204.000=140.000
;
#STOPS:;
#DISPLAYBPM:140.000;
#BGCHANGES:0.399=Emergency.mp4=1.000=1=0=0=StretchNoLoop==CrossFade==,
99999.000=-nosongbg-=1.000=0=0=0=StretchNoLoop====
;
#FGCHANGES:;

//--------------- dance-single - Jenro Jupitel (2024) ----------------
#NOTES:
     dance-single:
     Jenro Jupitel (2024):
     Beginner:
     6:
     0,0,0,0,0:
0000
0000
0000
0000
,
0000
0000
0000
0000
,
1000
0000
1000
0100
,
1000
0000
0001
0000
,
0001
0000
0100
1000
,
0001
0000
0001
0000
,
0001
0000
0001
1000
,
0001
0000
1000
0000
,
1000
0000
0100
0001
,
1MM0
0MM1
1MM0
MMMM
,
0001
0100
0000
0100
,
0000
0100
1000
0100
,
1000
0010
0000
0010
,
0000
0010
0001
0010
,
0001
0010
1000
0010
,
0001
0010
1000
0010
,
0001
0100
1000
0100
,
M001
MM00
MMM0
MM00
,
M010
0100
1000
0001
,
0010
0100
0000
0001
,
0100
0010
1000
0001
,
0100
0010
1000
0000
,
0010
0100
1000
0001
,
0100
0010
1000
0000
,
1000
1000
0010
0001
,
M001
MM00
MMM0
MM00
,
M001
1000
0100
1000
,
0001
0100
0001
0010
,
0000
1000
0100
1000
,
0001
0100
0001
0000
,
0001
1000
0100
1000
,
0001
0100
0001
0000
,
0100
1000
0001
0100
,
0010
MM0M
MM0M
MM0M
,
0010
0100
0001
1000
,
0010
0100
0001
1000
,
0010
1000
0001
0100
,
0010
1000
0001
0100
,
0010
0001
1000
0100
,
0010
1000
0001
0100
,
0010
0100
1000
0001
,
0100
0010
1000
0001
,
0000
0000
0000
0000
,
0000
0000
0000
0000
,
0000
0000
0000
0000
,
0000
0000
0000
0000
,
0000
0000
0000
0000
,
0000
0000
0000
0000
,
0000
0000
0000
0000
,
0000
0000
0000
0000
,
0000
0000
0000
0000
,
1000
0010
1000
0001
,
0010
0001
0100
0100
,
0001
0010
0001
1000
,
0010
1000
0100
0100
,
1000
0001
0100
0001
,
1000
0100
0100
0100
,
0010
0010
0001
0001
,
1000
1000
0100
0100
,
0100
M0MM
M0MM
M0MM
,
1000
0000
0001
0000
,
1000
0000
0001
0000
,
0001
0000
1000
0000
,
1000
0000
0100
0000
,
1001
0000
0010
0000
,
0100
0000
0110
0000
,
1001
0000
0100
0000
,
0010
0010
1001
0110
,
0001
0100
1000
0100
,
1000
0100
0001
0100
,
0001
0010
1000
0010
,
1000
0010
0001
0010
,
0100
1000
0001
0100
,
0010
0001
1000
0010
,
0100
1000
0001
0100
,
0020
0000
0030
0000
,
0101
0000
0001
0000
,
1100
0000
1000
0000
,
1001
0000
0100
0000
,
1010
0000
0011
0000
,
0101
0000
0001
0000
,
1100
0000
1000
0000
,
1001
0000
0100
0000
,
0011
0000
1010
0000
,
0001
0100
0001
0010
,
0100
0100
0100
0010
,
1000
0100
1000
0010
,
0100
0100
0100
0010
,
1000
0001
0010
0001
,
0100
0001
1000
0010
,
1000
0100
0001
0010
,
0001
1000
0001
0000
;

//--------------- dance-single - Jenro Jupitel (2024) ----------------
#NOTES:
     dance-single:
     Jenro Jupitel (2024):
     Easy:
     8:
     0,0,0,0,0:
0000
0000
0000
0000
,
0000
0000
0000
0000
,
0010
0000
0010
0000
0100
0000
1000
1000
,
0001
0001
1000
1000
,
0010
0000
0010
0000
0100
0000
0001
0001
,
1000
0001
1000
0001
,
0010
0000
0010
0000
0100
0000
1000
1000
,
0001
0000
1000
0000
0001
0001
1000
0000
,
0010
0010
0010
0000
0100
0100
0001
0000
,
1001
1001
0110
MMMM
,
1000
0000
0020
0030
1000
0000
0200
0300
,
0001
0000
0020
0030
0001
0001
0200
0300
,
0010
0000
2000
3000
0001
0000
0020
0030
,
0001
0000
2000
3000
0010
0000
1010
0000
,
0100
0000
0020
0030
0100
0000
0020
0030
,
0001
0000
0020
0030
0001
0000
0200
0300
,
0010
1000
2000
3000
0010
1000
1000
0100
,
0100
M0MM
M0MM
M0MM
,
1000
0001
1000
0010
,
0001
0000
0010
0000
1000
0001
0000
0001
,
1000
0001
0010
1000
,
0010
0000
0001
0000
1000
0001
0000
0001
,
1000
0100
0010
0001
,
0100
0000
0001
0000
1000
0100
0000
0010
,
0001
0001
1000
0010
,
0200
0000
0000
0000
,
0301
0000
0020
0030
1000
0000
0020
0030
,
0001
0000
0020
0030
1000
MMMM
0000
MMMM
,
0010
0000
0002
0003
0010
0000
2000
3000
,
0010
0000
0002
0003
0010
MMMM
0000
MMMM
,
0010
0000
0002
0003
0010
0000
2000
3000
,
0010
0000
0002
0003
0000
MMMM
0000
MMMM
,
0000
0000
1000
0010
1000
0010
1000
0000
,
MMMM
0000
0001
0000
0001
0000
0001
0001
,
1000
1010
0100
0010
,
0001
0000
0001
0000
1000
1000
1000
0000
,
0001
0011
0001
0100
,
0001
0000
0011
0000
0010
0010
0100
0000
,
1000
0001
1000
0010
,
1000
0000
1000
0000
0001
0001
0100
0000
,
0010
0001
1000
0010
,
0200
0310
0200
0310
,
0220
0000
0000
0000
,
0000
0000
0000
0000
,
0000
0000
0000
0000
,
0000
0000
0000
0000
,
0000
0000
0000
0000
,
0000
0000
0000
0000
,
0000
0000
0000
0000
,
0000
0000
0000
0000
,
0000
0000
0000
0330
,
1000
0001
0010
0001
,
1000
0000
0010
0000
1000
1000
0100
0000
,
0010
0100
0010
0001
,
0100
0000
0010
0000
0100
0000
0010
0010
,
1000
0010
0100
0010
,
0100
0000
0001
0000
0010
0010
0100
0000
,
1000
0001
0010
1000
,
0001
0010
2000
3001
,
MMMM
MMMM
MMMM
MMMM
,
0100
1000
0100
0001
,
1000
0000
0001
0000
1000
1000
0001
0000
,
1000
0010
1000
0001
,
0010
0100
1000
1001
,
1000
0010
0001
0010
,
1000
0000
0100
0000
0001
0001
0100
0000
,
1000
0001
1000
0001
,
0010
0110
0010
1001
,
0010
0100
0001
1000
,
0010
0000
0100
0000
1000
1000
0001
0000
,
1000
0010
0001
0100
,
0001
0010
1000
0110
,
1000
0010
0001
0100
,
0100
0001
0001
1000
,
1000
1000
0100
0000
0010
0010
0001
0000
,
2000
0000
3001
1001
,
0001
0010
0001
0010
,
1000
0000
0100
0000
0010
0001
0001
0100
,
0100
0010
0001
1000
,
0001
0000
0010
0000
0001
0100
0100
0010
,
0010
1000
0100
0010
,
0100
0000
1000
0000
0001
0010
0010
0100
,
0100
0010
0001
0010
,
0100
0001
1000
0110
,
0100
0100
1000
0000
0010
0010
0001
0000
,
0100
0100
0010
0000
0100
0100
0010
0000
,
0100
0100
0001
0000
0010
0000
1000
0000
,
0100
0000
0010
0000
0100
0100
0010
0000
,
0100
1000
0010
0001
,
0100
0000
0010
0000
0100
0100
0010
0000
,
0100
0001
1000
0010
,
0100
0000
0100
0000
0100
0100
0100
0100
;

//--------------- dance-single - Jenro Jupitel (2024) ----------------
#NOTES:
     dance-single:
     Jenro Jupitel (2024):
     Medium:
     12:
     0,0,0,0,0:
0000
0000
0000
0000
,
0000
0000
0000
0000
,
0010
0001
1000
0000
0010
1000
0001
0000
,
0010
0001
0100
0000
0010
1000
0100
0000
,
0010
0100
0010
0000
0100
0010
0100
0000
,
1000
0100
0001
0100
,
0010
1000
0001
0000
1000
0100
0001
0000
,
0001
0010
0100
0000
1000
0010
0010
0000
,
0100
0001
0100
0000
1000
0100
0100
0010
,
0001
1000
0101
1000
,
0001
0010
0100
0000
0001
0010
0100
0000
,
0001
0100
0001
0000
1000
0100
0010
0100
,
1000
0010
0100
0000
0001
0100
0001
0000
,
0010
0001
0010
0000
0100
1000
0100
1000
,
0010
0100
0001
0000
0010
0001
0100
0000
,
0010
1000
0100
0000
0010
0100
0010
0000
,
1000
0001
0100
0001
1000
0001
0100
0001
,
2000
0000
0000
0000
,
3010
0100
0001
0010
0100
1000
0100
1000
,
0010
0100
0001
0100
0001
0010
0100
0010
,
0100
1000
0010
0100
0010
0100
0001
0010
,
0001
0100
0001
1000
0010
0100
0001
1000
,
0100
1000
0010
0100
0001
1000
0010
0100
,
0001
0010
0100
0010
0100
1000
0001
1000
,
0001
0100
0001
1000
0010
0100
0010
1000
,
0100
1000
0100
1000
0010
0100
0010
0100
,
0001
0001
0010
0000
0100
0100
1000
0000
,
0010
0010
1000
0000
0001
0001
0100
0001
,
0010
0010
0100
0000
1000
1000
0100
0000
,
1000
1000
0010
0000
0100
0100
0001
0000
,
0001
0001
0010
0000
0100
0100
1000
0000
,
0001
0001
0100
0000
0010
0010
1000
1000
,
0001
1000
0100
0000
1000
0001
0100
0000
,
0010
0000
0010
0000
0010
0000
0010
0010
,
0100
0001
0100
0001
0010
0100
0010
0100
,
1000
0100
1000
0100
1000
0010
0100
0001
,
0010
0001
1000
0100
1000
0010
0100
0001
,
0010
0100
0001
1000
0001
1000
0010
0000
,
0100
0010
0100
0001
1000
1000
0001
1000
,
2000
0000
3100
0000
0010
0001
0101
0000
,
0010
1000
1001
0000
1000
0100
1100
0000
,
0120
0000
0000
0031
,
0000
0000
0000
0000
,
0000
0000
0000
0000
,
0000
0000
0000
0000
,
0000
0000
0000
0000
,
0000
0000
0000
0000
,
0000
0000
0000
0000
,
0000
0000
0000
0000
,
0000
0000
0000
0000
,
0000
0000
0000
0000
,
0010
0001
0100
0010
0100
0100
0001
1000
,
0010
1000
1000
0001
0010
0001
0001
0000
,
0100
0001
0001
0100
0100
0010
1000
0010
,
0100
0100
0001
0010
0100
1000
0001
0001
,
0001
0100
0101
0000
0100
0010
0110
0000
,
1000
0100
1100
0000
0001
0100
0101
0000
,
1000
0001
0100
0001
1000
0100
1000
0010
,
1000
0100
0010
0100
0010
0001
1000
1000
,
0002
0023
0230
2300
,
3100
0010
0001
0000
0010
0100
1000
0000
,
0010
0100
0001
0000
0010
0100
1000
0000
,
0001
1000
0001
0000
1000
0100
1000
0000
,
0001
0100
0001
0000
0010
0100
1000
0100
,
0010
0001
1000
0000
0010
1000
0010
0000
,
0001
0100
0001
0000
1000
0100
1000
0000
,
0001
0010
0100
0000
0010
0001
0100
0010
,
1000
0001
0120
0130
,
1000
0100
0100
0000
0010
0010
0100
0000
,
0001
0100
0100
0010
1000
1000
0001
0000
,
0001
0010
0100
0010
0100
1000
0001
1000
,
0100
0100
0010
0001
0100
0100
0010
1000
,
0001
1000
0100
1000
0010
0010
0100
0001
,
0010
0010
0100
1000
0001
1000
1000
0100
,
1000
0010
0010
0100
0001
0010
0100
0100
,
0001
0000
0000
0000
,
0100
0001
0100
1000
0100
0001
0010
0001
,
1000
0100
1000
0010
0100
0001
1000
0001
,
1000
0001
1000
0100
1000
0100
1000
0010
,
0100
0010
0100
0001
0010
0001
1000
0000
,
1000
0010
0100
0010
0100
0001
0010
0010
,
0100
1000
0010
0100
0010
0100
0001
1000
,
0001
0100
0010
0100
0001
1000
0100
0010
,
0100
0000
0000
0000
0001
0000
1000
0001
,
1000
0100
0100
1000
0100
0100
0100
1000
,
0010
0010
0010
0100
0001
0001
0100
0100
,
0010
0010
0010
0010
0100
0001
1000
0100
,
0010
0100
0010
0100
0010
0001
1000
0001
,
1000
0100
0010
0000
0010
0100
1000
0100
,
1000
0001
0100
0001
1000
1000
0001
0001
,
1000
0100
0001
0000
0001
0100
1000
0000
,
2000
0000
0000
0000
0000
0000
0000
3000
;

//--------------- dance-single - Jenro Jupitel (2024) ----------------
#NOTES:
     dance-single:
     Jenro Jupitel (2024):
     Hard:
     16:
     0,0,0,0,0:
0000
0000
0000
0000
,
0000
0000
0000
0000
,
0000
0000
0000
0000
,
0000
0000
0000
0000
,
0001
1000
0100
0000
0100
1000
0010
0000
,
0001
0100
0001
0010
0001
0100
0001
1000
,
0010
0100
0001
0000
0100
0010
0100
0000
,
0001
1000
1000
0100
0010
0000
0001
0100
,
0001
0001
1000
0000
0010
1000
1000
0010
,
0200
0301
0010
0110
,
1000
0001
0100
0000
0001
1000
0100
0000
,
1000
0001
0010
0000
0100
1000
0100
1000
,
0010
0100
0001
0000
0010
0001
0100
0000
,
0010
1000
0100
0000
1000
0001
1000
0001
,
0100
0010
0100
0000
0010
1000
0100
0000
,
0010
0001
0100
0000
0010
1000
0001
0100
,
0010
0100
0001
1000
0100
0010
0100
1000
,
1002
0000
0000
0000
1003
0000
1001
1001
,
0100
0001
0001
0010
0100
1000
1000
0010
,
0100
0001
0001
0100
0010
1000
1000
0001
,
0001
1000
0100
0010
0100
0100
0010
0001
,
0001
0100
0100
0010
0010
1000
1000
0001
,
0001
1000
0100
1000
0001
1000
0100
0010
,
0100
0001
0010
0100
1000
0001
1000
0100
,
1000
0010
0100
0010
0100
0001
0010
0100
,
0010
0100
1000
0010
0100
0010
0100
0001
,
0010
0100
0001
0100
1000
0100
0001
1000
,
0010
0100
0001
0100
1000
0100
0001
0100
,
1000
0010
0100
0001
0010
0001
1000
0010
,
1000
0100
0001
0100
1000
0010
0100
0001
,
1000
0100
1000
0001
0100
0001
1000
0010
,
0100
0001
0010
0001
1000
0100
1000
0010
,
0100
0001
0010
0100
1000
0010
0100
0010
,
0100
0000
1010
0000
1100
0000
1001
1001
,
1000
0001
0100
0001
0010
0001
0100
0001
,
1000
0100
0100
1000
0100
1000
0010
0100
,
0001
0100
0001
0010
0001
0001
1000
0100
,
1000
0010
0100
0010
0100
0001
0010
0001
,
1000
0100
0100
1000
0100
0100
0100
1000
,
0100
0100
0100
0100
0010
0001
0010
0001
,
0001
0100
0100
0010
0100
0010
1000
0001
,
0100
0010
0100
0001
1000
0100
0010
0001
,
1000
0000
0000
0000
,
0000
0000
0000
0000
,
0000
0000
0000
0000
,
0000
0000
0000
0000
,
0000
0000
0000
0000
,
0000
0000
0000
0000
,
0000
0000
0000
0000
,
0000
0000
0000
0000
,
0000
0000
0000
0000
,
0001
1000
0001
1000
0100
0000
0010
0000
0100
1000
0100
1000
0100
0000
0010
0000
,
0001
0100
0001
0100
0010
0000
0100
0000
0010
0100
0001
0100
0001
0000
0001
0000
,
0010
0001
0010
0001
0010
0000
0100
0000
1000
0010
1000
0100
1000
0000
0010
0000
,
0100
0001
0100
0001
0100
0000
0010
0000
1000
0100
1000
0100
0010
0000
0001
0000
,
1000
0001
0100
0001
1000
0000
0100
0000
1000
0010
0100
0010
0100
0000
0001
0000
,
0010
0001
0010
0100
0010
0000
0100
0000
1000
0100
1000
0100
0010
0000
0001
0000
,
1000
0100
0010
0100
0010
0000
0001
0100
0010
0000
0100
0010
0100
0000
1000
0100
,
0010
0000
0001
0100
0010
0000
1000
0001
1000
0000
0001
1000
0001
0000
0100
0000
,
0001
1000
0001
1000
0002
0000
1003
0000
,
1000
0100
0010
0001
1000
0000
0001
0000
0100
0001
0100
0010
0100
0000
0010
0000
,
1000
0100
1000
0010
1000
0000
0001
0000
1000
0100
1000
0001
1000
0000
0010
0000
,
0100
0001
0100
0010
0100
0000
0001
0000
0010
0100
1000
0100
1000
0000
0100
0000
,
0010
0100
0010
0100
0010
0000
0001
0000
0100
0001
0100
0010
0100
0000
0001
0000
,
1000
0100
0010
0001
1000
0000
0001
0000
0001
0100
0010
1000
0001
0000
1000
0000
,
0100
0010
0100
1000
0100
0000
1000
0000
0010
0100
0010
0100
0001
0000
0010
0000
,
0100
1000
0100
1000
0100
0000
1000
0000
0001
0100
0001
0010
0001
0000
0010
0000
,
0200
0310
0200
0310
0100
0000
1001
0000
,
1000
0100
0010
0001
1000
0010
0100
0000
0001
1000
0010
0100
0001
1000
0100
0000
,
0010
0001
1000
0100
0010
0100
1000
0001
1000
0010
0100
0001
1000
0010
0100
0000
,
0001
1000
0001
0100
0010
1000
0100
0000
1000
0100
1000
0010
0100
0001
0100
0000
,
0001
1000
0010
1000
0100
0010
0100
0010
0001
0100
0010
0100
0001
1000
0100
0000
,
0100
1000
0001
1000
0100
0010
0100
0000
0010
0001
0100
0001
0010
0001
1000
0000
,
0100
1000
0010
1000
0001
1000
0100
0000
0010
0100
0010
0100
0010
0001
0010
0000
,
0001
1000
0001
1000
0001
0100
0010
0100
0001
1000
0100
0010
0100
1000
0001
0100
,
0020
0000
0000
0000
0000
0000
1000
1000
,
0130
1000
0001
1000
0010
0100
0010
0100
0001
0000
0010
0000
0100
1000
0100
1000
,
0010
0100
0010
0100
0001
0100
0001
0100
0010
1000
0001
0100
0010
0100
0001
0000
,
1000
0100
1000
0010
0100
0000
0001
0000
0010
0001
0100
0001
0100
0000
1000
0000
,
0100
1000
0001
1000
0010
0100
0001
0010
0100
0010
0100
0010
0001
0100
0010
1000
,
0001
1000
0100
0010
0100
0000
1000
0000
0010
0100
0001
1000
0100
0000
1000
0000
,
0100
1000
0001
0010
0001
0100
0010
0100
0001
1000
0100
0010
0100
1000
0100
0000
,
0010
0001
0010
0001
0100
0000
0010
0000
1000
0010
1000
0010
0100
0000
0001
0000
,
2000
0000
0000
0000
,
3100
0010
0001
1000
0001
0000
1000
0000
0010
1000
0010
1000
0010
0000
0100
0000
,
0001
0100
0001
0100
0001
0100
0001
0100
0001
0010
0001
1000
0010
0000
0100
0000
,
0100
0001
1000
0001
0100
0000
1000
0000
0001
0010
0001
0100
0001
1000
0100
0010
,
0001
0000
1000
0000
0001
0000
0100
0000
0001
0010
0001
0100
0001
1000
0100
0000
,
0001
0010
0001
1000
0100
0000
1000
0000
0001
1000
0010
1000
0010
0100
0001
0000
,
0001
0010
0001
0010
0001
1000
0100
0010
0001
0000
0100
0000
0001
0100
0010
1000
,
0010
0000
1000
0000
1000
0001
1000
0000
0010
0100
0010
0100
0010
0100
0010
0000
,
0001
1000
0001
0010
0100
1000
0001
1000
0010
0100
0010
1000
0010
0100
0001
0000
;
