#TITLE:Dulce Tirah Tirah;
#SUBTITLE:;
#ARTIST:Blanktape & Diorap;
#TITLETRANSLIT:;
#SUBTITLETRANSLIT:;
#ARTISTTRANSLIT:;
#GENRE:;
#CREDIT:John Earl de Juan;
#MUSIC:Dulce Tirah Tirah.ogg;
#BANNER:Dulce Tirah Tirah-BN.png;
#BACKGROUND:Dulce Tirah Tirah-BG.png;
#CDTITLE:;
#SAMPLESTART:57.488;
#SAMPLELENGTH:13.913;
#SELECTABLE:YES;
#OFFSET:-0.097;
#BPMS:0.000=138.000;
#STOPS:;
#DISPLAYBPM:138.000;
#BGCHANGES:;
#FGCHANGES:;

//--------------- dance-single - John Earl de Juan ----------------
#NOTES:
     dance-single:
     John Earl de Juan:
     Beginner:
     2:
     0.177,0.17,0.112,0,0:
0000
0000
0000
0000
,
0000
0000
0000
0000
,
0000
0000
0000
0000
,
0000
0000
0000
0000
,
0000
0000
0000
0000
,
0001
0000
0100
0100
,
0000
0000
0010
0010
,
0000
0000
1000
1000
,
0000
0000
0110
0000
,
1000
0000
0100
0000
,
0100
0000
0010
0000
,
0001
0000
0001
0000
,
0100
0000
0010
0000
,
1000
0000
0100
0000
,
0001
0000
0100
0000
,
0010
0000
1000
0000
,
0010
0000
0001
0000
,
0001
0000
0001
0000
,
1000
0000
1000
0000
,
0010
0000
0010
0000
,
0100
0000
1001
0000
,
1000
0000
0100
0100
,
0000
0000
0010
0010
,
0000
0000
0001
0001
,
0001
0000
1001
0000
,
1000
0000
0001
0000
,
0100
0100
0100
0000
,
0010
0000
0100
0000
,
0010
0000
1001
0000
,
0010
0000
0100
0000
,
0001
0001
0001
0000
,
1000
0000
0100
0000
,
0001
0000
0110
0000
,
0000
0000
0100
0100
,
0000
0000
0010
0010
,
0000
0000
1000
1000
,
0000
0000
1001
0000
,
1000
0000
0001
0001
,
0000
0000
0100
0100
,
0000
0000
0010
0010
,
0000
0000
1001
0000
,
1000
0100
0000
0000
,
0010
0001
0000
0000
,
0010
1000
0000
0000
,
0100
0001
0000
0000
,
1000
0000
0001
0000
,
0010
0000
0100
0000
,
0001
0000
1000
0000
,
0100
0000
1001
0000
,
1000
0000
0001
0000
,
0100
0100
0100
0000
,
0010
0000
1000
0000
,
0001
0000
1001
0000
,
0010
0000
0100
0000
,
0001
0001
0001
0000
,
1000
0000
0100
0000
,
0001
0000
0110
0000
,
0001
0000
1000
0000
,
0100
0000
0010
0010
,
0000
0000
0001
0000
,
0100
0000
1001
1001
;

//--------------- dance-single - John Earl de Juan ----------------
#NOTES:
     dance-single:
     John Earl de Juan:
     Easy:
     5:
     0.295,0.286,0.065,0.093,0:
0000
0000
0000
0000
,
0000
0000
0000
0000
,
0000
0000
0000
0000
,
0000
0000
0000
0000
,
0000
0000
1000
1000
,
0002
0000
1003
1000
,
2000
0000
3010
0010
,
0020
0000
0031
0001
,
0010
1000
0100
0001
,
1000
0100
0010
0001
,
0001
0010
0100
1000
,
0001
0100
1000
0100
,
0010
1000
1000
0010
,
0001
1000
0001
1000
,
0010
0100
0010
0100
,
0010
0001
0100
1000
,
1000
0100
0001
0010
,
1000
0000
0100
0100
,
0001
0000
0010
0010
,
0100
0000
0001
0001
,
0100
0000
1000
1000
,
0001
0000
1000
0001
,
0100
0000
0010
1000
,
0001
0000
0100
0010
,
0001
1000
1000
1000
,
0010
0010
1000
0001
,
0100
0100
1001
0100
,
0010
0100
0001
1000
,
0010
0000
0110
0000
,
1000
0001
0010
0100
,
0001
0001
1000
1000
,
0010
0100
0010
0010
,
0100
0000
1001
0000
,
2000
0000
3001
0001
,
0020
0000
1030
1000
,
0200
0000
0310
0010
,
0010
0001
1000
0100
,
0002
0000
0103
1000
,
2000
0000
3100
0001
,
0020
0000
0130
0010
,
0001
1000
0010
0100
,
1000
0001
1000
0001
,
0010
0100
0010
0100
,
0010
1000
0010
0001
,
1000
0100
0001
0100
,
1000
0010
0010
1000
,
0001
0010
0010
0001
,
0100
1000
1000
0100
,
0001
0100
0100
0001
,
1000
0100
1000
1000
,
0010
0001
0010
0010
,
0001
1000
0100
0010
,
1001
0000
0110
0000
,
0100
0010
1000
1000
,
0010
0100
0001
0001
,
0100
0010
1000
0001
,
1001
0000
0110
0000
,
0001
0000
1000
0000
,
0100
0000
0010
0010
,
0001
0000
1000
0000
,
0010
0000
0100
0200
,
0000
0300
0000
0000
;

//--------------- dance-single - John Earl de Juan ----------------
#NOTES:
     dance-single:
     John Earl de Juan:
     Medium:
     7:
     0.367,0.373,0.168,0.121,0:
0000
0000
0000
0000
,
0000
0000
0000
0000
,
0000
0000
0000
0000
,
0000
0000
0000
0000
,
0000
0000
0000
0000
0010
1000
0001
0000
,
0001
0000
0001
0000
0001
0100
1000
0000
,
1000
0000
1000
0000
1000
0100
0001
0000
,
0010
0000
0010
0000
0010
0001
0100
0000
,
1000
0001
1000
0000
0001
1000
0001
0000
,
0010
0100
0001
1000
,
0101
0000
1100
0000
0010
0100
0100
0000
,
0001
1000
0100
0010
,
0011
0000
1010
0000
0001
1000
1000
0000
,
0001
0001
1000
1000
,
0001
0100
1000
0100
,
0001
0100
0001
0000
0001
0010
0001
0000
,
1000
0100
0010
0001
,
1000
0000
0100
0100
,
0001
0000
0000
0000
0001
0010
0100
0000
,
0001
0000
0010
0010
,
0100
0000
0000
0000
1000
0010
0100
0000
,
1000
0001
0100
0100
,
0001
1000
0010
0010
,
0001
1000
0100
0000
1000
0001
0100
0000
,
0010
0100
0010
0000
0100
0010
0100
0000
,
2000
0001
0000
3001
,
0020
0100
0000
0130
,
0002
1000
0000
1003
,
0010
0100
0000
0100
0010
0000
0110
0000
,
0200
0010
0000
0301
,
2000
0001
0000
3100
,
0020
1000
0000
0130
,
0001
1000
0000
0100
0010
0000
0001
1000
,
0100
0000
0001
0000
,
1001
0000
0000
0000
0010
1000
0001
0000
,
1000
0000
0010
0000
,
1100
0000
0000
0000
0001
0100
0010
0000
,
0001
0000
1000
0000
0001
1000
0100
0000
,
1000
0000
0001
0000
0010
1000
0001
0000
,
0100
0010
1000
1001
,
0010
0001
0100
1000
,
0001
0000
0100
0000
0010
0100
0100
0000
,
1000
0000
0010
0000
0100
0100
0010
0000
,
1000
1000
1000
0000
0100
0100
0100
0000
,
0010
0000
0001
0000
0010
0001
0010
0000
,
0100
0100
1001
1100
,
0010
0010
1001
0101
,
0001
1000
0001
0000
0010
0100
0010
0000
,
0010
0000
0010
0000
0100
0001
1000
0000
,
2000
0001
0000
3001
,
0020
0100
0000
0130
,
0002
1000
0000
1003
,
0010
0100
0000
0100
0010
0000
0110
0000
,
0200
0010
0000
0301
,
2000
0001
0000
3100
,
0020
1000
0000
0130
,
0001
1000
0000
0100
0010
0000
0001
1000
,
0100
0000
1001
0000
,
0110
0000
0000
0000
0001
0100
0001
0000
,
0001
0000
1000
0000
,
0110
0000
0000
0000
0001
0010
0100
2000
,
0000
0000
3000
0000
;

//--------------- dance-single - John Earl de Juan ----------------
#NOTES:
     dance-single:
     John Earl de Juan:
     Hard:
     10:
     0.51,0.488,0,0.215,0:
0000
0000
0000
0000
,
0000
0000
0000
0000
,
0000
0000
0000
0000
,
0000
0000
0000
0000
,
0000
0000
0000
0000
0001
1000
0100
0010
,
0002
0000
1003
0000
0001
0010
0100
1000
,
2000
0000
3001
0000
0010
0100
0001
1000
,
0200
0000
1300
0000
0010
0001
1000
0001
,
0100
0100
0001
0001
1000
1000
0010
0010
,
1000
0100
1000
0010
1000
0100
1000
0010
,
0100
0010
0100
0001
0100
0010
0100
0000
,
1000
0100
0001
0010
1000
0010
0001
0000
,
0001
0010
1000
0100
0001
0100
1000
0000
,
0001
0001
0100
0100
0010
1000
0100
0000
,
1000
1000
0010
0010
0100
0010
0001
0000
,
0001
1000
0100
0010
0100
1000
0001
0000
,
1000
0010
1000
0001
0010
0001
1000
0000
,
1000
0010
1000
0010
0100
0001
0100
0000
,
0010
0001
0010
0001
1000
0100
1000
0000
,
0100
1000
0100
1000
0001
1000
0001
0000
,
0001
0100
0001
0010
0001
0100
0010
0000
,
1000
1000
0010
0100
0001
0010
0010
0000
,
0100
0100
0100
0001
1000
0010
0010
0000
,
1000
0010
0100
0001
0010
0100
1000
0000
,
0001
0001
1000
0100
0010
1000
0001
0000
,
2000
0010
0001
3100
,
0002
0100
1000
0013
,
0020
1000
0001
0130
,
1000
1000
0000
0001
0001
1000
0100
0010
,
2000
0001
0100
3001
,
0002
0100
1000
0103
,
0200
1000
0010
0301
,
0001
0001
0000
1000
1000
0000
0010
0010
,
2000
0000
3010
0000
0001
1000
0100
1000
,
0002
0000
0103
0000
0010
0001
0100
0001
,
2000
0000
3010
0000
0010
1000
0001
1000
,
0010
0010
0100
0100
1000
1000
1000
1000
,
0002
0000
0103
0000
0010
1000
0001
0100
,
2000
0000
3010
0000
0001
0010
0100
1000
,
0002
0000
0103
0000
0001
0001
0001
0001
,
1000
0100
1000
0100
0010
0001
0010
0000
,
0001
0010
0100
1000
0001
0010
0100
1000
,
0010
0100
0001
1000
0010
0100
0001
1000
,
0001
1000
1000
0100
0010
0001
0100
0000
,
0010
1000
0001
0100
0010
0010
0010
0000
,
1000
0100
1000
0001
1000
0100
1000
0000
,
0001
0100
0001
1000
0001
0100
0001
0000
,
0100
0001
1000
0001
0010
0001
1000
0000
,
2000
0000
3100
0000
0010
0001
0001
0000
,
2000
0010
0001
3100
,
0020
1000
0001
0130
,
0002
0100
1000
0013
,
1000
1000
0000
0001
0001
1000
0100
0010
,
2000
0001
0100
3001
,
0002
0100
1000
0103
,
0200
1000
0010
0301
,
0001
0001
0000
1000
1000
0000
0010
0010
,
1000
0000
0000
0100
0000
0000
0000
0000
0001
0000
0000
0100
0000
0000
0000
0000
,
1000
0000
0000
0001
0000
0000
0000
0000
0001
0000
1000
0000
0100
0000
0010
0000
,
0001
0000
0000
0001
0000
0000
0000
0000
1000
0000
0000
1000
0000
0000
0000
0000
,
0010
0000
0000
0100
0000
0000
0000
0000
1000
0000
0100
0000
0010
0000
0001
0000
;

//--------------- dance-double - John Earl De Juan ----------------
#NOTES:
     dance-double:
     John Earl De Juan:
     Challenge:
     10:
     0,0,0,0,0:
00000000
00000000
00000000
00000000
,
00000000
00000000
00000000
00000000
,
00000000
00000000
00000000
00000000
,
00000000
00000000
00000000
00000000
,
00000000
00000000
00000000
00000000
00010000
10000000
01000000
00100000
,
00020000
00000000
10030000
00000000
00010000
00100000
01000000
10000000
,
20000000
00000000
30010000
00000000
00100000
01000000
00010000
10000000
,
02000000
00000000
13000000
00000000
00100000
00010000
10000000
00010000
,
01000000
01000000
00010000
00010000
10000000
10000000
00100000
00100000
,
00010000
00001000
00000100
00000010
00000001
00000100
00000001
00000010
,
00000100
00000010
00000100
00001000
00000100
00000010
00000100
00000000
,
00000001
00000100
00001000
00000010
00000001
00000010
00001000
00000000
,
00010000
00100000
10000000
01000000
00010000
01000000
10000000
00000000
,
00010000
00010000
01000000
01000000
00100000
10000000
01000000
00000000
,
10000000
10000000
00100000
00100000
01000000
00100000
00010000
00000000
,
00010000
10000000
01000000
00100000
01000000
10000000
00010000
00000000
,
10000000
00100000
10000000
00010000
00100000
00010000
00001000
00000000
,
00000001
00000010
00000001
00000010
00000100
00001000
00000100
00000000
,
00000010
00001000
00000010
00001000
00000001
00000100
00000001
00000000
,
00000100
00000001
00000100
00000001
00001000
00000001
00001000
00000000
,
00001000
00000100
00001000
00100000
00001000
01000000
00100000
00000000
,
10000000
10000000
00100000
01000000
00010000
00100000
00100000
00000000
,
01000000
01000000
01000000
00010000
10000000
00100000
00100000
00000000
,
10000000
00100000
01000000
00010000
00100000
01000000
10000000
00000000
,
00010000
00010000
10000000
01000000
00100000
10000000
00010000
00000000
,
20000000
00100000
00010000
31000000
,
00020000
01000000
10000000
00130000
,
00200000
10000000
00010000
01300000
,
10000000
10000000
00000000
00010000
00010000
00001000
00000100
00000010
,
00000002
00001000
00000100
00001003
,
00002000
00000100
00000001
00003100
,
00000200
00000001
00000010
00001300
,
00001000
00001000
00000000
00000001
00000001
00000000
00000010
00000010
,
00000002
00000000
00000013
00000000
00001000
00000001
00000100
00000001
,
00002000
00000000
00003100
00000000
00000010
00001000
00000100
00001000
,
00000002
00000000
00000013
00000000
00000010
00000001
00001000
00000001
,
00000010
00000010
00000100
00000100
00000001
00000001
00001000
00001000
,
00020000
00000000
01030000
00000000
00100000
10000000
00010000
01000000
,
20000000
00000000
30100000
00000000
00010000
00100000
01000000
10000000
,
00020000
00000000
01030000
00000000
00010000
00010000
00010000
00010000
,
10000000
01000000
10000000
01000000
00100000
00010000
00100000
00000000
,
00010000
00100000
01000000
10000000
00010000
00100000
01000000
10000000
,
00100000
01000000
00010000
10000000
00100000
01000000
00010000
10000000
,
00010000
10000000
10000000
01000000
00100000
00010000
01000000
00000000
,
00100000
10000000
00010000
01000000
00100000
00100000
00100000
00000000
,
10000000
01000000
10000000
00010000
10000000
01000000
10000000
00000000
,
00010000
01000000
00010000
10000000
00010000
01000000
00010000
00000000
,
01000000
00010000
10000000
00010000
00100000
00010000
10000000
00000000
,
20000000
00000000
31000000
00000000
00100000
00010000
00010000
00000000
,
20000000
00100000
00010000
31000000
,
00020000
01000000
10000000
00130000
,
00200000
10000000
00010000
01300000
,
10000000
10000000
00000000
00010000
00010000
00001000
00000100
00000010
,
00000002
00001000
00000100
00001003
,
00002000
00000100
00000001
00003100
,
00000200
00000001
00000010
00001300
,
00001000
00001000
00000000
00010000
00010000
00000000
00001000
00100000
,
10000000
00000000
00000000
01000000
00000000
00000000
00000000
00000000
00010000
00000000
00000000
01000000
00000000
00000000
00000000
00000000
,
10000000
00000000
00000000
00010000
00000000
00000000
00000000
00000000
00010000
00000000
10000000
00000000
01000000
00000000
00100000
00000000
,
00010000
00000000
00000000
00010000
00000000
00000000
00000000
00000000
10000000
00000000
00000000
10000000
00000000
00000000
00000000
00000000
,
00100000
00000000
00000000
01000000
00000000
00000000
00000000
00000000
10000000
00000000
01000000
00000000
00100000
00000000
00010000
00000000
;
