#TITLE:Da Coconut Nut;
#SUBTITLE:;
#ARTIST:BINI;
#TITLETRANSLIT:;
#SUBTITLETRANSLIT:;
#ARTISTTRANSLIT:;
#GENRE:;
#CREDIT:Jenro Jupitel (2024);
#MUSIC:Da Coconut Nut.ogg;
#BANNER:Da Coconut Nut-bn.png;
#BACKGROUND:Da Coconut Nut-bg.png;
#CDTITLE:cdtitle.png;
#SAMPLESTART:59.202;
#SAMPLELENGTH:12.800;
#SELECTABLE:YES;
#OFFSET:-0.002;
#BPMS:0.000=150.000;
#STOPS:;
#BGCHANGES:-0.002=Da Coconut Nut.mp4=1.000=1=0=0=StretchNoLoop==CrossFade==,
99999.000=-nosongbg-=1.000=0=0=0=StretchNoLoop====
;
#FGCHANGES:;

//--------------- dance-single - Jenro Jupitel (2024) ----------------
#NOTES:
     dance-single:
     Jenro Jupitel (2024):
     Beginner:
     1:
     0,0,0,0,0:
0000
0000
0000
0000
,
0000
0000
0000
0000
,
0000
0000
0000
0000
,
0000
0000
0000
0000
,
0010
0000
0000
0000
,
0001
0000
0000
0000
,
1000
0000
0000
0000
,
0100
0000
0000
0000
,
0100
0000
0000
0000
,
0010
0000
0000
0000
,
0001
0000
0000
0000
,
1000
0000
0000
0000
,
0000
0000
0000
0000
,
0100
0000
0000
0000
,
1000
0000
0000
0000
,
0001
0000
0000
0000
,
0010
0000
0000
0000
,
0100
0000
0000
0000
,
0001
0000
0000
0000
,
1000
0000
0000
0000
,
0010
0000
0000
0000
,
0010
0000
0000
0000
,
1000
0000
0000
0000
,
0001
0000
0000
0000
,
0100
0000
0000
0000
,
0010
0000
0000
0000
,
0001
0000
0000
0000
,
1000
0000
0000
0000
,
0100
0000
0000
0000
,
0010
0000
0000
0000
,
0010
0000
0000
0000
,
0100
0000
0000
0000
,
0100
0000
0000
0000
,
0010
0000
0000
0000
,
0100
0000
0000
0000
,
0010
0000
0000
0000
,
1001
0000
0000
0000
,
0100
0000
0000
0000
,
1000
0000
0000
0000
,
0001
0000
0000
0000
,
0010
0000
0000
0000
,
0010
0000
0000
0000
,
0100
0000
0000
0000
,
1000
0000
0000
0000
,
0001
0000
0000
0000
,
0100
0000
0000
0000
,
0010
0000
0000
0000
,
0001
0000
0000
0000
,
1000
0000
0000
0000
,
0100
0000
0000
0000
,
0010
0000
0000
0000
,
1000
0000
0000
0000
,
0001
0000
0000
0000
,
0100
0000
0000
0000
,
0100
0000
0000
0000
,
0010
0000
0000
0000
,
0010
0000
0000
0000
;

//--------------- dance-single - Jenro Jupitel (2024) ----------------
#NOTES:
     dance-single:
     Jenro Jupitel (2024):
     Easy:
     2:
     0,0,0,0,0:
0000
0000
0000
0000
,
0000
0000
0000
0000
,
0000
0000
0000
0000
,
0000
0000
0000
0000
,
0010
0000
0001
0000
,
0100
0000
0000
0000
,
0010
0000
1000
0000
,
0100
0000
0000
0000
,
0010
0000
0100
0000
,
0100
0000
0000
0000
,
0100
0000
0001
0000
,
1000
0000
0100
0000
,
0000
0000
0000
0000
,
0001
0000
0010
0000
,
0100
0000
0100
0000
,
0100
0000
1000
0000
,
0001
0000
0010
0000
,
1000
0000
1000
0000
,
0100
0000
0010
0000
,
0100
0000
0100
0000
,
0001
0000
1000
0000
,
1000
0000
0010
0000
,
0100
0000
0100
0000
,
0100
0000
0001
0000
,
1000
0000
0010
0000
,
0001
0000
0001
0000
,
0100
0000
0010
0000
,
0100
0000
0100
0000
,
1000
0000
0001
0000
,
1000
1000
0000
0000
,
0001
0001
0000
0000
,
1000
1000
0000
0000
,
0001
0001
0000
0000
,
0010
0010
0000
0000
,
0100
0100
0000
0000
,
0001
0001
1000
1000
,
0000
0000
0000
0000
,
0010
0000
0001
0000
,
0100
0000
1001
0000
,
0010
0000
1000
0000
,
0100
1000
1000
0000
,
0010
0000
0100
0000
,
0100
0000
1001
0000
,
0100
0100
0001
0000
,
1000
1000
0100
0000
,
0010
0000
0001
0000
,
0100
0000
1001
0000
,
0010
0000
1000
0000
,
0100
0001
0001
0000
,
0010
0000
0100
0000
,
0100
0000
1001
0000
,
0100
0100
0001
0000
,
1000
1000
0100
0000
,
0001
0000
0001
0000
,
0001
0000
0001
0000
,
1000
0000
1000
0000
,
1000
0000
1000
0000
;

//--------------- dance-single - Jenro Jupitel (2024) ----------------
#NOTES:
     dance-single:
     Jenro Jupitel (2024):
     Medium:
     7:
     0,0,0,0,0:
0000
0000
0000
0000
,
0000
0000
0000
0000
,
0000
0000
0000
0000
,
0000
0000
0000
0000
,
0010
1000
0010
1000
,
0100
0000
1000
0100
1000
0000
0010
0000
,
0001
0100
0001
0010
,
0001
0100
0001
0000
0010
0000
1000
0000
,
0010
0001
0010
0001
,
0100
0000
0001
0100
0001
0000
0010
0000
,
1000
0100
1000
0010
,
1000
0100
1000
0000
0010
0000
0001
0000
,
0000
0000
0000
0000
,
1000
0000
0100
0000
,
0001
0000
0010
0000
,
0001
0000
0100
0000
,
1000
0000
0010
0000
,
0100
0000
0001
0000
,
0100
0000
1000
0000
,
0001
1000
0001
0000
,
0010
0110
0100
0000
,
1000
0001
0100
0001
,
1000
0000
0100
0000
0010
0000
0100
0010
,
0100
0000
0001
0000
0100
0000
1000
0001
,
1000
0001
0100
1000
,
0001
1000
0100
1000
,
0001
0000
0100
0000
0010
0000
0100
0010
,
0100
0000
1000
0000
0100
0000
0001
1000
,
0001
1000
0100
0001
,
1000
0010
1000
0010
,
0100
0001
0100
0001
,
0010
0001
0010
0001
,
1000
0100
1000
0100
,
1000
0010
1000
0000
0100
0000
1000
0000
,
0001
0010
0001
0000
0100
0000
0001
0000
,
1000
0100
1000
0000
0001
0100
0001
0000
,
0010
0110
0100
1001
,
1000
0001
1000
0000
0100
1000
0100
0000
,
0001
0010
0001
0000
0100
0001
0100
0000
,
1000
0010
1000
0000
0001
0100
0001
0000
,
1000
0100
1000
0000
0001
0010
0001
0000
,
0001
1000
0001
0000
0100
0001
0100
0000
,
1000
0010
1000
0000
0100
1000
0100
0000
,
0001
0010
0001
0000
1000
0100
1000
0000
,
0001
0100
0001
0000
1000
0010
1000
0000
,
0010
1000
0010
0000
0010
1000
0010
0000
,
0100
0000
1000
0100
1000
0000
0010
0000
,
0001
0100
0001
0000
0001
0010
0001
0000
,
0001
0100
0001
0000
0010
0000
1000
0000
,
0010
0001
0010
0000
0010
0001
0010
0000
,
0100
0000
0001
0100
0001
0000
0010
0000
,
1000
0100
1000
0000
1000
0010
1000
0000
,
1000
0100
1000
0000
0010
0000
0001
0000
,
0010
0010
0010
0010
,
0010
0000
0010
0000
0010
0001
0010
0000
,
0100
1000
0100
0001
,
0100
1000
0001
1000
,
0010
0000
0000
0000
;

//--------------- dance-single - Jenro Jupitel (2024) ----------------
#NOTES:
     dance-single:
     Jenro Jupitel (2024):
     Hard:
     10:
     0,0,0,0,0:
0000
0000
0000
0000
,
0000
0000
0000
0000
,
0000
0000
0000
0000
,
0000
0000
0000
0000
,
0010
0001
1000
0100
0000
1000
0010
0100
,
0001
0100
0001
1000
0010
0100
0010
0000
,
0010
1000
0001
0100
0000
0001
0010
0100
,
1000
0100
1000
0001
0010
0100
0010
0000
,
0001
0100
0001
0100
0000
1000
0100
1000
,
0100
0010
0001
0010
0100
1000
0010
0000
,
0100
0010
0100
0010
0100
0000
0010
0100
,
0000
0100
0100
0100
0001
1000
0100
0000
,
0000
0000
0000
0000
,
1010
0000
0000
0001
0010
0100
0010
0100
,
1000
0000
0000
1000
0010
0100
0010
0100
,
0001
0000
0000
1000
0001
1000
0001
1000
,
0100
0000
0000
0001
1000
0000
1001
0000
,
0011
0000
0000
1010
0000
0100
0010
0000
,
0000
0000
0000
1001
0000
0100
0010
0100
,
1000
0000
0000
1001
0000
0001
1000
0001
,
0100
1001
0100
1001
,
0100
0010
0100
0010
0100
0001
1000
0100
,
0010
0100
0010
0001
0100
0010
0100
0010
,
1000
0001
0100
0000
0001
1000
0100
0000
,
0010
0001
0100
0000
0010
1000
0100
0000
,
0100
0010
0100
0010
0100
1000
0001
0100
,
0010
0100
0010
1000
0100
0010
0100
0010
,
0001
1000
0100
0000
1000
0001
0100
0000
,
0010
1000
0100
0000
0010
0001
0100
0000
,
0011
0001
0001
0001
,
1010
1000
1000
1000
,
1100
0001
0001
0001
,
0101
1000
1000
1000
,
0010
0100
0001
0000
1000
0100
1000
0000
,
0010
0100
1000
0000
0001
0100
0001
0000
,
0010
0001
1000
0100
0010
0100
1000
0001
,
0100
0110
1001
0100
,
0010
0001
1000
0100
0000
1000
0010
0100
,
0001
0100
0001
1000
0010
0100
0010
0000
,
0010
1000
0001
0100
0000
0001
0010
0100
,
1000
0100
1000
0001
0010
0100
0010
0000
,
0001
0100
0001
0100
0000
1000
0100
1000
,
0100
0010
0001
0010
0100
1000
0010
0000
,
0100
0010
0100
0010
0100
0000
0010
0100
,
0000
0100
0100
0100
0001
1000
0100
0000
,
0010
1000
0001
0100
0000
0001
0010
0100
,
1000
0100
1000
0001
0010
0100
0010
0000
,
0010
0001
1000
0100
0000
1000
0010
0100
,
0001
0100
0001
1000
0010
0100
0010
0000
,
1000
0100
1000
0100
0000
0001
0100
0001
,
0100
0010
1000
0010
0100
0001
0010
0000
,
0100
0010
0100
0010
0100
0000
0010
0100
,
0000
0100
0100
0100
1000
0001
0100
0000
,
0001
0001
0001
0001
,
0001
0000
0001
0000
0001
0001
0001
0000
,
1000
0100
0010
0001
1000
0100
0010
0001
,
0100
0010
1000
0001
0100
0010
1000
0001
,
1000
0000
0000
0000
;
