#TITLE:Chuva Choo Choo;
#SUBTITLE:;
#ARTIST: Jolina Magdangal;
#TITLETRANSLIT:;
#SUBTITLETRANSLIT:;
#ARTISTTRANSLIT:;
#GENRE:Novelty Pop;
#CREDIT:Jenro Jupitel;
#MUSIC:Chuva Choo Choo.ogg;
#BANNER:chuvachoochoo-bn.png;
#BACKGROUND:chuvachoochoo-bg.png;
#CDTITLE:;
#SAMPLESTART:81.786;
#SAMPLELENGTH:14.519;
#SELECTABLE:YES;
#OFFSET:-1.931;
#BPMS:0.000=132.240;
#STOPS:;
#BGCHANGES:;
#FGCHANGES:;

//--------------- dance-single - Jenro Jupitel (2021) ----------------
#NOTES:
     dance-single:
     Jenro Jupitel (2021):
     Beginner:
     4:
     0,0,0,0,0:
0000
0000
0000
0000
,
0000
0000
0000
0000
,
0000
0000
0000
0000
,
0000
0000
0000
0000
,
1000
0001
0100
0001
,
2000
0000
3000
0000
,
0010
1000
0100
0001
,
0000
0000
0000
0000
,
0001
1000
0010
1000
,
0002
0000
0003
0000
,
0100
0001
0010
1000
,
0000
0000
0000
0000
,
0010
1000
0000
0001
,
0000
0100
0001
0000
,
0010
0000
1000
0000
,
0100
1000
0000
0001
,
0000
0010
0000
0010
,
0000
1000
0000
1000
,
0002
0003
0001
0000
,
2000
3100
0100
1000
,
0100
0000
0010
0000
,
0100
0000
0001
0000
,
1000
0100
1000
0100
,
2000
0000
3010
0000
,
0100
0100
0100
0100
,
0001
0001
0001
0001
,
0010
1001
0000
0101
,
0000
0100
0100
0100
,
1000
0001
0100
0001
,
2000
0000
3010
0101
,
0010
1000
0100
0001
,
2000
0000
3000
0000
,
0001
1000
0010
1000
,
0002
0000
0013
1100
,
0100
0001
0010
1000
,
0002
0000
0003
0000
,
0010
0010
0010
0100
,
1000
1000
1000
0200
,
0310
0010
0010
0001
,
0100
0100
0100
0020
,
1030
0001
1000
0001
,
1000
0001
1000
0001
,
1000
0001
1000
0001
,
2002
0000
3003
0000
,
1000
0001
0100
0001
,
2000
0000
3010
0101
,
0010
1000
0100
0001
,
2000
0000
3000
0000
,
0001
1000
0010
1000
,
0002
0000
0013
1100
,
0100
0001
0010
1000
,
0002
0000
0003
0000
,
0010
0100
1000
0100
,
0020
0031
0002
0013
,
0100
0010
0001
0010
,
0200
1300
2000
3100
,
0010
1000
0001
0100
,
0200
0301
0002
0103
,
0100
0001
1000
0010
,
2000
3010
0020
1030
,
0001
0000
0001
0000
;

//--------------- dance-single - Jenro Jupitel (2021) ----------------
#NOTES:
     dance-single:
     Jenro Jupitel (2021):
     Easy:
     8:
     0,0,0,0,0:
0000
0000
0000
0000
,
0000
0000
0000
0000
,
0000
0000
0000
0000
,
0000
0000
0000
0000
,
0001
1000
0100
1000
,
0002
0000
0020
0033
,
0100
1000
0001
0100
,
0010
1000
0001
1000
0010
0001
0100
0000
,
1000
0001
0010
0001
,
2000
0000
0200
3300
,
0010
0001
1000
0010
,
0100
0001
1000
0001
0100
1000
0010
0000
,
1000
0001
0001
0000
0010
0000
0110
0000
,
0100
1000
0100
0000
0100
0001
0100
0000
,
0010
1000
0010
0000
0010
0001
0010
0000
,
0100
0100
0100
0100
1000
1000
1010
0000
,
1000
0001
0001
0000
0001
0001
0001
0000
,
0001
0001
0001
0000
0001
0100
0110
0000
,
2000
0000
0000
0000
,
3001
0010
1100
1001
,
0000
1000
0000
0001
0000
0010
0000
1000
,
0000
1000
0000
0001
0000
0010
0000
1000
,
0000
0010
0000
0001
0000
0010
0000
1000
,
0000
0001
0000
0001
0000
1000
0000
0010
,
0000
0100
0000
0001
0000
0100
0000
0001
,
0000
0010
0000
1000
0000
0010
0000
1000
,
0000
0001
0000
0001
0000
0001
0000
0001
,
1000
0100
1000
0100
1000
0010
1010
0000
,
0102
0013
0102
0013
,
1000
0100
1000
0000
0001
0100
0001
0000
,
0201
0310
0201
0310
,
0010
0100
0001
1000
0010
0010
0110
0000
,
0201
0310
0201
0310
,
0001
1000
0001
1000
0001
1000
0001
0000
,
0102
0013
0102
0013
,
1000
1000
1000
1000
,
1000
0100
1000
0010
2000
0000
0000
3000
,
0001
0100
0001
0010
0002
0000
0000
0003
,
1000
0010
0010
0001
0002
0000
0000
0003
,
0010
1000
0001
1000
2000
0000
0000
3000
,
0000
0100
0000
0010
0000
1000
0000
0001
,
0000
0100
0000
0010
0000
1000
0000
0001
,
0000
0010
0000
0100
0000
1000
0000
0001
,
0101
0011
0101
1001
,
0001
1000
0100
1000
,
0002
0000
0010
0013
,
0100
1000
0001
0100
,
0010
1000
0001
1000
0010
0001
0100
0000
,
1000
0001
0010
0001
,
2000
0000
0100
3100
,
0010
0001
1000
0010
,
0100
0001
1000
0001
0100
1000
0010
0000
,
0102
0013
0102
0013
,
1000
0100
1000
0000
0001
0100
0001
0000
,
0201
0310
0201
0310
,
0010
0100
0001
1000
0010
0010
0110
0000
,
0201
0310
0201
0310
,
0001
1000
0001
1000
0001
1000
0001
0000
,
0102
0013
0102
0013
,
1000
0000
1000
0000
1000
0000
1000
1000
,
1000
0000
1000
0000
;

//--------------- dance-single - Jenro Jupitel (2021) ----------------
#NOTES:
     dance-single:
     Jenro Jupitel (2021):
     Medium:
     12:
     0,0,0,0,0:
0000
0000
0000
0000
,
0000
0000
0000
0000
,
0000
0000
0000
0000
,
0000
0000
0000
0000
,
0001
0010
0001
0010
1000
0010
0001
0100
,
0002
0100
2003
0100
,
3010
1000
0010
1000
0001
0010
0100
1000
,
1000
0100
1000
0010
0010
0100
0001
0000
,
1001
0000
0101
0000
1000
0010
1010
0000
,
0200
0010
0302
0010
,
1003
0010
1000
0010
0001
0010
1000
0100
,
1000
1000
0001
0001
0010
0100
1100
0000
,
1000
0001
0100
0001
1000
0010
0200
0000
,
0301
0010
0100
1000
0001
1000
0200
0000
,
1300
0010
1000
0010
0010
0010
0200
0000
,
0301
0001
0010
0010
0100
0100
0110
0000
,
1000
0001
0100
0001
1000
0001
0100
0001
,
1000
0010
1000
0100
1000
0010
1000
0100
,
1000
0010
0000
0100
0000
1000
0000
0001
,
1000
1000
1000
1000
1000
1000
1001
0000
,
0011
0010
0210
0000
1300
0010
1001
0000
,
0001
0100
1020
0000
1030
0001
0101
0000
,
1000
0100
0010
0010
0110
0110
0001
0000
,
1000
0001
0100
0100
0001
1000
0010
1010
,
0010
0100
0001
1000
0100
1000
0001
1000
,
0010
0100
1000
1000
0001
0001
0010
0100
,
1000
0001
0000
0101
0000
0001
0000
1100
,
0000
0001
0000
1000
0000
0001
0000
0001
,
0001
0010
0001
0010
1000
0010
0001
0100
,
0010
0100
0010
0100
0001
0011
0100
0000
,
1000
0010
1000
0010
0001
0010
1000
0100
,
0010
0100
0010
0100
1000
1010
0100
0000
,
0001
0100
0001
0100
1000
0100
0001
0010
,
0100
0010
0100
0010
0001
0101
0010
0000
,
1000
0100
1000
0100
0001
0100
1000
0010
,
0100
0010
0100
0010
1000
1100
0010
0000
,
0200
0001
0310
0110
,
1100
0000
0001
0000
0101
0001
0110
0000
,
0001
0000
1000
0000
0110
1000
1001
0000
,
1000
1000
0001
0001
0010
0110
1001
0000
,
1000
0100
0010
0001
1000
0100
0010
0001
,
1000
0100
0010
0001
1000
0100
0010
0001
,
1000
1000
0100
0100
0010
0010
0001
0001
,
1001
0001
1001
1000
1001
0100
1001
0010
,
1001
0010
0001
0010
1000
0010
0001
0100
,
0010
0100
0010
0100
0001
0011
0110
0000
,
1000
0010
1000
0010
0001
0010
1000
0100
,
0010
0100
0010
0100
1000
1010
0110
0000
,
0001
0100
0001
0100
1000
0100
0001
0010
,
0100
0010
0100
0010
0001
0101
0011
0000
,
1000
0100
1000
0100
0001
0100
1000
0010
,
0100
0010
0100
0010
1000
1100
1010
0000
,
1000
0001
1000
0100
1000
0000
0100
0000
1000
0010
1000
0001
0100
0000
0100
0000
,
0010
1000
0110
0100
0001
0011
0101
0000
,
0100
0010
0100
0010
0100
0000
0001
0000
1000
0100
1000
0100
1000
0000
0001
0000
,
1000
0100
0110
0100
0001
0100
0110
0001
,
1000
0001
1000
0100
1000
0000
0010
0000
0100
0001
0100
0010
1000
0000
0001
0000
,
1000
0100
0110
0100
1000
0001
0100
0100
,
0010
1000
0010
1000
0010
0000
0100
0000
0001
0010
0001
0010
0001
0000
0100
0000
,
1000
1000
1000
1000
1000
1000
1001
0000
,
0000
0001
0000
0001
;

//--------------- dance-single - Jenro Jupitel (2021) ----------------
#NOTES:
     dance-single:
     Jenro Jupitel (2021):
     Hard:
     15:
     0,0,0,0,0:
0000
0000
0000
0000
,
0000
0000
0000
0000
,
0000
0000
0000
0000
,
0000
0000
0000
0000
,
0101
0110
1100
0110
,
0020
0100
0100
1000
1000
0100
0130
0000
,
1100
0110
0101
0110
,
0100
0001
0100
0001
0010
0100
1000
0000
,
1100
0100
0110
0000
0101
0100
0110
0000
,
0002
0100
0100
0100
1000
0000
1003
1000
,
0101
0100
0110
0000
1100
0100
0110
0000
,
1001
0000
0010
0000
0001
1000
0001
0000
1001
0000
0100
0000
1000
0001
1000
0000
,
2100
0000
0000
0000
3100
0000
0000
0000
1000
0010
0100
0000
0101
0000
0010
0000
,
0102
0000
0000
0000
0103
0000
0000
0000
0001
0010
0100
0000
1100
0000
0010
0000
,
2100
0000
0000
0000
3010
0000
0000
0000
1000
0100
0010
0000
0011
0000
0100
0000
,
0011
0000
0101
0000
1001
0000
0101
0000
0001
0100
0010
0000
1010
0000
0100
0000
,
1010
0000
1000
0001
1000
0000
1000
0100
1000
0000
1000
0010
0100
0000
0001
0100
,
0001
0000
0001
0010
0100
0000
1000
0001
1000
0000
0001
1000
0001
0000
1000
0001
,
0100
0010
1000
0001
1000
0100
0100
0100
,
0010
0001
0010
0100
0010
0001
0010
0100
0010
0000
0011
0000
0011
0000
0000
0000
,
0102
0000
0000
0000
0103
0000
0000
0000
0001
0010
0100
0000
1100
0000
0010
0000
,
2100
0000
0000
0000
3100
0000
0000
0000
1000
0010
0100
0000
0101
0000
0010
0000
,
0102
0000
0000
0000
0013
0000
0000
0000
0001
0100
0010
0000
1010
0000
0100
0000
,
1010
0000
1100
0000
1001
0000
1100
0000
1000
0100
0010
0000
0011
0000
0100
0000
,
0011
0000
0001
1000
0001
0000
0001
0100
0001
0000
0001
0010
0100
0000
1000
0100
,
1000
0000
1000
0010
0100
0000
0001
1000
0001
0000
1000
0001
1000
0000
0001
1000
,
0100
0010
0001
1000
0001
0100
0100
0100
,
0010
1000
0010
0100
0010
1000
0010
0100
0010
0000
1010
0000
1010
0000
0000
0000
,
1000
0100
1000
0100
1000
0000
0001
0000
1000
0100
1000
0100
1000
0000
0001
0000
,
0001
0010
0100
0000
1000
0000
0100
0000
1000
0010
0100
0000
0001
0000
0100
0000
,
0001
0100
0001
0100
0001
0000
1000
0000
0001
0100
0001
0100
0001
0000
1000
0000
,
1000
0010
0100
0000
0001
0000
0100
0000
0001
0010
0100
0000
1000
0000
0100
0000
,
1000
0010
1000
0010
1000
0000
0001
0000
1000
0010
1000
0010
1000
0000
0001
0000
,
0001
0100
0010
0000
1000
0000
0010
0000
1000
0100
0010
0000
0001
0000
0010
0000
,
0001
0010
0001
0010
0001
0000
1000
0000
0001
0010
0001
0010
0001
0000
1000
0000
,
1000
0100
0010
0000
0001
0000
0010
0000
0001
0100
0010
0000
1000
0000
0010
0000
,
0100
0001
1000
0000
0010
1000
0100
0000
1000
0100
1000
0000
0001
1000
0010
0000
,
0100
1000
0001
0000
0010
0001
0100
0000
0001
0100
0001
0000
1000
0001
0010
0000
,
0010
0001
1000
0000
0100
1000
0010
0000
1000
0010
1000
0000
0001
1000
0100
0000
,
0010
1000
0001
0000
0100
0001
0010
0000
0001
0010
0001
0000
1000
0001
0100
0000
,
0010
0100
0010
0100
0010
0000
0100
0000
0010
0100
0010
0100
0010
0000
0100
0000
,
0010
0100
0010
0100
0010
0000
0100
0000
0010
0100
0010
0100
0010
0000
0100
0000
,
0010
0100
0010
0100
0010
0000
0100
0000
0010
0100
0010
0000
0110
0000
0110
0000
,
0110
0000
1001
0000
1000
0100
1000
0000
0110
0000
1001
0000
0011
0000
0011
0000
,
1000
0100
1000
0100
1000
0000
0101
0000
1000
0100
1000
0100
1000
0000
0101
0000
,
0001
0010
0100
0000
1000
0000
0100
0000
1000
0010
0100
0000
0001
0000
0100
0000
,
0001
0100
0001
0100
0001
0000
1100
0000
0001
0100
0001
0100
0001
0000
1100
0000
,
1000
0010
0100
0000
0001
0000
0100
0000
0001
0010
0100
0000
1000
0000
0100
0000
,
1000
0010
1000
0010
1000
0000
0011
0000
1000
0010
1000
0010
1000
0000
0011
0000
,
0001
0100
0010
0000
1000
0000
0010
0000
1000
0100
0010
0000
0001
0000
0010
0000
,
0001
0010
0001
0010
0001
0000
1010
0000
0001
0010
0001
0010
0001
0000
1010
0000
,
1000
0100
0010
0000
0001
0000
0010
0000
0001
0100
0010
0000
1000
0000
0010
0000
,
0100
0001
0100
0001
0100
0010
1000
0000
0100
1000
0100
1000
0100
0010
0001
0000
,
0001
1000
0001
0010
0100
1000
0001
1000
0100
0010
1000
0000
1001
0000
0000
0000
,
0100
1000
0100
1000
0100
0010
0001
0000
0100
0001
0100
0001
0100
0010
1000
0000
,
1000
0001
1000
0010
0100
0001
1000
0001
0100
0010
0001
0000
1001
0000
0000
0000
,
0010
0001
0010
0001
0010
0100
1000
0000
0010
1000
0010
1000
0010
0100
0001
0000
,
0001
1000
0001
0100
0010
1000
0001
1000
0010
0100
1000
0000
1001
0000
0000
0000
,
0010
1000
0010
1000
0010
0100
0001
0000
0010
0001
0010
0001
0010
0100
1000
0000
,
1000
0001
1000
0100
0010
0001
1000
0001
0010
0100
0001
0000
1001
0000
0000
0000
,
1000
0100
0010
0100
1000
0100
0010
0100
,
2000
3000
0000
0000
;

//--------------- dance-double - Jenro Jupitel (2021) ----------------
#NOTES:
     dance-double:
     Jenro Jupitel (2021):
     Challenge:
     14:
     0,0,0,0,0:
00000000
00000000
00000000
00000000
,
00000000
00000000
00000000
00000000
,
00000000
00000000
00000000
00000000
,
00000000
00000000
00000000
00000000
,
00001000
00010000
00100000
00010000
01000000
00010000
00100000
00001000
,
00010000
00010000
00010000
00010000
00001000
00001000
00002000
00000000
,
00013000
00001000
00000100
00001000
00000010
00001000
00000100
00010000
,
00011000
00001000
00000100
00001000
00010000
00010000
00021000
00000000
,
00031000
00010000
00100000
00010000
01000000
00010000
00100000
00001000
,
00010000
00010000
00010000
00010000
00001000
00001000
00002000
00000000
,
00013000
00001000
00000100
00001000
00000010
00001000
00000100
00010000
,
00011000
00001000
00100000
00001000
00010000
00010000
00021000
00000000
,
00130000
00010000
01000000
00010000
00100000
01000000
00100000
01000000
,
00100000
00010000
01000000
00010000
00100000
01000000
00100000
01000000
,
00100000
00001000
01000000
00001000
00100000
00001000
00100000
00001000
,
00010000
00001000
00010000
00000100
00010000
00000100
00010000
00000100
,
00000100
00001000
00000010
00001000
00000100
00000010
00000100
00000010
,
00000100
00001000
00000010
00001000
00000100
00000010
00000100
00000010
,
00000100
00010000
00000010
00010000
00000100
00010000
00000100
00010000
,
00011000
00010000
00001000
00100000
00001000
00100000
00101000
00000000
,
00001000
00010000
01000000
00010000
00001000
00010000
01000000
00001000
,
00001000
00100000
00001000
00100000
00001000
00010000
00010000
00000010
,
00000010
00000100
00000001
00001000
00000010
00000100
00000010
00000100
,
00000010
00000100
00000001
00001000
00000010
00000100
00000010
00000100
,
00010000
00001000
00000010
00001000
00010000
00001000
00000010
00010000
,
00010000
00000100
00010000
00000100
00010000
00001000
00001000
01000000
,
01000000
00100000
10000000
00010000
01000000
00100000
01000000
00100000
,
01100000
00100000
10000000
00010000
01000000
00100000
01100000
00000000
,
01000000
00010000
00100000
00001000
00010000
00000000
00010000
00000000
10000000
01000000
10000000
01000000
10000000
00000000
00010000
00000000
,
00010000
00000100
00001000
00000000
00010000
00000000
00000100
00000000
00001000
00000010
00000100
00000000
00000001
00000000
00000100
00000000
,
00000010
00001000
00000100
00010000
00001000
00000000
00001000
00000000
00000001
00000010
00000001
00000010
00000001
00000000
00001000
00000000
,
00001000
00010000
00100000
00000000
00001000
00000000
00100000
00000000
00010000
01000000
00100000
00000000
10000000
00000000
00100000
00000000
,
10000000
00100000
10000000
00100000
10000000
00000000
00010000
00000000
10000000
00100000
10000000
00100000
10000000
00000000
00010000
00000000
,
00010000
00000100
00001000
00000000
00000001
00000000
00000010
00000000
00001000
00000100
00000010
00000000
00000001
00000000
00000010
00000000
,
00000001
00000010
00000001
00000010
00000001
00000000
00001000
00000000
00000001
00000010
00000001
00000010
00000001
00000000
00001000
00000000
,
00010000
01000000
00001000
00000000
00010000
00000000
00100000
00000000
00010000
01000000
00100000
00000000
10000000
00000000
00100000
00000000
,
01000000
00010000
00001000
00100000
00001000
00010000
01000000
00100000
,
00001000
00010000
00000010
00010000
00001000
00010000
00000010
00010000
,
00001000
00100000
00001000
01000000
00010000
10000000
01000000
00100000
,
00010000
01000000
00001000
00010000
00000010
00000100
00000001
00001000
,
00010000
00001000
00010000
00001000
00010000
00000000
01000000
00000000
00010000
00001000
00010000
00001000
00010000
00000000
00000100
00000000
,
00010000
00001000
00010000
00001000
00010000
00000000
00100000
00000000
00010000
00001000
00010000
00001000
00010000
00000000
00000010
00000000
,
00010000
00001000
00010000
00001000
00010000
00000000
01000000
00000000
00010000
00001000
00010000
00001000
00010000
00000000
00000010
00000000
,
00011000
00000000
00011000
00000000
00100000
00010000
00100000
00000000
00011000
00000000
00110000
00000000
00011000
00000000
00001010
00000000
,
00000100
00001000
00000010
00010000
00001000
00000000
00001000
00000000
00000001
00000100
00000001
00000100
00000001
00000000
00001000
00000000
,
00001000
01000000
00010000
00000000
00001000
00000000
01000000
00000000
00010000
00100000
01000000
00000000
10000000
00000000
01000000
00000000
,
00100000
00010000
01000000
00001000
00010000
00000000
00010000
00000000
10000000
00100000
10000000
00100000
10000000
00000000
00010000
00000000
,
00010000
00001000
00000010
00000000
00010000
00000000
00000010
00000000
00001000
00000100
00000010
00000000
00000001
00000000
00000010
00000000
,
00000001
00000010
00000001
00000010
00000001
00000000
00001000
00000000
00000001
00000010
00000001
00000010
00000001
00000000
00001000
00000000
,
00001000
01000000
00010000
00000000
10000000
00000000
00100000
00000000
00010000
01000000
00100000
00000000
10000000
00000000
00100000
00000000
,
10000000
00100000
10000000
00100000
10000000
00000000
00010000
00000000
10000000
00100000
10000000
00100000
10000000
00000000
00010000
00000000
,
00001000
00000100
00010000
00000000
00001000
00000000
00000010
00000000
00001000
00000100
00000010
00000000
00001100
00000000
00000000
00000000
,
00100000
00010000
01000000
00001000
00010000
00000000
00010000
00000000
10000000
00100000
10000000
00100000
10000000
00000000
00010000
00000000
,
00010000
00000010
00001000
00000000
00010000
00000000
00000010
00000000
00001000
00000100
00000010
00000000
00000001
00000000
00000010
00000000
,
00000100
00001000
00000010
00010000
00001000
00000000
00001000
00000000
00000001
00000100
00000001
00000100
00000001
00000000
00001000
00000000
,
00001000
00010000
01000000
00000000
00001000
00000000
01000000
00000000
00010000
00100000
01000000
00000000
10000000
00000000
01000000
00000000
,
10000000
01000000
10000000
01000000
10000000
00000000
00010000
00000000
10000000
01000000
10000000
01000000
10000000
00000000
00010000
00000000
,
00010000
00000010
00001000
00000000
00000001
00000000
00000100
00000000
00001000
00000010
00000100
00000000
00000001
00000000
00000100
00000000
,
00000001
00000100
00000001
00000100
00000001
00000000
00001000
00000000
00000001
00000100
00000001
00000100
00000001
00000000
00001000
00000000
,
00010000
00100000
00001000
00000000
00010000
00000000
01000000
00000000
00010000
00100000
01000000
00000000
10000000
00000000
01000000
00000000
,
00100000
00010000
00001000
00010000
00100000
00010000
00001000
00010000
;
