#TITLE:Cherry On Top;
#SUBTITLE:;
#ARTIST:BINI;
#TITLETRANSLIT:;
#SUBTITLETRANSLIT:;
#ARTISTTRANSLIT:;
#GENRE:;
#CREDIT:Jenro Jupitel (2024);
#MUSIC:Cherry On Top.ogg;
#BANNER:Cherry On Top-bn.png;
#BACKGROUND:Cherry On Top-bg.png;
#CDTITLE:cdtitle.png;
#SAMPLESTART:37.944;
#SAMPLELENGTH:12.237;
#SELECTABLE:YES;
#OFFSET:-0.049;
#BPMS:0.000=152.000;
#STOPS:;
#BGCHANGES:-0.049=Cherry On Top.mp4=1.000=1=0=0=StretchNoLoop==CrossFade==,
99999.000=-nosongbg-=1.000=0=0=0=StretchNoLoop====
;
#FGCHANGES:;

//--------------- dance-single - Jenro Jupitel (2024) ----------------
#NOTES:
     dance-single:
     Jenro Jupitel (2024):
     Beginner:
     3:
     0,0,0,0,0:
0000
0000
0000
0000
,
0000
0000
0000
0000
,
0000
0000
0000
0000
,
0000
0000
0000
0000
,
0100
0000
0000
0000
,
0000
0000
0000
0000
,
0001
0000
0000
0000
,
0100
0000
0100
0000
,
0001
0000
0000
0000
,
1000
0000
0000
0000
,
0100
0100
0000
0000
,
0001
0000
0000
0000
,
0100
0100
0000
0000
,
0001
0000
1000
0000
,
0100
0100
0000
0000
,
0010
0000
0100
0000
,
0100
0100
0000
0000
,
1000
1000
0000
0000
,
0001
0001
0000
0000
,
0010
0010
0000
0000
,
0100
0100
0000
0000
,
0001
0001
0000
0000
,
1000
1000
0000
0000
,
0010
0010
0000
0000
,
0100
0100
0100
0000
,
1000
1000
1000
0000
,
0001
0001
0001
0000
,
0010
0010
0010
0000
,
0100
0100
0100
0000
,
0001
0001
0001
0000
,
1000
1000
1000
0000
,
0010
0010
0010
0000
,
1000
0000
1000
0000
,
0001
0000
0001
0000
,
0100
0000
0100
0000
,
0010
0000
0010
0000
,
1000
1000
0001
0000
,
0001
0001
0100
0000
,
0100
0100
0010
0000
,
0010
0010
1000
0000
,
0100
0000
0010
0000
,
0001
0000
1000
0000
,
0001
0001
1000
0000
,
0010
0010
0100
0000
,
0100
0000
0010
0000
,
1000
0000
0001
0000
,
0100
0100
0010
0010
,
0100
0100
0010
0010
,
0100
0000
0001
0000
,
1000
1000
0100
0000
,
1000
1000
0010
0000
,
0001
0001
0100
0000
,
0001
0001
0010
0000
,
1000
1000
0100
0000
,
1000
1000
0010
0000
,
1000
1000
0001
0000
,
1000
0001
1000
0000
,
0001
1000
0001
0000
,
0100
0010
0100
0000
,
0010
0100
0010
0000
,
1000
1000
0001
0001
,
0001
0001
0100
0100
,
0100
0100
0010
0010
,
0010
0010
1000
1000
,
0100
0000
0010
0000
,
0001
0000
1000
0000
,
0001
0001
1000
0000
,
0010
0010
0100
0000
;

//--------------- dance-single - Jenro Jupitel (2024) ----------------
#NOTES:
     dance-single:
     Jenro Jupitel (2024):
     Easy:
     5:
     0,0,0,0,0:
0000
0000
0000
0000
,
0000
0000
0000
0000
,
0000
0000
0000
0000
,
0000
0000
0000
0000
,
0100
0001
0000
0000
,
1000
0100
0000
0000
,
0010
0001
0000
0000
,
1000
0010
0000
0000
,
0100
0001
0000
0010
,
0000
0100
1000
0010
,
0000
0100
0000
0001
,
0010
1000
0000
0100
,
0010
0001
0100
0010
,
1000
0000
0001
0000
,
1000
0100
1000
0010
,
0001
0000
0100
0000
,
0010
0001
0100
1000
,
0100
0001
0100
0010
,
0001
0100
1000
0001
,
1000
0010
0001
0100
,
0010
0100
0000
1000
,
0001
0100
0000
0010
,
0001
0100
1000
0100
,
0001
0010
1000
0001
,
1000
0100
1000
0100
,
0010
0100
0010
0100
,
0001
0100
0001
0100
,
0010
0100
0010
0100
,
0001
1000
0001
1000
,
0100
0010
0100
0010
,
0001
0100
0010
1000
,
0100
0010
0001
1000
,
0001
0001
0010
0001
,
0001
0100
1000
1000
,
1000
1000
0100
1000
,
1000
0010
0001
0001
,
0100
0010
0100
0100
,
0010
0100
0010
0010
,
1000
0001
1000
0001
,
0001
1000
0001
0001
,
0100
0000
0010
0000
,
0100
0000
0100
0000
,
1000
0000
0001
0000
,
1000
0000
0001
0000
,
0010
0000
0100
0000
,
0010
0000
0010
0000
,
0001
0000
1000
0000
,
0001
0000
1000
0000
,
0100
0000
0000
0000
,
0000
0000
0000
0000
,
0001
0100
0001
0100
,
0010
0100
0010
0100
,
0001
1000
0001
1000
,
0100
0010
0100
0010
,
0001
0100
0010
1000
,
0100
0010
0001
1000
,
0001
0001
0010
0001
,
0001
0100
1000
1000
,
1000
1000
0100
1000
,
1000
0010
0001
0001
,
0100
0010
0100
0100
,
0010
0100
0010
0010
,
1000
0001
1000
0001
,
0001
1000
0001
0001
,
0100
0000
0010
0000
,
0100
0000
0100
0000
,
1000
0000
0001
0000
,
1000
0000
0001
0000
;

//--------------- dance-single - Jenro Jupitel (2024) ----------------
#NOTES:
     dance-single:
     Jenro Jupitel (2024):
     Medium:
     6:
     0,0,0,0,0:
0000
0000
0000
0000
,
0000
0000
0000
0000
,
0000
0000
0000
0000
,
0000
0000
0000
0000
,
0001
0000
0010
0000
0000
0100
0000
0000
,
0100
0100
1000
0100
,
0100
0000
0010
0000
,
0001
1000
1000
1000
0000
0000
0000
0000
,
0100
0010
0000
0010
0000
0001
0000
0100
,
0000
0010
1000
0100
,
0010
0000
0000
0010
0000
1000
0000
0001
,
0000
0000
0000
0000
0000
0100
0000
0000
,
1000
0100
0001
0100
,
2000
3001
0002
1003
,
0001
0010
1000
0010
,
0002
1003
2000
3001
,
0100
0000
0100
0000
0100
0001
0100
0000
,
0010
0000
0010
0000
0010
1000
0010
0000
,
1000
0000
0100
0000
1000
0001
1000
0000
,
0001
0000
0100
0000
0001
1000
0001
0000
,
0010
0000
0010
0000
0010
0001
0010
0000
,
0100
0000
0100
0000
0100
1000
0100
0000
,
0010
0001
0101
1000
,
0100
0011
0010
1010
,
0001
0001
0000
0000
0010
0000
0100
0000
,
0001
0000
0000
0000
1000
0000
0000
0000
0000
0000
0100
0000
0000
0100
0000
0000
,
1000
1000
0000
0000
0010
0000
0100
0000
,
1000
0000
0000
0000
0001
0000
0000
0000
0000
0000
0100
0000
0000
0100
0000
0000
,
0001
0001
0000
0000
0110
0000
1000
0000
,
0001
0000
0000
0000
0100
0000
0000
0000
0000
0000
0010
0000
0000
0010
0000
0000
,
1000
0100
2000
0000
0010
0000
3001
0000
,
0001
0100
0002
0000
0010
0000
1003
0000
,
1000
1000
0000
0000
0010
0000
0100
0000
,
1000
0000
0000
0000
0001
0000
0000
0000
0000
0000
0100
0000
0000
0100
0000
0000
,
0001
0001
0000
0000
0010
0000
0100
0000
,
0001
0000
0000
0000
1000
0000
0000
0000
0000
0000
0100
0000
0000
0100
0000
0000
,
1000
1000
0000
0000
0110
0000
0001
0000
,
1000
0000
0000
0000
0100
0000
0000
0000
0000
0000
0010
0000
0000
0010
0000
0000
,
0001
0100
0002
0000
0010
0000
1003
0000
,
1000
0100
2000
0000
0010
0000
3001
0000
,
0100
0000
0010
0000
,
0001
0000
1000
0000
,
0010
0000
0100
0000
,
1000
0000
0001
0000
,
0100
0000
0010
0000
,
0001
0000
1000
0000
,
0100
0010
0001
1000
,
0100
0010
1000
0001
,
0002
0000
0003
0001
,
0001
0000
0000
0000
1010
0000
0000
0000
0000
0000
0100
0000
0000
0100
0000
0000
,
1000
1000
0000
0000
0010
0000
0100
0001
,
1000
0000
0000
0000
0001
0000
0000
0000
0000
0000
0100
0000
0000
0100
0000
0000
,
0001
0001
0010
0000
0110
0000
1000
0001
,
0001
0000
0000
0000
0100
0000
0000
0000
0100
0000
0010
0000
0000
0010
0000
0000
,
1000
0100
2000
0000
0010
0000
3001
0000
,
0001
0100
0002
0000
0010
0000
1003
0000
,
1000
1000
0100
0000
0010
0000
0100
1000
,
1000
0000
0000
0000
0001
0000
0000
0000
0000
0000
0100
0000
0000
0100
0000
0000
,
0001
0001
0010
0000
0010
0000
0100
0000
,
0001
0000
0001
0000
1000
0000
0000
0000
0000
0000
0100
0000
0000
0100
0000
0000
,
1000
1000
0000
0000
0110
0000
0001
1000
,
1000
0000
0000
0000
0100
0000
0000
0000
0000
0000
0010
0000
0000
0010
0000
0000
,
0001
0100
0002
0000
0010
0000
1003
0000
,
1000
0100
2000
0000
0010
0000
3001
0000
,
0100
0000
0010
0000
,
0001
0000
1000
0000
,
0100
0000
0010
0000
,
1000
0000
0001
0000
;

//--------------- dance-single - Jenro Jupitel (2024) ----------------
#NOTES:
     dance-single:
     Jenro Jupitel (2024):
     Hard:
     11:
     0,0,0,0,0:
0000
0000
0000
0000
,
0000
0000
0000
0000
,
0000
0000
0000
0000
,
0000
0000
0000
0000
,
0001
1000
0100
1000
,
0010
0001
0100
1000
,
0001
0100
0010
0001
,
1000
1000
1000
1000
0000
0000
0000
0000
,
0101
0000
0010
0100
0000
0001
0000
1000
,
0100
0000
0010
0001
0100
0001
0010
0100
,
1000
1000
0000
0001
0000
1000
0010
0000
,
0100
0001
0100
0000
1000
0010
1000
0000
,
0100
0010
0001
0010
0100
1000
0001
0100
,
0020
0000
1000
0000
0031
0000
1100
0100
,
0100
0010
0001
0100
0010
0100
0010
1000
,
0200
0001
2000
3300
,
1002
0000
0103
0000
0100
0010
0100
0000
,
0010
1000
0001
0000
0210
0000
1300
0001
,
0100
0000
0010
1000
0001
0000
0010
0001
,
1000
0100
4001
3100
,
0001
0100
0010
0000
1000
0100
0010
0000
,
0010
0100
0010
0000
0100
1000
0002
0000
,
0103
0001
0001
1000
0001
0000
0100
1000
,
1000
0001
1000
0000
0100
0000
0010
0000
,
0010
0010
0001
0100
0010
1000
0001
1000
,
0200
0000
0000
0000
0310
0000
0010
0000
0001
0000
0100
0000
0000
0010
0000
0000
,
1000
1000
0001
0010
0100
0010
0001
0100
,
0010
0000
1000
0000
0200
0000
0000
0000
0310
0000
0010
0000
0000
0010
0000
0000
,
0001
1000
0001
0100
0010
0100
0001
1000
,
0100
0000
0010
0000
0002
0000
0000
0000
1003
0000
1000
0000
0000
1000
0000
0000
,
0100
1000
0100
0000
0001
1000
0020
0000
,
0130
0001
0010
0000
0010
0001
0020
0000
,
0130
0100
1000
0010
0100
0001
1000
0001
,
0020
0000
0000
0000
0130
0000
0100
0000
1000
0000
0010
0000
0000
0100
0000
0000
,
0001
0001
1000
0100
0010
0100
1000
0010
,
0100
0000
0001
0000
0020
0000
0000
0000
0130
0000
0100
0000
0000
0100
0000
0000
,
1000
0001
1000
0010
0100
0010
1000
0001
,
0010
0000
0100
0000
2000
0000
0000
0000
3001
0000
0001
0000
0000
0001
0000
0000
,
0010
0001
0010
0000
1000
0001
0200
0000
,
0310
1000
0100
0000
0100
1000
0200
0000
,
0310
0000
0001
0000
,
0100
0000
1000
0000
,
0100
0000
0001
0000
,
0010
0000
0001
0000
,
0010
0000
0001
0000
,
0100
0000
1000
0000
,
0010
0001
0100
1000
0100
0001
0010
0000
,
0100
0000
0000
0001
0000
0000
0010
0000
0001
0000
0100
0000
0001
0000
0000
0000
,
2000
0000
3000
1100
,
0000
0000
0000
0000
1010
0000
0000
0000
0000
0000
0100
0000
0000
0010
0000
0000
,
1000
1000
0001
0010
0100
0010
0001
0100
,
0010
0000
1000
0000
0200
0000
0000
0000
0310
0000
0010
0000
0000
0010
0000
0000
,
0001
1000
0001
0100
0010
0100
0001
1000
,
0100
0000
0010
0000
0002
0000
0000
0000
1003
0000
1000
0000
0000
1000
0000
0000
,
0100
1000
0100
0000
0001
1000
0020
0000
,
0130
0001
0010
0000
0010
0001
0020
0000
,
0130
0100
1000
0010
0100
0001
1000
0001
,
0020
0000
0000
0000
0130
0000
0100
0000
1000
0000
0010
0000
0000
0100
0000
0000
,
0001
0001
1000
0100
0010
0100
1000
0010
,
0100
0000
0001
0000
0020
0000
0000
0000
0130
0000
0100
0000
0000
0100
0000
0000
,
1000
0001
1000
0010
0100
0010
1000
0001
,
0010
0000
0100
0000
2000
0000
0000
0000
3001
0000
0001
0000
0000
0001
0000
0000
,
0010
0001
0010
0000
1000
0001
0200
0000
,
0310
1000
0100
0000
0100
1000
0200
0000
,
0310
0000
0001
0000
,
0100
0000
1000
0000
,
0010
0001
0100
1000
0100
0001
0010
0000
,
0100
0000
0000
0001
0000
0000
0010
0000
0000
0000
0000
0000
0000
0000
0000
0000
;

//--------------- dance-single - Beans ----------------
#NOTES:
     dance-single:
     Beans:
     Challenge:
     16:
     0,0,0,0,0:
2000
0000
0000
0000
3000
0000
0000
0002
,
0000
0000
0003
0200
0000
0000
0300
0000
,
0002
0000
0000
0000
0003
0010
0100
2000
,
0000
3000
0000
1000
0000
0010
1000
0000
,
0001
0000
0020
0030
0000
0010
0001
2000
,
0000
0000
3010
0100
0010
0100
0002
0003
,
1000
0000
2000
0000
0000
3100
0010
0002
,
0000
0000
0000
1003
0100
1000
0010
0100
,
0001
0010
0000
0110
0000
1100
0000
0011
,
0000
0001
0010
0001
0100
0010
1000
0100
,
1000
0010
0000
0010
0000
0010
0100
0002
,
0000
0000
0000
0000
0000
1003
0100
1000
,
0001
0010
0001
1000
0100
1000
0010
0100
,
0002
0000
1000
0000
0003
0000
1000
1000
,
0100
1000
0001
0010
0001
0100
0010
1000
,
0002
0000
0003
0000
,
1000
0000
2000
3000
0000
1000
0100
0020
,
0000
0000
0030
0000
0000
0010
0001
2000
,
0000
0000
3000
0000
0000
0001
0100
0002
,
0000
0000
0000
0000
0000
0000
0000
0000
1003
0100
1000
0000
0010
0000
0100
0000
,
0002
0000
0000
0000
0003
0100
0010
2000
,
0000
0000
3000
0002
0003
0000
0001
0100
,
0001
1000
0010
0100
0002
0003
0001
1000
,
0010
0100
0001
0000
0011
0000
0110
0000
,
1000
0100
0010
0001
0100
0001
1000
0100
,
0010
0100
1000
0001
0100
0010
2000
0000
,
3001
0010
0001
0100
0010
0100
0001
1000
,
0100
0010
0001
0100
0010
1000
0002
0000
,
1003
0100
0010
0001
0100
0001
1000
0100
,
0010
0100
2000
3000
0002
0003
2000
3000
,
0001
0010
0002
0003
1000
0010
2000
3000
,
0001
0010
0002
0003
1000
0010
2000
3000
,
0001
0010
0100
1000
0010
1000
0001
0010
,
0100
0010
0001
1000
0010
0100
0002
0000
,
1003
0100
1000
0010
0100
0010
1000
0001
,
0010
0100
1000
0010
0100
0001
2000
0000
,
3001
0010
0100
1000
0010
1000
0001
0010
,
0100
0010
0002
0003
2000
3000
0002
0003
,
1000
0100
2000
3000
0001
0100
0002
0003
,
1000
0100
2000
3000
0001
0100
0002
0003
,
2000
3000
0002
0013
,
0011
0000
0000
0110
0000
0000
2200
0000
0000
0000
0000
0000
3300
0000
0000
0000
,
1000
0100
1000
0010
0010
1000
0100
1000
,
1100
0000
0000
0110
0000
0000
0022
0000
0000
0000
0000
0000
0033
0000
0000
0000
,
0002
0003
2000
3100
,
0110
0000
0000
0011
0000
0000
2200
0000
0000
0000
0000
0000
3300
0000
0000
0000
,
1000
0010
0100
0010
0110
0000
1001
0000
,
0011
0000
0000
0110
0000
0000
2200
0000
0000
0000
0000
0000
3300
0000
0000
0000
,
1000
0000
0001
0000
0100
0000
0010
0000
0200
0000
0000
0300
0010
0100
0001
1000
,
0100
1000
0010
0100
0010
1000
0001
0010
0100
1000
0010
0100
0002
0000
0000
0000
,
1003
0100
0010
0001
0100
0001
1000
0100
0010
0100
1000
0001
0100
0010
1000
0001
,
0010
0001
0100
0010
0100
0001
1000
0100
0010
0001
0100
0010
2000
0000
0000
0000
,
3001
0010
0100
1000
0010
1000
0001
0010
0100
0010
0001
1000
0010
0100
0001
1000
,
0100
1000
0010
0100
0010
1000
0001
0010
0100
1000
0010
0100
0002
0000
0000
0000
,
1003
0010
1000
0000
0001
0010
0001
0000
,
1000
0010
1000
0000
0001
0010
0001
0000
,
1000
0100
0010
0001
0100
0001
1000
0100
0010
0100
1000
0001
0100
0010
1000
0001
,
0010
0001
0100
0010
0100
0001
1000
0100
0010
0001
0100
0010
2000
0000
0000
0000
,
3001
0010
0100
1000
0010
1000
0001
0010
0100
0010
0001
1000
0010
0100
0001
1000
,
0100
1000
0010
0100
0010
1000
0001
0010
0100
1000
0010
0100
0002
0000
0000
0000
,
1003
0100
0010
0001
0100
0001
1000
0100
0010
0100
1000
0001
0100
0010
1000
0001
,
0010
0001
0100
0010
0100
0001
1000
0100
0010
0001
0100
0010
2000
0000
0000
0000
,
3001
0010
0001
0000
1000
0010
1000
0000
,
0001
0010
0001
0000
1000
0010
1000
0000
,
0002
0003
2000
3100
,
1100
0000
0000
0110
0000
0000
0022
0000
0000
0000
0000
0000
0033
0000
0000
0000
,
1000
0001
0100
0100
0001
0100
0010
0100
,
1001
0000
0000
0110
0000
0000
2002
0000
0000
0000
0000
0000
3003
0000
0000
0000
;
