#TITLE:Cebuana;
#SUBTITLE:;
#ARTIST:Karencitta;
#TITLETRANSLIT:;
#SUBTITLETRANSLIT:;
#ARTISTTRANSLIT:;
#GENRE:Pop;
#CREDIT:Jenro Jupitel;
#MUSIC:Cebuana.ogg;
#BANNER:Cebuana-BN.png;
#BACKGROUND:Cebuana-BG.png;
#CDTITLE:;
#SAMPLESTART:88.247;
#SAMPLELENGTH:19.592;
#SELECTABLE:YES;
#OFFSET:-0.084;
#BPMS:0.000=98.000;
#STOPS:;
#BGCHANGES:;
#FGCHANGES:;

//--------------- dance-single - Jenro Jupitel (2021) ----------------
#NOTES:
     dance-single:
     Jenro Jupitel (2021):
     Beginner:
     1:
     0,0,0,0,0:
0000
0000
0000
0000
,
0000
0000
0000
0000
,
0000
0000
0000
0000
,
0000
0000
0000
0000
,
0100
0000
0000
0000
,
0001
0000
0000
0000
,
0100
0000
0000
0000
,
0010
0000
0000
0000
,
1000
0000
0000
0000
,
0001
0000
0000
0000
,
1000
0000
0000
0000
,
0001
0000
0000
0000
,
0010
0000
0000
0000
,
0100
0000
0000
0000
,
1000
0000
0000
0000
,
0001
0000
1001
0000
,
0100
0000
0000
0000
,
0001
0000
0000
0000
,
0100
0000
0000
0000
,
0010
0000
0000
0000
,
1000
1000
1000
0000
,
0100
0100
0100
0000
,
0001
0000
0000
0000
,
1000
0000
0000
0000
,
0001
0000
0000
0000
,
0010
0000
0000
0000
,
0001
0000
0000
0000
,
1000
0000
0000
0000
,
1000
0000
0001
0000
,
0100
0000
0010
0000
,
1000
0000
0001
0000
,
0100
0000
0010
0000
,
1000
0000
0001
0000
,
0100
0000
0010
0000
,
1000
0000
0001
0000
,
0100
0000
0010
0000
,
0001
0000
1000
0000
,
0010
0000
0100
0000
,
0001
0000
1000
0000
,
0010
0000
0100
0000
,
1000
1000
1000
0000
,
0100
0100
0100
0000
,
0001
0000
1000
0000
,
0001
0000
0001
0000
,
0100
0000
0000
0000
;

//--------------- dance-single - Jenro Jupitel (2020) ----------------
#NOTES:
     dance-single:
     Jenro Jupitel (2020):
     Easy:
     3:
     0,0,0,0,0:
0000
0000
0000
0000
,
0000
0000
0000
0000
,
0000
0000
0000
0000
,
0000
0000
0000
0000
,
0100
0000
0001
0000
,
1000
0001
1000
0001
,
0010
0000
1000
0000
,
0001
1000
0001
1000
,
0110
0000
0100
0000
,
0001
0001
1000
1000
,
0110
0000
0100
0000
,
0001
0001
1000
1000
,
0020
0130
2000
3001
,
0200
0310
0002
1003
,
2000
3000
0002
0003
,
1001
0010
0002
1003
,
0001
0000
1000
0000
,
0200
0000
0300
0000
,
1000
0000
0100
0000
,
0020
0000
0030
0000
,
0011
0100
1000
0000
,
1010
0100
0001
0000
,
1000
0000
0001
0000
,
0200
0000
0300
0000
,
0010
0000
1000
0000
,
0002
0000
0003
0000
,
0100
0100
0100
0100
,
0200
0000
0300
0000
,
1010
0100
0001
1100
,
0011
0100
1000
0101
,
1010
0001
1000
1100
,
0011
1000
0001
0101
,
0200
0010
1000
0310
,
0020
0001
0100
0031
,
2000
0100
3002
0100
,
2003
0010
3002
0010
,
2003
0001
0010
3100
,
0002
1000
0010
0103
,
0020
0100
1000
0031
,
0200
1000
0010
0301
,
0011
0110
1100
0000
,
1010
0110
0101
0000
,
0001
0000
1000
0000
,
0200
0000
0300
0000
,
1000
0000
0100
0000
,
0020
0000
0030
0000
;

//--------------- dance-single - Jenro Jupitel (2021) ----------------
#NOTES:
     dance-single:
     Jenro Jupitel (2021):
     Medium:
     8:
     0,0,0,0,0:
0000
0000
0000
0000
,
0000
0000
0000
0000
,
0000
0000
0000
0000
,
0000
0000
0000
0000
,
1000
0001
1000
0001
1000
0001
2000
0000
,
3010
0100
0010
0100
0010
0100
0020
0000
,
0130
0001
0100
0001
0100
0001
0200
0000
,
0301
0010
0001
0010
0001
0010
0002
0000
,
1003
0000
0100
0010
0001
0100
1000
0000
,
0001
0100
0001
1000
0100
1000
0001
0000
,
1000
0010
0001
0010
1000
0010
0001
0000
,
1000
0001
0100
1000
0001
0100
1000
0000
,
1000
0100
0010
0001
1000
0010
0100
0001
,
1000
1000
0001
0010
0100
0010
1000
0001
,
0100
0010
1000
0010
1000
0001
0100
0001
,
1000
1000
0001
0001
0010
0000
1001
0000
,
0002
0000
2003
0000
,
3020
0000
0000
0030
,
2000
0000
3002
0000
,
0203
0000
0000
0300
,
1001
0000
1100
0010
1001
0000
0000
0000
,
1001
0000
0101
0010
1001
0000
2000
0000
,
3001
0000
0100
0010
1000
1000
0100
0010
,
0002
0003
2000
3000
,
1000
0000
0100
0010
0001
0001
0100
0010
,
2000
3000
0002
0003
,
0001
0000
0010
0100
1000
1000
0010
0100
,
0002
0003
2000
3000
,
0010
0000
0000
0001
0000
0000
1000
0000
1100
0000
1000
0000
1100
0000
1000
0000
,
0010
0000
0000
1000
0000
0000
0001
0000
0101
0000
0001
0000
0101
0000
0001
0000
,
0100
0000
0000
0001
0000
0000
1000
0000
1010
0000
1000
0000
1010
0000
1000
0000
,
0100
0000
0000
1000
0000
0000
0001
0000
0011
0000
0001
0000
0011
0000
0001
0000
,
0100
0000
0000
1000
0000
0000
0001
0000
0011
0000
0001
0000
0011
0000
0001
0000
,
0100
0000
0000
0001
0000
0000
1000
0000
1010
0000
1000
0000
1010
0000
1000
0000
,
0010
0000
0000
1000
0000
0000
0001
0000
0101
0000
0001
0000
0101
0000
0001
0000
,
0010
0000
0000
0001
0000
0000
1000
0000
1100
0000
1000
0000
1100
0000
1000
0000
,
0010
0000
0000
0100
0000
0000
0001
0000
1000
0000
0000
0100
0000
0000
0010
0000
,
1000
0000
0000
0001
0000
0000
0100
0000
0010
0000
0000
0001
0000
0000
1000
0000
,
0100
0000
0000
0010
0000
0000
1000
0000
0001
0000
0000
0010
0000
0000
0100
0000
,
0001
0000
0000
1000
0000
0000
0010
0000
0100
0000
0000
1000
0000
0000
0001
0000
,
1001
0000
0011
0100
1001
0000
0000
0000
,
1001
0000
1010
0100
1001
0000
0002
0000
,
1003
0000
0010
0100
0001
0001
0010
0100
,
2000
3000
0002
0003
,
0001
0000
0010
0100
1000
1000
0010
0100
,
0002
0000
0003
0000
;

//--------------- dance-single - Jenro Jupitel (2021) ----------------
#NOTES:
     dance-single:
     Jenro Jupitel (2021):
     Hard:
     12:
     0,0,0,0,0:
0000
0000
0000
0000
,
0000
0000
0000
0000
,
0000
0000
0000
0000
,
0000
0000
0000
0000
,
0000
0100
0000
0100
0100
0000
1000
1000
0000
0010
0000
0100
0010
0000
0100
0001
,
1000
0000
0000
0001
0000
0000
1000
0000
0000
0001
0000
0000
0010
0000
0000
0000
0001
0000
0000
0000
1000
0000
0000
0000
0100
0000
0000
1000
0000
0000
0001
0000
0000
0000
0000
0000
0100
0000
0000
0000
0000
0000
0001
0000
0000
0000
0000
0000
,
0101
0000
0000
0001
0100
0001
1000
0100
1000
0010
0100
0010
0100
0000
1000
0000
,
1100
0000
0000
0001
0010
0001
1000
0010
1000
0001
1000
0100
0010
0000
0001
0000
,
1010
0000
0000
0001
0100
0001
1000
0100
1000
0010
0100
0000
0110
0000
0000
0000
,
1000
0100
1000
0100
1000
0010
0100
0010
0100
0001
0100
0000
0110
0000
0000
0000
,
1000
0001
1000
0001
1000
0100
1000
0100
0010
0100
0010
0000
0110
0000
1000
0100
,
1000
0010
2000
0000
3001
0000
0100
0001
0100
0010
2000
0000
3001
0000
1000
0100
,
0010
0000
0000
0000
0000
0000
0001
0000
0000
0000
0000
0000
0001
0000
0000
0000
0100
0000
0000
0000
0010
0000
0000
0000
1000
0000
0000
0000
0000
0000
1000
0000
0000
0100
0000
0000
1000
0000
0000
0001
0000
0000
0100
0000
0000
0010
0000
0000
,
1000
0000
0000
0000
0001
0000
0000
0000
0010
0000
0100
0000
1000
0000
0000
0000
0100
0000
0000
0000
0010
0000
0001
0000
1000
0000
0000
0100
0000
0000
0010
0000
,
0000
0001
1000
0100
0000
1000
0010
0100
0000
0001
0000
0100
0001
0000
1000
0000
,
0100
0010
0001
0000
1000
0000
0100
0000
0012
0000
0000
0000
1003
0000
0000
0000
,
1020
0000
0130
0001
0010
0001
0001
1000
,
0010
0000
0000
0001
0000
0000
0000
0000
1000
0000
0000
0100
0000
0000
0001
0000
,
0001
0000
0010
1000
0100
0100
0100
1000
,
0001
0000
0000
0001
0100
0000
0120
0000
0000
0000
1030
0000
0000
0000
1000
0000
,
1010
0100
1010
0001
0011
0000
0000
0001
,
0011
0100
0011
1000
1010
0000
0001
0002
,
1003
0000
0001
0001
0001
0010
0010
0100
,
1000
0000
0000
0100
0000
0000
0000
0000
0010
0000
0000
0001
0000
0000
0000
0000
,
0001
0000
1000
1000
1000
0100
0100
0010
,
0001
0000
0000
0010
0000
0000
0000
0000
0100
0000
0000
1000
0100
0000
0001
0000
,
0100
0000
0000
0010
0000
0000
1000
0000
0001
0000
0100
0000
0010
0000
1000
0000
,
0001
0000
0000
0100
0000
0000
0010
0000
1000
0000
0001
0000
0100
0000
0010
0000
,
1001
0000
0001
0100
0000
0000
0001
1000
0001
1000
0001
0010
0001
0010
0001
0000
,
1010
0000
0001
0010
0100
0000
1000
0000
0100
0000
0010
0100
1000
0000
0001
0000
,
1001
0000
1000
0100
0000
0000
1000
0001
1000
0001
1000
0010
1000
0010
1000
0000
,
0011
0000
1000
0010
0100
0000
0001
0000
0100
0000
0010
0100
0001
0000
1000
0000
,
1001
0000
0001
0010
0000
0000
0001
1000
0001
1000
0001
0100
0001
0100
0001
0000
,
1100
0000
0001
0100
0010
0000
1000
0000
0010
0000
0100
0010
1000
0000
0001
0000
,
1001
0000
1000
0010
0000
0000
1000
0001
1000
0001
1000
0100
1000
0100
1000
0000
,
0101
0000
1000
0100
0010
0000
0001
0000
0010
0000
0100
0010
0001
0000
2000
0000
,
3001
0100
0100
0010
0010
1000
1000
0100
,
0010
0000
0010
0001
0010
0000
0001
0000
0100
0000
0100
0001
0100
0000
1000
0000
,
1000
0010
0010
0100
0100
0001
0001
0010
,
0100
0000
0100
1000
0100
0000
1000
0000
0010
0000
0010
1000
0010
0000
0001
1000
,
0001
0100
0001
1000
0010
1000
0001
0100
0010
0000
0010
0000
1001
0000
1000
0001
,
1000
0010
1000
0001
0100
0001
1000
0010
0100
0000
0100
0000
1001
0000
0010
0000
,
1000
0000
0000
1000
0000
0000
0100
0000
0010
0000
0000
0001
0000
0000
0100
0000
,
0010
0000
0000
1000
0000
0000
0100
0000
0100
0000
0100
0000
0100
0000
0000
0000
,
0001
0000
1000
1000
1000
0100
0100
0010
,
0002
0000
0003
0000
;

//--------------- dance-double - Jenro Jupitel (2021) ----------------
#NOTES:
     dance-double:
     Jenro Jupitel (2021):
     Challenge:
     10:
     0,0,0,0,0:
00000000
00000000
00000000
00000000
,
00000000
00000000
00000000
00000000
,
00000000
00000000
00000000
00000000
,
00000000
00000000
00000000
00000000
,
01000000
01000000
00010000
00010000
00001000
01000000
00001000
01000000
,
00010000
00001000
00000100
00010000
00001000
01000000
01000000
00100000
,
10010000
00000000
10000000
10000000
10000000
10000000
10000000
00100000
,
10010000
00000000
00010000
00010000
00010000
00010000
00010000
00100000
,
10010000
00000000
10000000
01000000
00010000
00000100
00001000
00000000
,
00000100
00001000
00000100
00001000
00000100
00000001
00000100
00000000
,
00001000
01000000
00010000
00000100
00010000
00001000
01000000
00010000
,
00100000
00010000
00100000
00001000
00010000
00000010
00010000
00001000
,
00020000
00000000
00130000
01000000
20000000
00000000
30100000
01000000
,
00020000
00000000
01030000
00001000
00020000
00000000
00030100
00000010
,
00000001
00000100
00000001
00000100
00000010
00000010
00001000
00000000
,
00011000
00110000
10010000
10100000
,
20000000
30000000
02000000
03000000
,
00020000
00000000
00030000
00000000
,
00020000
00030000
02000000
03000000
,
20000000
00000000
00000000
30000000
,
00110000
00011000
00001100
00000000
,
00001010
00000000
00011000
00000000
01010000
00000000
00010000
00010000
,
10000000
00000000
10000000
01000000
10000000
01000000
10000000
00010000
,
00020000
00030000
00020000
00030000
,
00001000
00000000
00001000
00000100
00001000
00000100
00001000
00000001
,
00000002
00000003
00000002
00000003
,
00000010
00000100
00001000
00000100
00000010
00000100
00001000
00000100
,
00000010
00000000
00000000
00000010
00000000
00000000
00000001
00000000
00001000
00000000
00001000
00000000
00000001
00000000
00000001
00000000
,
00001001
00000000
00000000
00000110
00000000
00000000
00001000
00000000
00000100
00000000
00001000
00000000
00010000
00000000
00001000
00000000
,
00000100
00000000
00000000
00011000
00000000
00000000
00010000
00000000
01000000
00000000
00001000
00000000
00010000
00000000
00001000
00000000
,
01000000
00000000
00000000
01100000
00000000
00000000
00010000
00000000
01000000
00000000
00010000
00000000
00001000
00000000
00010000
00000000
,
01000000
00000000
00000000
00011000
00000000
00000000
00001000
00010000
00001000
00000000
00010000
00001000
00010000
00000000
00001000
00000000
,
00010000
00000000
00100000
01000000
10000000
00000000
01000000
00000000
10000000
00000000
00100000
01000000
00010000
00000000
10000000
00000000
,
00010000
00000000
01000000
00100000
10000000
00000000
01000000
00000000
00010000
00000000
00100000
01000000
10000000
00000000
00010000
00000000
,
00001000
00000000
00000100
00000010
00000001
00000000
00000010
00000000
00000001
00000000
00000100
00000010
00001000
00000000
00000001
00000000
,
00001000
00000000
00000010
00000100
00000001
00000000
00000010
00000000
00001000
00000000
00000100
00000010
00000001
00000000
00001000
00000000
,
00000010
00000000
00000000
00000100
00000000
00000000
00001000
00000000
00000001
00000000
00000000
00000100
00000000
00000000
00000010
00000000
,
00000001
00000000
00000000
00001000
00000000
00000000
00000100
00000000
00000010
00000000
00000000
00001000
00000000
00000000
00000001
00000000
,
00000100
00000000
00000000
00000010
00000000
00000000
00000001
00000000
00001000
00000000
00000000
00000010
00000000
00000000
00000100
00000000
,
00001000
00000000
00000000
00000001
00000000
00000000
00000010
00000000
00000100
00000000
00000000
00000001
00000000
00000000
00001000
00000000
,
00001001
00000000
00001010
00000100
00001001
00000000
00000000
00000000
,
00001001
00000000
00000011
00000100
00001001
00000000
00002000
00000000
,
00003001
00000000
00000010
00000100
00001000
00001000
00000010
00000100
,
00000002
00000003
00002000
00003000
,
00020000
00000000
00031000
00001000
01000000
00010000
00100000
01000000
,
20000000
00000000
30000000
00000000
;
