#VERSION:0.83;
#TITLE:Borderless;
#SUBTITLE:;
#ARTIST:Zirrion;
#TITLETRANSLIT:;
#SUBTITLETRANSLIT:;
#ARTISTTRANSLIT:;
#GENRE:;
#CREDIT:Jenro Jupitel (2024);
#MUSIC:Borderless.ogg;
#BANNER:Borderless-bn.png;
#BACKGROUND:Borderless-bg.png;
#CDTITLE:cdtitle.png;
#SAMPLESTART:105.542;
#SAMPLELENGTH:14.395;
#SELECTABLE:YES;
#OFFSET:0.022;
#BPMS:0.000=200.069;
#STOPS:;
#SCROLLS:0.000=0.250,
96.000=0.500,
160.000=0.750,
288.000=1.000,
318.000=2.000,
319.000=0.500,
320.000=1.000,
344.000=2.000,
350.000=2.500,
352.000=1.000,
408.000=0.660,
416.000=0.500
;
#BGCHANGES:;
#FGCHANGES:;

//--------------- dance-single - Jenro Jupitel (2024) ----------------
#NOTEDATA:;
#STEPSTYPE:dance-single;
#DESCRIPTION:Jenro Jupitel (2024);
#DIFFICULTY:Beginner;
#METER:4;
#RADARVALUES:0,0,0,0,0;
#NOTES:
0000
0000
0000
0000
,
0000
0000
0000
0000
,
0000
0000
0000
0000
,
0000
0000
0000
0000
,
0000
0000
0000
0000
,
0000
0000
0000
0000
,
0000
0000
0000
0000
,
0000
0000
0000
0000
,
0001
0000
0000
0000
,
0000
0000
0000
0000
,
1000
0000
0000
0000
,
0000
0000
0000
0000
,
0001
0000
0000
0000
,
0000
0000
0000
0000
,
1000
0000
0000
0000
,
0000
0000
0000
0000
,
1000
0000
0000
0000
,
0000
0000
0000
0000
,
0001
0000
0000
0000
,
0000
0000
0000
0000
,
1000
0000
0000
0000
,
0000
0000
0000
0000
,
0001
0000
0000
0000
,
0000
0000
0000
0000
,
0010
0000
0000
0000
,
0010
0000
0000
0000
,
0010
0000
0000
0000
,
0010
0000
0000
0000
,
0100
0000
0000
0000
,
0100
0000
0000
0000
,
0100
0000
0000
0000
,
0100
0000
0000
0000
,
0001
0000
0000
0000
,
0001
0000
0000
0000
,
1000
0000
0000
0000
,
1000
0000
0000
0000
,
0001
0000
0000
0000
,
1000
0000
0000
0000
,
0001
0000
0000
0000
,
1000
0000
0000
0000
,
0100
0000
0100
0000
,
0100
0000
0000
0000
,
0010
0000
0010
0000
,
0010
0000
0000
0000
,
0001
0000
0001
0000
,
0001
0000
0000
0000
,
1000
0000
1000
0000
,
1000
0000
0000
0000
,
0010
0000
0010
0000
,
0010
0000
0000
0000
,
0100
0000
0100
0000
,
0100
0000
0000
0000
,
0001
0000
0001
0000
,
0001
0000
0000
0000
,
1000
0000
1000
0000
,
1000
0000
0000
0000
,
0100
0000
0000
0000
,
0001
0000
0000
0000
,
0100
0000
0000
0000
,
1000
0000
0000
0000
,
0001
0000
0000
0000
,
1000
0000
0000
0000
,
0001
0000
0000
0000
,
0110
0000
0000
0000
,
0100
0000
0000
0000
,
0001
0000
0000
0000
,
0100
0000
0000
0000
,
1000
0000
0000
0000
,
0001
0000
0001
0000
,
1000
0000
1000
0000
,
0001
0000
0000
0000
,
0110
0000
0000
0000
,
0100
0000
0100
0000
,
0100
0000
0100
0000
,
1000
0000
1000
0000
,
0001
0000
0001
0000
,
0000
0000
0010
0000
,
0010
0000
0001
0000
,
0000
0000
0010
0000
,
0010
0000
0100
0000
,
0100
0000
0100
0000
,
1000
0000
1000
0000
,
0001
0000
0001
0000
,
0010
0000
0010
0000
,
0000
0000
0010
0000
,
0000
0000
1001
0000
,
0100
0000
0000
0000
,
0000
0000
0000
0000
,
0100
0000
0100
0000
,
0100
0000
0100
0000
,
1000
0000
1000
0000
,
0001
0000
0001
0000
,
0000
0000
0010
0000
,
0010
0000
0011
0000
,
0000
0000
0010
0000
,
0010
0000
0110
0000
,
0100
0000
0100
0000
,
1000
0000
1000
0000
,
0001
0000
0001
0000
,
0010
0000
0010
0000
,
0000
0000
0010
0000
,
0010
0000
0011
0000
,
0100
0000
0000
0000
,
0000
0000
0000
0000
,
0001
0000
0000
0000
,
1000
0000
0000
0000
,
0001
0000
0000
0000
,
1000
0000
0000
0000
,
1000
0000
0000
0000
,
0001
0000
0000
0000
,
1000
0000
0000
0000
,
0001
0000
0000
0000
,
0010
0000
0000
0000
;

//--------------- dance-single - Jenro Jupitel (2024) ----------------
#NOTEDATA:;
#STEPSTYPE:dance-single;
#DESCRIPTION:Jenro Jupitel (2024);
#DIFFICULTY:Easy;
#METER:10;
#RADARVALUES:0,0,0,0,0;
#NOTES:
0000
0000
0000
0000
,
0000
0000
0000
0000
,
0000
0000
0000
0000
,
0000
0000
0000
0000
,
0000
0000
0000
0000
,
0000
0000
0000
0000
,
0000
0000
0000
0000
,
0000
0000
0000
0000
,
1000
1000
1000
0100
,
0100
0010
0100
1000
,
0001
0001
0001
0100
,
0100
0010
0100
0001
,
0001
1000
1000
0001
,
0001
1000
0001
1000
,
1000
0001
0001
1000
,
0001
1000
0001
0001
,
0010
0010
0100
0010
,
0010
0100
1000
1000
,
0010
0010
0100
0010
,
0010
0100
0001
0001
,
1000
0001
0001
1000
,
0001
0010
1000
1000
,
0001
1000
0010
0001
,
1000
1000
0001
0001
,
0010
0001
0100
0001
,
1000
0010
1000
0100
,
0010
0100
0100
0001
,
0001
0010
1000
0001
,
0100
0001
0010
0100
,
0001
0100
0010
0100
,
0100
0001
1000
0001
,
0100
0010
1000
0100
,
0010
1000
0100
1000
,
0001
0010
0001
0100
,
0010
0100
0100
1000
,
1000
0010
0001
1000
,
0100
1000
0010
0100
,
1000
0100
0010
0100
,
0100
1000
0001
1000
,
0100
0010
0001
0100
,
0010
1000
0010
1000
,
1000
0001
1000
1000
,
0001
0100
0100
0001
,
0100
0010
1000
0100
,
0010
0010
0010
0001
,
0010
0001
0010
0001
,
1000
1000
1000
0001
,
1000
0001
1000
0001
,
1000
0100
0010
0010
,
0001
1000
0010
0010
,
0100
0001
0100
0001
,
1000
0100
1000
0100
,
0010
0010
0010
0100
,
0010
0010
0010
0010
,
0001
0001
0001
0001
,
1000
1000
1000
1000
,
0010
0100
0001
0010
,
0202
0303
2200
3300
,
1000
0100
0001
0001
,
2200
3300
0202
0303
,
1000
0010
0010
0100
,
0010
0010
0001
0010
,
0010
0100
0010
0010
,
1000
0001
1000
0001
,
0010
0100
1000
0010
,
2200
3300
0202
0303
,
0001
0100
1000
1000
,
0202
0303
2200
3300
,
0001
0010
0010
0100
,
0010
0010
1000
0010
,
0010
0000
0000
0000
,
0002
2003
0002
3003
,
0110
0020
0130
1000
,
1002
1003
0102
0013
,
0021
0032
0103
2100
,
3001
1001
0102
0013
,
0110
1000
1000
0110
,
1000
0110
2000
3001
,
0100
0001
0001
0110
,
0001
1000
0220
0330
,
0100
0001
0001
0010
,
0101
0010
0101
1000
,
1100
0010
1001
1100
,
0001
1100
0001
1100
,
1001
0200
0001
0010
,
1000
0001
1000
0301
,
2002
0000
0000
0000
,
0000
0000
0000
3003
,
0010
0100
1001
0100
,
0010
0110
0100
0101
,
0011
1000
1010
1000
,
0101
1000
0011
0100
,
0110
0000
0020
0000
0002
0033
0000
1100
,
0000
0010
1100
0010
,
2000
0000
3001
0000
2002
3003
0000
0100
,
0000
0110
0011
1100
,
0200
2300
3020
0230
,
0302
2003
3002
0203
,
0320
0230
0302
2003
,
0001
0010
0200
3300
,
0000
0000
0102
0000
0013
0000
0000
1001
,
0000
0100
1001
0100
,
0020
0000
0000
0000
,
0000
0000
0000
0000
,
1030
0001
1000
0000
,
0010
1000
0010
0000
,
1000
0100
0001
0000
,
0010
0100
1000
0000
,
0002
0000
0023
0000
,
0230
0000
2300
0000
,
3002
0000
0000
0010
,
0000
0000
1000
0000
,
2000
0000
0000
0000
,
0000
0000
0000
0000
,
0000
0000
0000
0000
,
0000
0000
0000
0000
,
0000
0000
0000
0000
,
3003
0000
0000
0000
;

//--------------- dance-single - Jenro Jupitel (2024) ----------------
#NOTEDATA:;
#STEPSTYPE:dance-single;
#DESCRIPTION:Jenro Jupitel (2024);
#DIFFICULTY:Medium;
#METER:11;
#RADARVALUES:0,0,0,0,0;
#NOTES:
0000
0000
0000
0000
,
0000
0000
0000
0000
,
0000
0000
0000
0000
,
0000
0000
0000
0000
,
0000
0000
0000
0000
,
0000
0000
0000
0000
,
0000
0000
0000
0000
,
0000
0000
0000
0000
,
1000
1000
1000
0010
,
1000
0001
0100
1000
,
0100
0100
0100
1000
,
1000
0010
1000
1000
,
0001
0100
0010
1000
,
0001
0001
0100
0100
,
0010
0010
1000
1000
,
0001
0100
2000
0000
,
3010
0010
0010
1000
,
0001
0100
0010
0010
,
1000
0100
0001
0010
,
0010
0100
0001
0100
,
0002
0100
1003
1000
,
1000
1000
1000
0010
,
0100
0100
0001
0010
,
0010
0020
0001
0031
,
0100
0000
0001
0000
0010
0000
0001
0010
,
0100
0010
0200
0000
1000
0000
0301
0000
,
0100
0000
0100
0000
0200
0000
0310
0100
,
0010
0100
0010
0000
1000
0000
0002
0000
,
1000
0000
2003
0000
3002
0000
1003
0010
,
1000
0001
0010
0000
0100
0000
0001
0000
,
0001
0000
0001
0000
1000
0000
0001
0100
,
0001
1000
0100
0000
0010
0000
0001
0000
,
0100
0000
0100
0000
0100
0000
0010
0100
,
0010
0100
0010
0000
1000
0000
1000
0000
,
0001
0000
0001
0000
0010
0000
0010
0001
,
1000
0010
0100
0000
0100
0000
0100
0000
,
0010
0000
0010
0000
1000
0000
1000
0001
,
1000
0001
1000
0000
0100
0000
0100
0000
,
0001
0000
0010
0000
0010
0000
0010
0001
,
0100
0001
0010
0000
0001
0000
0001
0000
,
1000
0001
1000
0001
,
1000
0010
0100
0001
,
0010
0100
1000
0100
,
0001
0010
0001
0000
0100
0000
0010
0000
,
1000
0010
0001
0010
,
1000
0010
1000
0000
0100
0000
0010
0000
,
0001
0010
0001
0100
,
0001
1000
0001
0000
0100
0000
0010
0000
,
1000
0001
1000
1000
,
0001
0100
0001
0000
0100
0000
0010
0000
,
0001
1000
0001
0100
,
1000
0010
1000
0000
0001
0000
0100
0000
,
0010
1000
0010
0001
,
0100
0001
0100
0000
1000
0000
0001
0000
,
0010
0100
0010
0001
,
1000
0100
1000
0000
0001
0000
0010
0000
,
1000
0001
1002
0000
,
0103
0010
1001
0100
,
1000
0001
1002
0000
,
0103
0010
2000
0001
,
3100
0020
0031
0020
,
0130
0002
1003
0200
,
1300
0020
0130
0002
,
1003
0002
0103
0020
,
2030
0000
3001
0010
0001
0010
0001
0100
,
0010
0100
0010
1000
0100
1000
0001
0100
,
0010
0100
0010
0100
0001
0100
0001
1000
,
0100
1000
0100
0010
0100
0010
0001
0010
,
0100
1000
0010
0100
0010
0100
0001
0010
,
0100
0010
0100
1000
0100
0010
0001
1000
,
0001
0002
0100
0010
,
1000
0010
0103
0000
,
0101
0000
0100
0001
0100
0000
0110
0000
,
0010
0100
0010
0000
1010
0000
1100
0000
,
0110
0000
0100
0010
0100
0000
0110
0000
,
0001
1000
0001
0000
0010
0000
0110
0000
,
0001
0000
1000
0000
1001
0000
0010
0100
,
0000
0102
0100
0013
,
1000
0000
0000
0001
1000
0000
0010
0100
,
0000
0100
1001
0100
,
0010
0000
0000
0001
0010
0000
0001
0010
,
0000
0110
1000
1000
,
0010
0000
0000
1000
0010
0000
1000
0001
,
0000
0000
0010
0000
0100
0010
0001
0000
,
1000
0100
1000
0001
1000
0000
0010
1000
,
0001
0000
0010
0001
0100
0000
0100
0000
,
0020
0100
0100
0100
,
0100
0100
0100
0100
,
1030
0000
0000
0001
0010
0000
0100
1000
,
0000
0002
1003
0101
,
1000
0000
0001
0010
0100
0000
1000
0100
,
0000
0000
1000
0010
0100
0001
1000
0001
,
0010
0000
0001
0000
0101
0000
0100
0010
,
0000
1010
0101
0100
,
1001
0000
0001
0100
0001
0000
0010
0001
,
0000
0002
0100
1003
,
0110
0000
0001
0010
0100
0000
0010
0100
,
0000
0000
1000
0001
0010
0000
0100
0000
,
1100
0000
0011
0000
1000
0000
0010
0100
,
0010
0000
0100
0000
0001
0010
0001
0010
,
0001
0000
0201
0000
0310
0000
1000
0010
,
0000
1100
0101
1000
,
0001
0000
0000
0000
,
0000
0000
0000
0000
,
1000
1000
1000
0000
,
1000
0001
0100
0000
,
0100
0100
0100
0000
,
1000
0010
1000
0000
,
0001
0100
0010
1000
,
0001
0001
0100
0100
,
0010
0010
1000
1000
,
0001
0100
2000
0000
,
3010
0000
0000
0000
;

//--------------- dance-single - Jenro Jupitel (2024) ----------------
#NOTEDATA:;
#STEPSTYPE:dance-single;
#DESCRIPTION:Jenro Jupitel (2024);
#DIFFICULTY:Hard;
#METER:13;
#RADARVALUES:0,0,0,0,0;
#NOTES:
0000
0000
0000
0000
,
0000
0000
0000
0000
,
0000
0000
0000
0000
,
0000
0000
0000
0000
,
0000
0000
0000
0000
,
0000
0000
0000
0000
,
0000
0000
0000
0000
,
0000
0000
0000
0000
,
0100
0000
0100
0000
,
0001
0000
0010
0000
,
0100
0000
0100
0000
,
1000
0000
0010
0000
,
0001
1000
0001
1000
,
0001
0010
0100
1000
,
0010
0100
0001
1000
,
0001
0010
0001
0010
0001
0000
1000
0000
,
1000
0100
0010
0000
,
0001
0100
0100
0000
,
0001
0100
0010
0000
,
1000
0100
0100
0000
,
0001
1000
0001
1000
,
1000
0010
0010
0100
,
0100
0001
0001
0010
,
0010
0100
0100
0000
,
1000
0000
0010
0000
1010
0000
0100
0001
,
0100
0001
0010
0000
0100
0000
1000
0000
,
0001
0000
0100
0000
1000
0000
0001
1000
,
0001
1000
0010
0000
0100
0000
0001
0000
,
0010
0100
1000
0000
0001
0100
0001
0010
,
0001
0010
0100
0000
1000
0000
1000
0010
,
0100
0000
0100
0001
0100
0000
1000
0010
,
0100
0001
0100
0000
0001
0000
1000
0000
,
1001
0000
0001
0000
0010
0000
0100
1000
,
0100
0010
0001
0000
0100
0000
0010
0000
,
0100
0010
0100
0010
0100
0001
1000
0100
,
1000
0001
1000
0000
0001
0000
0010
0001
,
0010
0000
0100
1000
0100
0000
0010
0001
,
0010
0100
1000
0000
0001
0000
0100
0000
,
0010
0000
1000
0000
0001
0000
0100
0010
,
1000
0001
0100
0000
0010
0000
0010
0000
,
1001
0100
0101
0001
,
0011
0000
0100
0000
1000
0010
0100
0000
,
0001
0010
0001
1000
0001
0100
0010
0100
,
0010
1000
0010
1000
0010
1000
0010
0100
,
0001
0010
0001
0010
0100
0000
0100
1000
,
0100
1000
0100
1000
0100
0000
0010
0001
,
0100
0000
0010
1000
0100
0000
0001
1000
,
0100
0010
0001
0000
0010
0000
0100
0010
,
0001
0000
0100
0010
1000
0000
0001
1000
,
0100
1000
0001
0100
0001
0000
0010
0100
,
0010
0000
0001
0100
0010
0000
0010
1000
,
0010
0000
0010
1000
0010
0100
0001
0000
,
0010
0000
0001
0100
0001
0000
1000
0100
,
1000
0001
1000
0000
0010
0000
0100
0001
,
0100
0000
0010
0100
0010
0000
0100
0001
,
0010
0100
0010
0001
1000
0001
0100
0000
,
0020
1030
0100
0001
,
1000
0001
0100
0000
0001
1000
0100
0000
,
0020
0031
0100
1000
,
0001
1000
0100
0000
1000
0001
0100
0000
,
0010
0001
0100
0001
0100
0000
1000
0000
,
1000
0100
1000
0000
0010
1000
0010
0000
,
1000
0001
1000
0010
0100
0000
0001
0000
,
0010
0100
1000
0100
1000
0000
0110
0000
,
0001
0000
0001
0100
0001
0100
0001
0100
,
0010
0100
0001
1000
0100
1000
0001
0100
,
0010
1000
0010
1000
0010
0100
0010
1000
,
0010
1000
0100
0010
0001
0100
0010
1000
,
0001
0100
0001
0100
0010
1000
0010
1000
,
0100
0010
0100
0010
0001
0100
0010
1000
,
0001
0000
0000
0000
,
0000
0000
0000
0000
,
1000
0100
0010
0001
0010
0000
0001
0100
,
0010
1000
0010
0100
0002
0000
0013
0000
,
0100
1000
0010
0100
0002
0000
0013
0100
,
2000
0000
3010
0100
0002
0000
1003
0000
,
0001
0100
0001
0100
0010
0000
0100
0001
,
0000
0001
0010
0100
0010
0100
1000
0000
,
0010
0100
0010
0100
0001
0000
1000
0001
,
1000
0001
0100
0000
0001
1000
0100
0000
,
0001
0100
0010
1000
0010
0000
1000
0100
,
0010
0001
0010
0100
2000
0000
3010
0000
,
0100
0001
0010
0100
2000
0000
3010
0100
,
0002
0000
0013
0100
2000
0000
3001
0000
,
1000
0100
1000
0100
0010
0000
0100
1000
,
0000
1000
0010
0100
0010
0100
0001
0000
,
0020
0000
0000
0000
,
0000
0000
0000
0000
,
0130
1000
0000
0001
0100
0000
0010
1000
,
0000
0000
0001
0010
0001
0100
0001
1000
,
0100
0010
0100
1000
0001
1000
0010
0100
,
0002
0000
0013
0000
0100
1000
0100
1000
,
0010
0000
0100
0001
0100
0000
0001
0010
,
0000
0100
1000
0010
0100
0001
0010
0000
,
0001
0100
0001
0100
0010
1000
0001
0010
,
0000
0000
0100
1000
0001
1000
0010
0000
,
0100
0010
0100
0010
0100
0001
0100
0010
,
1000
0100
0010
0001
0100
0010
1000
0000
,
0001
0100
0001
1000
0001
0010
0100
1000
,
0010
0100
0010
0100
0010
0100
0001
0010
,
0100
0000
1000
0001
0100
0000
0010
1000
,
0000
0100
0010
0001
0010
0001
0100
0010
,
0200
0000
0000
0000
,
0000
0000
0000
0000
,
0310
1000
0001
0100
,
0002
0000
0013
0000
,
1000
1000
0001
1000
,
0020
0000
0130
0000
,
0001
0100
1000
0002
,
0000
0013
0000
0100
,
1000
0001
1000
0010
,
0100
0001
0100
0000
,
0010
0000
0000
0000
;
