#TITLE:Bongga Ka Day;
#SUBTITLE:;
#ARTIST:The Akafellas;
#TITLETRANSLIT:;
#SUBTITLETRANSLIT:;
#ARTISTTRANSLIT:;
#GENRE:;
#CREDIT:;
#MUSIC:Bongga Ka Day.ogg;
#BANNER:Bongga Ka Day-BN.png;
#BACKGROUND:Bongga Ka Day-BG.png;
#CDTITLE:;
#SAMPLESTART:32.722;
#SAMPLELENGTH:14.220;
#SELECTABLE:YES;
#OFFSET:-0.727;
#BPMS:0.000=135.021;
#STOPS:;
#BGCHANGES:;
#FGCHANGES:;

//--------------- dance-single - Jenro Jupitel ----------------
#NOTES:
     dance-single:
     Jenro Jupitel:
     Beginner:
     2:
     0,0,0,0,0:
0000
0000
0000
0000
,
0000
0000
0000
0000
,
0000
0000
0000
0000
,
0000
0000
0000
0000
,
0000
1000
0000
0000
,
0000
0001
0000
0000
,
0000
1000
0000
0001
,
2000
0000
3000
0000
,
0010
0000
0010
0000
,
0100
0000
0001
0000
,
1000
0000
1000
0000
,
0001
0000
0100
0000
,
0010
0000
1000
0000
,
0001
0000
0100
0000
,
0100
0000
0001
0000
,
1000
0000
0010
0000
,
0100
0000
0100
0000
,
0200
0000
0000
0000
,
0301
0100
0001
0000
,
1000
0100
1000
0000
,
1000
0100
0010
0000
,
0010
0010
0010
0000
,
1000
0010
1000
0000
,
0100
0001
0100
0000
,
0001
0000
1000
0000
,
0010
0010
0010
0000
,
0000
1000
0000
0000
,
0000
0001
0000
0000
,
0000
1000
0000
0001
,
2000
0000
3000
0000
,
0010
0000
0001
0000
,
0100
0000
1000
0000
,
0100
0000
1000
0000
,
0010
0000
0001
0000
,
1000
0000
0001
0000
,
1000
0000
0001
0000
,
0010
0000
0100
0000
,
0010
0000
0100
0000
,
0100
0000
0100
0000
,
0200
0000
0000
0000
,
0301
0100
0001
0000
,
1000
0100
1000
0000
,
1000
0100
0010
0000
,
0010
0010
0010
0000
,
1000
0010
1000
0000
,
0001
0100
0001
0000
,
0001
0001
1000
0000
,
0010
0010
0010
0000
,
1000
0100
0001
0000
,
0001
0100
1000
0000
,
1000
0010
0001
0100
,
1000
0010
0001
0000
,
0001
0010
1000
0000
,
1000
0010
0001
0000
,
0001
0100
1000
0010
,
0001
0100
1000
0100
,
0010
0000
0100
0110
;

//--------------- dance-single - John Earl De Juan ----------------
#NOTES:
     dance-single:
     John Earl De Juan:
     Easy:
     5:
     0,0,0,0,0:
0000
0000
0000
0000
,
0000
0000
0000
0000
,
0000
0000
0000
0000
,
0000
0000
0000
0000
,
1000
0000
1000
0000
,
0001
0000
0001
0000
,
0001
0000
1000
0000
,
0001
0000
1000
0000
,
0010
0010
0010
0100
,
0001
0001
0001
1000
,
0010
1000
0100
0001
,
0010
0001
0100
1000
,
0001
1000
0001
1001
,
0010
0100
0010
0110
,
0002
0000
1000
1003
,
2000
0000
0001
3001
,
0010
1000
0010
0001
,
0100
1000
0100
0001
,
0001
0100
0001
0101
,
1000
0100
1000
1100
,
1000
0100
0010
0001
,
0010
0010
0010
0010
,
1000
0010
1000
1010
,
0100
0001
0100
0101
,
0001
0001
1000
1000
,
0001
0100
0010
1000
,
0010
0000
0010
0000
,
0100
0000
0100
0000
,
0001
0000
1000
0000
,
0010
1000
0010
0001
,
0010
1001
0100
0010
,
0100
0010
0001
0001
,
0000
1000
0000
0001
,
0000
0100
1001
0100
,
0010
0001
0100
1100
,
0010
1000
0100
0101
,
0002
0000
1000
1003
,
2000
0000
0001
3001
,
0010
1000
0010
0001
,
0100
0001
0100
1000
,
0001
0100
0001
0101
,
1000
0100
1000
1100
,
1000
0100
0010
0001
,
0010
0010
0010
0010
,
1000
0010
1000
1010
,
0001
0100
0001
0101
,
0001
0001
1000
1000
,
0001
0100
0010
1000
,
1000
0000
0001
0001
,
0001
0000
1000
1000
,
0010
0001
1000
0100
,
0100
0001
1000
0010
,
0100
0000
0010
0010
,
0100
0100
0010
0010
,
0001
0100
1000
0100
,
1000
0100
0001
0100
,
0010
0000
0100
0110
;

//--------------- dance-single - John Earl De Juan ----------------
#NOTES:
     dance-single:
     John Earl De Juan:
     Medium:
     7:
     0,0,0,0,0:
0000
0000
0000
0000
,
0000
0000
0000
0000
,
0000
0000
0000
0000
,
0000
0000
0000
0000
,
0100
0010
0110
0100
,
0001
1000
1001
0001
,
0010
0110
0001
1001
,
0001
0000
0001
0000
0010
1000
0100
0000
,
1000
0000
1000
0000
0001
1000
0100
0000
,
0010
0000
0010
0000
0001
0100
1000
0000
,
1100
1100
0011
0011
,
0010
0100
1001
1001
,
0001
0000
0001
0000
0001
0100
1000
0000
,
1000
0000
1000
0000
1000
0100
0001
0000
,
0010
0010
0001
1100
,
0010
1000
0100
0101
,
0020
0000
1030
0001
,
1000
0001
1000
0001
1000
0001
1000
0000
,
0010
0010
1100
0101
,
0010
0010
0101
1010
,
0010
0001
0100
0000
0010
0100
1000
0000
,
0001
0100
0010
0000
1000
0100
0010
0000
,
1010
0011
0100
0100
,
0011
1010
0010
0010
,
0001
0100
1000
0100
,
0010
0100
0010
0100
0010
0100
0010
0000
,
0001
0000
1000
0000
0100
0100
0100
0000
,
0001
0000
1000
0000
0010
0010
0010
0000
,
0001
0001
0001
0000
1000
1000
1000
0000
,
0001
0000
0100
0000
0001
0100
0001
0000
,
1000
1100
1000
1000
,
0001
0101
0001
0001
,
0010
0100
0010
0000
1000
0001
1000
0000
,
0010
0000
0001
0000
0010
0100
0001
0000
,
0001
0001
1001
0001
,
0100
0100
1100
0100
,
0010
0000
0001
0000
0100
0010
0001
0000
,
0001
0000
1000
0000
0010
1000
0100
0000
,
0001
1001
0010
0110
,
0010
0001
0010
0001
0010
0001
0010
0000
,
0010
0010
1100
0101
,
0010
0010
0101
1010
,
0010
0001
0100
0000
0010
0100
1000
0000
,
0001
0100
0010
0000
1000
0100
0010
0000
,
1010
0011
0100
0100
,
0011
1010
0010
0010
,
0001
0100
1000
0100
,
0010
0100
0010
0100
0010
0100
0010
0000
,
1000
1000
0001
0001
,
0010
0010
0100
0100
,
0010
0001
0100
1000
,
0010
1000
0100
0000
0010
0001
0100
0000
,
0010
0010
0001
0001
,
1000
1000
0100
0100
,
0010
0001
0100
0000
0010
1000
0100
0000
,
1000
1001
0001
1001
,
0010
0110
0100
0110
;

//--------------- dance-single - John Earl De Juan ----------------
#NOTES:
     dance-single:
     John Earl De Juan:
     Hard:
     10:
     0,0,0,0,0:
0000
0000
0000
0000
,
0000
0000
0000
0000
,
0000
0000
0000
0000
,
0000
0000
0000
0000
,
1000
0001
0001
0000
0100
0000
0110
0000
,
0010
0100
0100
0000
0001
0000
1100
0000
,
0001
1000
0100
0000
0001
1000
0100
0000
,
0010
0001
0100
0020
0000
0000
0030
0000
,
1000
0100
0010
0001
0001
0001
0100
0010
,
1000
0100
0010
0100
1001
0000
0100
0000
,
0010
1000
0010
1000
0010
0001
0010
0100
,
0100
0100
0001
1000
0000
0001
0100
0000
,
1000
0100
0001
0010
1000
1000
1000
0000
,
0010
0100
0001
0010
1000
1000
0100
0000
,
0010
0000
0001
0000
0010
0000
0010
0000
0100
0000
1000
0001
0100
0000
0001
0000
,
0100
0010
1000
0100
0000
0100
0010
0000
,
1000
1000
0001
0001
0010
0010
0100
0100
,
2002
0000
0000
3003
,
0010
1000
0010
1000
0000
0001
0001
0000
,
0010
0000
0001
0000
0010
0000
0001
0000
0000
0000
1000
0000
1000
0000
1000
0100
,
0010
0000
0000
0000
0001
0010
0100
0000
0000
0000
1000
0000
0001
0000
0000
0000
,
0001
0100
1000
0000
1000
0010
0001
0000
,
0100
0001
0100
0001
0000
1000
1000
0000
,
0100
0000
1000
0000
0100
0000
1000
0000
0000
0000
0010
0000
1000
0000
0100
0001
,
0010
0000
0000
0000
0010
0001
0100
0000
0000
0000
0010
0000
0100
0000
0000
0000
,
0001
1000
0100
0000
0011
0000
1100
0000
,
2000
0010
0010
3000
0200
0001
0001
0300
,
0010
1000
0100
0000
0010
0001
0100
0000
,
1000
0100
0001
0100
1000
0001
0010
0100
,
0010
0000
0001
0000
0010
0000
1000
0000
1000
0001
1000
0001
1000
0000
0000
0000
,
0010
1000
0010
0000
0010
0001
0010
0000
,
0010
1000
0010
0001
0010
1000
0010
0000
,
0001
0100
0001
0000
0001
0000
0100
0000
1000
0000
0100
0000
1000
0000
0000
0000
,
0100
0001
0100
1000
0100
0001
0100
0000
,
0010
1000
0200
0000
0001
0000
0301
0000
,
0010
1000
0002
0000
0100
0000
0103
0000
,
1100
0000
0000
0000
0110
0000
0000
0000
0001
0000
1000
0001
1000
0000
0100
0000
,
1000
0101
0010
1001
,
2000
3002
0023
0130
,
2002
0000
0000
3003
,
0010
1000
0010
1000
0000
0001
0001
0000
,
0010
0000
0001
0000
0010
0000
0001
0000
0000
0000
1000
0000
1000
0000
1000
0100
,
0010
0000
0000
0000
0001
0010
0100
0000
0000
0000
1000
0000
0001
0000
0000
0000
,
0001
0100
1000
0000
1000
0010
0001
0000
,
0100
0001
0100
0001
0000
1000
1000
0000
,
0100
0000
1000
0000
0100
0000
1000
0000
0000
0000
0010
0000
1000
0000
0100
0001
,
0010
0000
0000
0000
0010
0001
0100
0000
0000
0000
0010
0000
0100
0000
0000
0000
,
0001
1000
0100
0000
0011
0000
1100
0000
,
2000
0001
3001
0000
0110
0000
1001
0000
,
0020
1000
0130
0000
0011
0000
1100
0000
,
1000
0010
0100
0001
0010
0100
1000
0000
,
1000
0001
1000
0000
0010
0000
0010
0000
,
1000
0100
0010
0001
0000
0001
1001
0000
,
0001
0000
0010
0000
0100
0000
1000
0000
0000
0000
0010
0000
0010
0000
0010
1000
,
0100
0000
0000
0000
0010
0001
0100
0000
0000
0000
1100
0000
0101
0000
0000
0000
,
0010
0100
0110
0000
1000
0001
1001
0000
,
0100
0001
0100
0001
0000
1000
1000
0000
;

//--------------- dance-double - John Earl De Juan ----------------
#NOTES:
     dance-double:
     John Earl De Juan:
     Challenge:
     10:
     0,0,0,0,0:
00000000
00000000
00000000
00000000
,
00000000
00000000
00000000
00000000
,
00000000
00000000
00000000
00000000
,
00000000
00000000
00000000
00000000
,
00000000
00000100
00000100
00001000
,
00000100
00010000
00010000
00001000
,
00010000
00110000
00010000
01010000
,
00100000
00010000
01000000
00200000
00000000
00000000
00300000
00000000
,
10000000
01000000
00100000
00010000
00010000
00010000
01000000
00100000
,
10000000
01000000
00100000
01000000
10010000
00000000
01000000
00000000
,
00100000
10000000
00100000
10000000
00100000
00010000
00100000
01000000
,
01000000
01000000
00010000
10000000
00000000
00000000
00000000
00010000
,
01000000
00000000
00010000
00100000
01000000
00010000
00001000
00000000
,
00000100
00000000
00000001
00000010
00000100
00000001
00001000
00000000
,
00001000
00001000
00001000
00000000
00000100
00000100
00001100
00000000
,
00001000
00010000
00010000
00010000
00001000
00001000
00010000
00010000
,
00001000
00001000
00000001
00000001
00000010
00000010
00000100
00000100
,
00002002
00000000
00000000
00003003
,
00000010
00001000
00000010
00001000
00000000
00000001
00000001
00000000
,
00000010
00000000
00000001
00000000
00000010
00000000
00000001
00000000
00000000
00000000
00001000
00000000
00001000
00000000
00001000
00000100
,
00000010
00000000
00000000
00000000
00000001
00000010
00000100
00000000
00000000
00000000
00001000
00000000
00000001
00000000
00000000
00000000
,
00000001
00000100
00001000
00000000
00001000
00010000
00100000
00000000
,
01000000
00010000
01000000
00010000
00000000
10000000
10000000
00000000
,
01000000
00000000
10000000
00000000
01000000
00000000
10000000
00000000
00000000
00000000
00100000
00000000
10000000
00000000
01000000
00010000
,
00100000
00000000
00000000
00000000
00100000
00010000
01000000
00000000
00000000
00000000
00100000
00000000
01000000
00000000
00000000
00000000
,
00010000
10000000
01000000
00000000
00110000
00000000
11000000
00000000
,
20000000
00100000
00100000
30000000
02000000
00010000
00010000
03000000
,
00100000
10000000
01000000
00000000
00100000
00010000
01000000
00000000
,
10000000
01000000
00010000
01000000
10000000
00010000
00100000
01000000
,
00010000
00000000
00001000
00000000
00100000
00000000
00001000
00000000
00001000
00000010
00001000
00000010
00001000
00000000
00000000
00000000
,
00000010
00001000
00000010
00000000
00000010
00000001
00000010
00000000
,
00000010
00001000
00000010
00000001
00000010
00001000
00000010
00000000
,
00000001
00000100
00000001
00000000
00000001
00000000
00000100
00000000
00001000
00000000
00000100
00000000
00001000
00000000
00000000
00000000
,
00000100
00000001
00000100
00001000
00000100
00000001
00000100
00000000
,
00000010
00001000
00000200
00000000
00000301
00000000
00001001
00000000
,
00000010
00001000
00000002
00000000
00000103
00000000
00001000
00000000
,
00001100
00000000
00000000
00000000
00000110
00000000
00000000
00000000
00000001
00000000
00001000
00000001
00001000
00000000
00000100
00000000
,
00001000
00000101
00000010
00001001
,
00002000
00003002
00000023
00000130
,
00002002
00000000
00000000
00003003
,
00000010
00001000
00000010
00001000
00000000
00000001
00000001
00000000
,
00000010
00000000
00000001
00000000
00000010
00000000
00000001
00000000
00000000
00000000
00001000
00000000
00001000
00000000
00001000
00000100
,
00000010
00000000
00000000
00000000
00000001
00000010
00000100
00000000
00000000
00000000
00001000
00000000
00000001
00000000
00000000
00000000
,
00000001
00000100
00001000
00000000
00010000
00001000
00100000
00000000
,
01000000
00010000
01000000
00010000
00000000
10000000
10000000
00000000
,
01000000
00000000
10000000
00000000
01000000
00000000
10000000
00000000
00000000
00000000
00100000
00000000
10000000
00000000
01000000
00010000
,
00100000
00000000
00000000
00000000
00100000
00010000
01000000
00000000
00000000
00000000
00100000
00000000
01000000
00000000
00000000
00000000
,
00010000
10000000
01000000
00000000
00110000
00000000
11000000
00000000
,
10000000
00010000
00010000
00100000
01000000
10000000
10010000
00000000
,
00010000
00000000
00100000
00000000
00100000
00000000
01000000
00000000
01000000
00000000
10000000
00000000
10010000
00000000
00010000
00100000
,
00010000
00000000
00000000
00000000
10000000
00100000
10000000
00000000
00000000
00000000
00100000
00000000
01100000
00000000
00000000
00000000
,
10000000
01000000
00010000
01000000
10000000
10000000
01010000
00000000
,
00010000
01000000
00001000
00010000
00000100
00000100
00001100
00000000
,
00001000
00000000
00000001
00000000
00000010
00000000
00000010
00000000
00000100
00000000
00001000
00000000
00001001
00000000
00000001
00000010
,
00000001
00000000
00000000
00000000
00001000
00000010
00001000
00000000
00000000
00000000
00000101
00000000
00001100
00000000
00000000
00000000
,
00000010
00000100
00000100
00000001
00001000
00001000
00000001
00000001
,
00000100
00000100
00000010
00000010
00000200
00000000
00000000
00000000
,
00000300
00000000
00000000
00000000
;
