#TITLE:Beep Beep Beep Ang Sabi Ng Jeep;
#SUBTITLE:;
#ARTIST:Willie Revillame;
#TITLETRANSLIT:;
#SUBTITLETRANSLIT:;
#ARTISTTRANSLIT:;
#GENRE:Novelty Pop;
#CREDIT:Jenro Jupitel;
#MUSIC:Beep Beep Beep Ang Sabi Ng Jeep.ogg;
#BANNER:Beep Beep Beep-bn.png;
#BACKGROUND:Beep Beep Beep-bg.png;
#CDTITLE:;
#SAMPLESTART:0.000;
#SAMPLELENGTH:0.000;
#SELECTABLE:YES;
#OFFSET:-1.151;
#BPMS:0.000=135.000
,220.000=270.000
,224.000=67.500
,225.000=270.000
,229.000=135.000
;
#STOPS:220.000=0.222
,221.000=0.222
,222.000=0.222
,223.000=0.222
;
#BGCHANGES:;
#FGCHANGES:;

//--------------- dance-single - Jenro Jupitel (2021) ----------------
#NOTES:
     dance-single:
     Jenro Jupitel (2021):
     Beginner:
     3:
     0,0,0,0,0:
0000
0000
0000
0000
,
0000
0000
0000
0000
,
0000
0000
0000
0000
,
0000
0000
0000
0000
,
1000
0000
0100
0000
,
0001
0000
0100
0000
,
1000
0000
0100
0000
,
0010
0000
0000
0000
,
1000
1000
1000
0000
,
0010
0001
0010
0000
,
0001
0001
0001
0001
,
0010
0000
0000
0000
,
0000
0000
0000
0000
,
1000
1000
1000
0000
,
0010
0001
0010
0000
,
0001
0001
0001
0001
,
0010
0000
0000
0000
,
0001
0001
0001
0000
,
0010
1000
0010
0000
,
1000
1000
1000
1000
,
0010
0000
0000
0000
,
0100
0100
0100
0000
,
0010
1000
0001
0000
,
0100
0010
0100
0010
,
0100
0000
0000
0000
,
0000
0000
0000
0000
,
1001
0000
1001
0000
,
1001
0000
1001
0000
,
1001
0000
1001
0000
,
1001
0000
1001
0000
,
0110
0000
0110
0000
,
1001
0000
1001
0000
,
0110
0000
1001
0000
,
0110
0110
0110
0110
,
1001
0000
1001
0000
,
0110
0000
1001
0000
,
0110
0000
1001
0000
,
0110
0000
1001
0000
,
0001
0001
0001
0001
,
1000
1000
1000
0000
,
0010
0001
0010
0000
,
0001
0001
0001
0001
,
0010
0000
0000
0000
,
0001
0001
0001
0000
,
0010
1000
0010
0000
,
1000
1000
1000
1000
,
0010
0000
0000
0000
,
0100
0100
0100
0000
,
0010
1000
0001
0000
,
0100
0010
0100
0010
,
0100
0000
0000
0000
,
1000
0000
0001
0000
,
0010
0000
0010
0000
,
0100
0000
1000
0000
,
0100
0000
1000
0000
,
0100
0100
0100
0100
;

//--------------- dance-single - Jenro Jupitel (2021) ----------------
#NOTES:
     dance-single:
     Jenro Jupitel (2021):
     Easy:
     6:
     0,0,0,0,0:
0000
0000
0000
0000
,
0000
0000
0000
0000
,
0000
0000
0000
0000
,
0000
0000
0000
0000
,
0001
0000
1000
0000
,
0001
0001
0010
0000
,
1000
0000
0001
0000
,
1000
1000
0010
0000
,
0100
0100
0100
0000
,
0010
0100
0010
0000
,
0100
0100
0010
0010
,
0100
0000
0000
0000
,
0020
0000
0030
0000
,
1000
0001
1100
0000
,
0101
0001
1000
0000
,
1000
0010
0001
0010
,
2001
3000
0000
0000
,
0001
1000
0011
0000
,
1010
1000
0001
0000
,
0001
0100
1000
0100
,
1002
0003
0000
0000
,
0100
0100
1001
0000
,
1000
0001
0110
0000
,
1000
1000
0001
0001
,
0220
0330
0000
0000
,
0020
0000
0030
0000
,
0001
0010
0001
0010
,
1000
0100
1000
0100
,
0001
0010
0100
1000
,
0001
0010
0100
1001
,
1000
0001
0001
0010
,
0100
0100
1000
1001
,
2000
3001
2000
3001
,
0001
0010
0001
0010
0001
0010
0001
0000
,
1000
0100
0001
0100
,
1000
0011
0100
0011
,
0001
0011
1000
0011
,
0100
0011
0100
0011
,
1001
0011
1001
0011
,
1000
0001
1100
0000
,
0101
0001
1000
0000
,
1000
0010
0001
0010
,
1002
0003
0000
0000
,
0001
1000
0011
0000
,
1010
1000
0001
0000
,
0001
0100
1000
0100
,
2001
3000
0000
0000
,
0100
0100
1001
0000
,
1000
0001
0110
0000
,
1000
1000
0001
0001
,
0220
0330
0000
0000
,
2000
0001
3100
0002
,
1003
0002
0200
0303
,
0002
1000
0103
0010
,
2002
0000
3003
0000
,
1001
0011
1001
0011
,
0000
0020
0000
0000
,
0000
0030
MMMM
MMMM
MMMM
MMMM
MMMM
0000
;

//--------------- dance-single - Jenro Jupitel (2021) ----------------
#NOTES:
     dance-single:
     Jenro Jupitel (2021):
     Medium:
     9:
     0,0,0,0,0:
0000
0000
0000
0000
,
0000
0000
0000
0000
,
0000
0000
0000
0000
,
0000
0000
0000
0000
,
1000
0001
0010
0001
,
1000
0000
0100
0000
1000
1000
1000
0000
,
0001
0100
0001
1000
,
0010
0000
0000
0000
,
0100
0100
0100
0000
,
0010
0010
0010
0000
0010
0000
0000
0000
,
0100
0010
0100
0010
,
0100
0000
0000
0000
,
2020
0000
3030
0000
,
0001
0100
1100
0000
,
1000
0100
0101
0000
,
0001
1100
1000
0101
,
1001
1000
0000
1000
0000
0000
0000
0000
,
1000
0010
0011
0000
,
0001
0010
1010
0000
,
1000
0011
0001
1010
,
1001
0001
0000
0001
0000
0000
0000
0000
,
1001
1010
1001
0000
,
1001
0011
1001
0000
,
1001
1100
1001
0101
,
1001
1000
0000
0001
0000
1000
0000
0000
,
0020
0000
0000
0030
0000
0000
0000
0000
,
1000
0010
1000
0010
0100
0001
0100
0001
,
0010
0001
0010
0001
1000
0100
1000
0100
,
1000
0010
1000
0010
0100
0001
1000
0010
,
0100
0001
1000
1000
0001
0001
1000
0000
,
0100
1000
0100
0001
0100
1000
0100
0010
,
0001
0001
0100
0010
1000
1000
1001
0000
,
1000
0010
1000
0001
0010
0001
1000
0010
,
0001
0001
0001
0001
0001
0001
0001
0000
,
1000
0100
1000
0100
0010
0100
1000
0100
,
0010
0000
0000
0001
0000
0000
0100
0000
0000
0001
0000
0000
1000
0000
0000
0010
,
0000
0000
0100
0000
0000
1000
0000
0000
0001
0000
0000
0100
0000
0000
0010
0000
,
0000
1000
0000
0000
0001
0000
0001
0000
1000
0000
1000
0000
0001
0000
0000
0000
,
1010
1001
0011
1001
,
0001
0100
1100
0001
,
1000
0100
0101
1000
,
0001
1100
1000
0101
,
1001
1000
0000
2000
0000
3001
0000
0000
,
1000
0010
0011
1000
,
0001
0010
1010
0001
,
1000
0011
0001
1010
,
1001
0001
0000
0002
0000
1003
0000
0000
,
1001
1010
1001
0100
,
1001
0011
1001
0100
,
1001
1100
1001
0101
,
1001
1000
0000
0002
0000
1003
0000
0000
,
0020
2030
3200
0302
,
0203
2300
3020
0030
,
0200
0302
0023
2030
,
3020
0032
0203
0300
,
1001
0101
1001
1100
,
0000
0020
0000
0000
,
0000
0030
MMMM
MMMM
MMMM
MMMM
MMMM
0000
;

//--------------- dance-single - Jenro Jupitel (2021) ----------------
#NOTES:
     dance-single:
     Jenro Jupitel (2021):
     Hard:
     13:
     0,0,0,0,0:
0000
0000
0000
0000
,
0000
0000
0000
0000
,
0000
0000
0000
0000
,
0000
0000
0000
0000
,
0001
1000
1000
0000
0001
1000
1000
0000
,
0010
1000
1000
0001
0001
0000
0000
0001
,
0001
1000
1000
0001
0001
1000
1000
0010
,
0010
0000
0000
0000
,
0001
0000
1000
0000
0001
0000
0000
1000
,
1000
0001
0001
0010
0010
0000
0000
0000
,
0001
1000
0001
1000
,
0010
0000
0000
0000
,
0200
0000
0000
0300
0000
0000
0000
0000
,
1000
0100
0010
0100
1000
0001
0100
0010
,
0001
0010
0100
0010
0001
1000
0010
0100
,
1000
0010
0100
0010
1000
0001
0010
0100
,
0001
0100
0010
0100
0001
1000
0100
0010
,
0001
0100
0010
0100
0001
1000
0100
0010
,
1000
0010
0100
0010
1000
0001
0010
0100
,
0001
0010
0100
0010
0001
1000
0010
0100
,
1000
0100
0010
0100
1000
0001
0100
0010
,
1000
0010
0100
0010
1000
0001
0010
0100
,
0001
0100
0010
0100
0001
1000
0100
0010
,
1000
0100
0010
0100
1000
0001
0100
0010
,
0001
0010
0100
0010
0001
1000
0010
0100
,
0002
0000
0000
0003
0000
0000
0000
0000
,
1000
0100
0010
0001
1000
0000
0001
0000
1000
0100
0010
0001
1000
0000
0001
0000
,
0001
0010
0100
1000
0001
0000
1000
0000
0001
0010
0100
1000
0001
0000
0100
0000
,
0010
1000
0001
0100
0010
0000
1000
0000
0001
0100
0000
0001
0010
0000
0010
0100
,
0000
0100
1000
0000
1000
0000
1100
0000
1000
0000
1001
0000
1100
0000
0000
0000
,
1000
0001
1000
0100
1000
0001
1000
0010
1000
0001
1000
0100
1000
0001
0100
0010
,
1000
0000
0001
0000
0100
0010
0000
1000
0001
0000
1000
0000
0101
0000
0000
0000
,
1000
0100
0010
0000
0110
0000
1000
0100
0010
0000
0110
0000
1000
0100
0010
0000
,
0100
0010
0100
0010
0100
0010
0100
0010
0100
0010
0100
0000
1001
0000
0000
0000
,
0001
0010
0001
1000
0001
0000
1000
0000
0001
0010
0001
0000
1000
0000
0001
0000
,
0100
0000
0010
0100
0000
0001
1000
0000
0010
0100
0000
0001
1000
0000
0100
0010
,
0000
0001
1000
0000
0010
0100
0000
0001
1000
0000
0100
0010
0000
0001
1000
0000
,
0010
0100
0000
0001
1000
0000
0100
0000
0010
0000
1001
0000
0010
0000
0100
0000
,
2000
3000
2000
3000
2000
3000
2000
0000
,
3001
0010
0100
0010
0001
1000
0010
0100
,
1000
0100
0010
0100
1000
0001
0100
0010
,
0001
0100
0010
0100
0001
1000
0100
0010
,
1000
0010
0100
0010
1000
0001
0010
0100
,
1000
0010
0100
0010
1000
0001
0010
0100
,
0001
0100
0010
0100
0001
1000
0100
0010
,
1000
0100
0010
0100
1000
0001
0100
0010
,
0001
0010
0100
0010
0001
1000
0010
0100
,
0001
0100
0010
0100
0001
1000
0100
0010
,
1000
0010
0100
0010
1000
0001
0010
0100
,
0001
0010
0100
0010
0001
1000
0010
0100
,
1000
0100
0010
0100
1000
0001
0100
0010
,
1000
0000
0000
0000
1001
0000
0000
0001
0100
0000
0000
0000
1000
0000
1000
0000
,
0100
0000
0000
0000
1001
0000
0000
0001
0100
0000
0000
0000
0000
0000
0000
0000
,
1000
0001
1000
0001
1000
0000
0020
0000
,
0200
0000
0330
0000
,
0101
1100
0101
1100
,
0000
0020
0000
0000
,
0000
0030
MMMM
MMMM
MMMM
MMMM
MMMM
0000
;

//--------------- dance-double - Jenro Jupitel (2021) ----------------
#NOTES:
     dance-double:
     Jenro Jupitel (2021):
     Challenge:
     11:
     0,0,0,0,0:
00000000
00000000
00000000
00000000
,
00000000
00000000
00000000
00000000
,
00000000
00000000
00000000
00000000
,
00000000
00000000
00000000
00000000
,
00001000
00010000
00010000
00000000
00010000
00001000
00001000
00000000
,
00001000
00100000
00010000
01000000
00100000
00000000
00000000
00010000
,
00001000
01000000
01000000
00010000
00001000
00000100
00000100
00000010
,
00000110
00000000
00000000
00000000
,
00001001
00000000
00000110
00000000
00001001
00000000
00000000
00001000
,
00010000
00001000
00100000
00010000
00100000
00000000
00000000
00000000
,
10010000
01100000
10010000
01100000
,
00011000
00000000
00000000
00000000
,
00002000
00003000
00000000
00000000
,
00001000
00010000
00000100
00000000
00010000
00001000
01000000
00000000
,
00100000
01000000
10000000
01000000
00100000
01000000
00010000
00000000
,
00010000
00001000
01000000
00000000
00001000
00010000
00000100
00000000
,
00000010
00000100
00000001
00000100
00000010
00000100
00001000
00000000
,
00001000
00100000
00001000
00000000
00010000
00000010
00010000
00000000
,
00010000
00001000
00010000
00000100
00010000
00001000
01000000
00000000
,
00010000
00000010
00010000
00000000
00001000
00100000
00001000
00000000
,
00001000
00010000
00001000
01000000
00001000
00010000
00000100
00000000
,
00001000
00001000
00000100
00000100
00000001
00000100
00001001
00000000
,
00001000
00001000
00010000
00010000
01000000
00100000
01100000
00000000
,
10000000
10000000
01000000
01000000
00100000
00100000
00010000
00010000
,
00101000
00101000
00000000
00000000
00000000
00000000
00000000
00000000
,
00020000
00030000
00000000
00000000
,
10000000
01000000
10000000
01000000
00100000
01000000
00100000
01000000
,
00100000
00010000
00100000
00010000
01000000
00001000
01000000
00001000
,
00010000
00001000
00010000
00001000
00001000
00000010
00000100
00000001
,
00001000
00001000
00000001
00000001
00001001
00001001
00001001
00000000
,
00010000
00101000
00001000
00011000
00001000
00001010
00010000
00011000
,
01000000
01000000
00100000
00100000
10000000
00010000
10010000
00000000
,
10000000
01000000
10010000
10000000
01000000
10010000
10000000
01000000
,
00100000
00010000
00100000
00010000
00100000
00010000
00100000
00010000
00100000
00010000
00100000
00000000
00110000
00000000
00000000
00000000
,
00001000
00010000
00000010
00000010
00000100
00000100
00001000
00000001
,
00001000
00000000
00000000
00010000
00000000
00000000
00000100
00000000
00000000
00010000
00000000
00000000
00100000
00000000
00000000
00001000
,
00000000
00000000
01000000
00000000
00000000
00010000
00000000
00000000
01000000
00000000
00000000
00001000
00000000
00000000
00010000
00000000
,
00000000
00010000
00000000
00000000
00001000
00000000
00001000
00000000
00010000
00000000
00010000
00000000
00011000
00000000
00000000
00000000
,
00110000
00011000
00001010
00011000
,
00010000
00001000
00100000
00000000
00001000
00010000
00000010
00000000
,
00000100
00000010
00000001
00000010
00000100
00000010
00001000
00000000
,
00001000
00010000
00000010
00000000
00010000
00001000
00100000
00000000
,
01000000
00100000
10000000
00100000
01000000
00100000
00010000
00000000
,
00010000
00000100
00010000
00000000
00001000
01000000
00001000
00000000
,
00001000
00010000
00001000
00100000
00001000
00010000
00000010
00000000
,
00001000
01000000
00001000
00000000
00010000
00000100
00010000
00000000
,
00010000
00001000
00010000
00000010
00010000
00001000
00100000
00000000
,
00010000
00010000
00010000
00011000
,
00001000
00001000
00001000
00011000
,
00010000
00001000
00010000
00001000
00010000
00001000
00010000
00001000
,
00011000
00022000
00000000
00000000
00000000
00000000
00033000
00000000
,
00200000
00310000
00002000
00013000
,
00020000
00000000
00030010
00000100
00000010
00000000
00001001
00000000
,
00000001
00000010
00000100
00001000
00000100
00000000
00010000
00000000
,
00002000
00000000
00003000
00000000
,
00011000
00110000
00011000
00001010
,
00000000
00020000
00000000
00000000
,
00000000
00000000
00030000
M0M00M0M
0M0000M0
M0M00M0M
000MM000
00M00M00
;
